osu file format v13

[General]
AudioFilename: Sidonia.mp3
AudioLeadIn: 0
PreviewTime: 20950
Countdown: 1
SampleSet: Normal
StackLeniency: 0.7
Mode: 0
LetterboxInBreaks: 1
WidescreenStoryboard: 1

[Editor]
DistanceSpacing: 1
BeatDivisor: 4
GridSize: 8
TimelineZoom: 2.4

[Metadata]
Title:Sidonia (TV Size)
TitleUnicode:Sidonia (TV Size)
Artist:angela
ArtistUnicode:angela
Creator:Nazalion
Version:Hard
Source:Sidonia no Kishi
Tags:Knight of sidonia no kishi mangopore DrawdeX
BeatmapID:426501
BeatmapSetID:177157

[Difficulty]
HPDrainRate:6
CircleSize:4
OverallDifficulty:6
ApproachRate:8
SliderMultiplier:1.5
SliderTickRate:1

[Events]
//Background and Video events
0,0,"BG.jpg",0,0
Video,0,"sidonia.avi"
//Break Periods
//Storyboard Layer 0 (Background)
//Storyboard Layer 1 (Fail)
//Storyboard Layer 2 (Pass)
//Storyboard Layer 3 (Foreground)
//Storyboard Sound Samples
//Background Colour Transformations
3,100,163,162,255

[TimingPoints]
1120,1016.94915254237,4,2,0,40,1,0
21455,408.163265306122,4,1,1,30,1,0
34516,-100,4,1,1,40,0,0
40638,-100,4,1,1,30,0,0
40842,-100,4,1,1,35,0,0
41046,-100,4,1,1,40,0,0
41863,-100,4,1,1,35,0,0
42271,-100,4,1,1,40,0,0
47169,-100,4,1,1,20,0,0
49210,-80,4,1,1,40,0,1
61454,-80,4,1,1,20,0,0
61863,-80,4,1,1,30,0,0
62271,-80,4,1,1,40,0,0
67169,-80,4,1,1,20,0,0
67985,-80,4,1,1,30,0,0
68801,-80,4,1,1,40,0,0
75332,-71.4285714285714,4,1,1,50,0,1
86761,-71.4285714285714,4,1,1,5,0,1
88189,-80,4,2,1,5,0,0
472169,-100,4,1,1,35,0,0

[Colours]
Combo1 : 192,192,192
Combo2 : 255,128,64
Combo3 : 255,255,0
Combo4 : 242,24,57

[HitObjects]
64,192,1120,5,0,0:0:0:0:
128,248,2136,1,0,0:0:0:0:
144,328,3153,2,0,P|224:344|312:328,1,150
408,256,4679,1,0,0:0:0:0:
408,256,4933,1,0,0:0:0:0:
408,256,5187,2,0,L|392:80,1,150,2|0,0:0|0:0,0:0:0:0:
392,72,7221,5,0,0:0:0:0:
320,128,8238,2,0,P|224:160|144:152,1,150,2|2,0:0|0:0,0:0:0:0:
64,120,10272,1,2,0:0:0:0:
64,120,11289,2,0,L|80:208,1,75,2|0,0:0|0:0,0:0:0:0:
112,272,12306,2,0,P|160:288|280:280,1,150,0|2,0:0|0:0,0:0:0:0:
368,248,14340,1,0,0:0:0:0:
368,248,15357,2,0,P|392:184|368:80,1,150,2|0,0:0|0:0,0:0:0:0:
248,152,17391,6,0,P|296:168|408:152,1,150,4|0,0:0|0:0,0:0:0:0:
256,192,19425,12,0,20442,0:0:0:0:
256,192,21455,5,0,0:0:0:0:
256,192,21863,2,0,P|296:224|336:224,1,75,8|0,0:0|0:0,0:0:0:0:
320,136,22271,2,0,P|272:104|232:104,1,75
176,144,22679,2,0,L|184:248,1,75,8|0,0:0|0:0,0:0:0:0:
96,272,23087,2,0,L|88:184,1,75
96,56,23495,2,0,L|176:56,1,75,8|0,0:0|0:0,0:0:0:0:
200,144,23903,6,0,L|120:144,1,75,8|0,0:0|0:0,0:0:0:0:
40,144,24312,1,8,0:0:0:0:
136,224,24516,1,0,0:0:0:0:
240,288,24720,2,0,P|280:240|280:144,1,150,6|0,0:0|0:0,0:0:0:0:
176,64,25332,5,0,0:0:0:0:
176,64,25536,2,0,L|200:152,1,75,8|0,0:0|0:0,0:0:0:0:
296,288,25944,2,0,L|272:192,1,75
192,208,26352,2,0,P|144:224|96:216,1,75,8|0,0:0|0:0,0:0:0:0:
256,136,26761,2,0,P|312:128|344:136,1,75,8|0,0:0|0:0,0:0:0:0:
416,160,27169,1,8,0:0:0:0:
304,216,27373,1,0,0:0:0:0:
416,288,27577,1,8,0:0:0:0:
304,312,27781,1,0,0:0:0:0:
296,336,27985,6,0,L|120:360|120:360,1,150,6|0,0:0|0:0,0:0:0:0:
64,280,28597,1,0,0:0:0:0:
144,224,28801,2,0,P|176:192|152:80,1,150,10|0,0:0|0:0,0:0:0:0:
104,32,29414,1,0,0:0:0:0:
96,144,29618,2,0,L|264:104,1,150,8|0,0:0|0:0,0:0:0:0:
336,88,30230,1,0,0:0:0:0:
416,160,30434,2,0,P|440:208|424:256,1,75,8|0,0:0|0:0,0:0:0:0:
376,296,30842,2,0,P|360:256|360:216,1,75,2|0,0:0|0:0,0:0:0:0:
376,128,31250,6,0,P|328:144|200:136,2,150,14|0|0,0:0|0:0|0:0,0:0:0:0:
296,64,32271,1,0,0:0:0:0:
424,96,32475,2,0,L|448:64,4,37.5
312,72,33087,1,0,0:0:0:0:
352,168,33291,2,0,L|368:224,4,37.5
264,192,33903,1,0,0:0:0:0:
208,120,34108,1,0,0:0:0:0:
184,40,34312,1,0,0:0:0:0:
312,72,34516,6,0,P|376:104|480:104,1,150,8|0,0:0|0:0,0:0:0:0:
456,200,35128,1,0,0:0:0:0:
440,296,35332,2,0,L|272:304,1,150,8|0,0:0|0:0,0:0:0:0:
200,264,35944,1,0,0:0:0:0:
200,264,36148,2,0,P|216:192|144:128,1,150,8|8,0:0|0:0,0:0:0:0:
88,112,36761,1,0,0:0:0:0:
120,208,36965,2,0,P|168:176|184:80,1,150,10|0,0:0|0:0,0:0:0:0:
187,89,37577,1,0,0:0:0:0:
256,200,37781,6,0,L|256:352,1,150,8|0,0:0|0:0,0:0:0:0:
256,350,38393,1,0,0:0:0:0:
168,280,38597,1,8,0:0:0:0:
344,280,38801,1,0,0:0:0:0:
256,208,39006,2,0,P|192:208|160:192,1,75,8|0,0:0|0:0,0:0:0:0:
224,128,39414,2,0,P|280:128|344:208,1,150
344,280,40026,1,0,0:0:0:0:
341,192,40230,2,0,L|344:32,1,150,8|0,0:0|0:0,0:0:0:0:
343,42,40842,1,0,0:0:0:0:
343,42,41046,6,0,P|272:80|200:80,1,150,12|0,0:0|0:0,0:0:0:0:
120,64,41659,1,0,0:0:0:0:
120,64,41863,2,0,L|96:152,1,75
144,304,42271,2,0,P|192:256|272:232,1,150,8|0,0:0|0:0,0:0:0:0:
256,328,43087,2,0,L|208:168,1,150,8|0,0:0|0:0,0:0:0:0:
264,64,43903,6,0,L|312:216,1,150,8|0,0:0|0:0,0:0:0:0:
368,280,44516,1,0,0:0:0:0:
408,200,44720,2,0,L|408:112,1,75,2|0,0:0|0:0,0:0:0:0:
328,104,45128,2,0,L|328:200,1,75,2|0,0:0|0:0,0:0:0:0:
288,248,45536,2,0,P|232:224|192:144,1,150
192,64,46352,1,0,0:0:0:0:
192,64,46761,1,8,0:0:0:0:
256,192,47169,12,0,48801,0:0:0:0:
256,272,49210,6,0,P|328:304|360:296,1,93.75,12|0,0:0|0:0,0:0:0:0:
328,224,49618,2,0,L|304:120,1,93.75
224,96,50026,2,0,L|248:200,1,93.75,8|0,0:0|0:0,0:0:0:0:
176,240,50434,2,0,L|64:240,1,93.75
16,160,50842,2,0,L|240:160,1,187.5,8|0,0:0|0:0,0:0:0:0:
256,224,51454,1,0,0:0:0:0:
224,304,51659,2,0,P|176:320|128:304,1,93.75,8|0,0:0|0:0,0:0:0:0:
88,240,52067,6,0,L|112:136,1,93.75
128,64,52475,1,8,0:0:0:0:
192,120,52679,2,0,P|256:136|376:104,1,187.5
448,56,53291,2,0,L|464:160,1,93.75,8|0,0:0|0:0,0:0:0:0:
392,208,53699,2,0,L|376:112,1,93.75
288,80,54108,2,0,L|320:272,1,187.5,8|0,0:0|0:0,0:0:0:0:
400,304,54720,1,0,0:0:0:0:
392,208,54924,6,0,L|296:208,1,93.75,8|0,0:0|0:0,0:0:0:0:
224,256,55332,1,0,0:0:0:0:
296,304,55536,1,0,0:0:0:0:
296,216,55740,2,0,P|248:176|200:176,1,93.75,8|0,0:0|0:0,0:0:0:0:
152,224,56148,2,0,P|152:128|224:88,1,187.5,0|8,0:0|0:0,0:0:0:0:
296,120,56761,5,0,0:0:0:0:
360,176,56965,2,0,P|408:192|456:192,1,93.75
424,112,57373,2,0,L|384:304,1,187.5,8|0,0:0|0:0,0:0:0:0:
385,295,57985,1,0,0:0:0:0:
385,295,58189,2,0,L|264:296,1,93.75,8|0,0:0|0:0,0:0:0:0:
128,232,58597,6,0,L|240:232,1,93.75
304,192,59006,2,0,P|344:144|280:32,1,187.5,14|0,0:0|0:0,0:0:0:0:
216,48,59618,1,0,0:0:0:0:
264,112,59822,2,0,L|368:88,1,93.75,8|0,0:0|0:0,0:0:0:0:
464,144,60230,2,0,L|368:176,1,93.75,0|0,0:0|0:0,0:0:0:0:
280,200,60638,5,10,0:0:0:0:
280,200,60842,1,0,0:0:0:0:
272,288,61046,2,0,L|224:288,3,46.875,0|0|0|0,0:0|0:0|0:0|0:0,0:0:0:0:
168,240,61454,2,0,L|112:208,3,46.875
128,128,61863,1,0,0:0:0:0:
136,40,62067,1,0,0:0:0:0:
216,56,62271,6,0,P|288:64|336:56,1,93.75,12|0,0:0|0:0,0:0:0:0:
416,56,62679,2,0,P|408:120|416:264,1,187.5,0|8,0:0|0:0,0:0:0:0:
448,328,63291,1,0,0:0:0:0:
412,242,63495,2,0,P|336:256|216:224,1,187.5,0|8,0:0|0:0,0:0:0:0:
168,160,64108,1,0,0:0:0:0:
144,72,64312,1,0,0:0:0:0:
144,72,64516,1,0,0:0:0:0:
192,256,64720,6,0,P|104:272|72:248,1,93.75,8|0,0:0|0:0,0:0:0:0:
40,200,65128,2,0,L|56:80,1,93.75
144,72,65536,2,0,P|216:80|272:64,1,93.75,8|0,0:0|0:0,0:0:0:0:
328,56,65944,1,0,0:0:0:0:
408,120,66148,1,0,0:0:0:0:
472,208,66352,2,0,P|464:272|424:296,1,93.75,8|0,0:0|0:0,0:0:0:0:
368,336,66761,2,0,L|168:304,1,187.5
24,272,67577,5,2,0:0:0:0:
182,306,67985,2,0,L|368:240,1,187.5
448,208,68597,1,0,0:0:0:0:
448,208,68801,2,0,P|456:152|448:104,1,93.75
368,64,69210,2,0,P|320:88|184:80,1,187.5,8|0,0:0|0:0,0:0:0:0:
112,48,69822,1,0,0:0:0:0:
32,80,70026,6,0,L|40:192,1,93.75
128,272,70434,2,0,L|120:176,1,93.75,8|0,0:0|0:0,0:0:0:0:
120,88,70842,1,0,0:0:0:0:
200,40,71046,1,0,0:0:0:0:
192,128,71250,2,0,P|248:160|384:160,1,187.5
464,128,71863,1,0,0:0:0:0:
464,128,72067,1,12,0:0:0:0:
256,192,72475,12,0,73699,0:0:0:0:
256,192,74040,5,0,0:0:0:0:
256,192,74380,5,0,0:0:0:0:
256,192,75332,6,0,L|272:296,1,104.999996795654,4|0,0:0|0:0,0:0:0:0:
344,344,75740,2,0,P|400:352|440:320,1,104.999996795654
432,232,76148,2,0,P|400:144|272:88,1,209.999993591309,8|0,0:0|0:0,0:0:0:0:
208,112,76761,1,0,0:0:0:0:
302,88,76965,1,8,0:0:0:0:
272,184,77169,2,0,P|200:232|48:224,1,209.999993591309
64,160,77781,2,0,L|64:48,1,104.999996795654,8|0,0:0|0:0,0:0:0:0:
144,112,78189,2,0,L|144:224,1,104.999996795654
144,296,78597,6,0,P|208:328|344:304,1,209.999993591309,8|0,0:0|0:0,0:0:0:0:
432,248,79210,1,0,0:0:0:0:
352,176,79414,1,8,0:0:0:0:
432,248,79618,2,0,L|464:144,1,104.999996795654
352,176,80026,2,0,L|320:288,1,104.999996795654,0|10,0:0|0:0,0:0:0:0:
248,192,80638,2,0,P|270:92|355:34,1,209.999993591309
392,176,81454,5,0,0:0:0:0:
392,176,81659,1,0,0:0:0:0:
392,176,81863,2,0,L|384:288,1,104.999996795654,12|0,0:0|0:0,0:0:0:0:
280,320,82271,2,0,P|176:336|56:304,1,209.999993591309,0|8,0:0|0:0,0:0:0:0:
56,224,82883,2,0,P|120:208|208:88,1,209.999993591309
288,80,83495,2,0,L|328:200,1,104.999996795654,8|0,0:0|0:0,0:0:0:0:
360,264,83903,1,0,0:0:0:0:
408,352,84108,2,0,P|448:312|448:256,1,104.999996795654,0|8,0:0|0:0,0:0:0:0:
400,192,84516,5,0,0:0:0:0:
320,232,84720,1,0,0:0:0:0:
272,304,84924,1,0,0:0:0:0:
304,200,85128,1,8,0:0:0:0:
400,192,85332,5,0,0:0:0:0:
304,200,85536,1,0,0:0:0:0:
296,112,85740,1,0,0:0:0:0:
384,104,85944,2,0,L|397:208,1,104.999996795654,12|0,0:0|0:0,0:0:0:0:
296,304,86352,2,0,P|244:302|201:273,1,104.999996795654,14|0,0:0|0:0,0:0:0:0:
256,192,86761,12,0,88189,0:0:0:0:
