osu file format v5

[General]
AudioFilename: 03 - Shangri-La.mp3
AudioLeadIn: 0
PreviewTime: -1
Countdown: 0
SampleSet: Soft
StackLeniency: 0.7
Mode: 0
LetterboxInBreaks: 1
EditorBookmarks: 39483
EditorDistanceSpacing: 1

[Metadata]
Title:Shangri-La
Artist:angela
Creator:kioukiou
Version:Normal
Source:Fafner of the Azure
Tags:

[Difficulty]
HPDrainRate:3
CircleSize:4
OverallDifficulty:5
SliderMultiplier:1.4
SliderTickRate:2

[Events]
//Background and Video events
0,0,"fafner.jpg"
//Break Periods
2,103145,112899
//Storyboard Layer 0 (Background)
//Storyboard Layer 1 (Fail)
//Storyboard Layer 2 (Pass)
//Storyboard Layer 3 (Foreground)
Sprite,Foreground,Centre,"White.PNG",320,240 M,0,80253,,320,240 F,0,80253,80445,1,0
Sprite,Foreground,Centre,"White.PNG",320,240 F,0,141791,141983,1,0
//Storyboard Sound Samples
//Background Colour Transformations
3,100,163,162,255

[TimingPoints]
253,384.615384615385,4,1,1,100,1,0
40445,-100,4,2,2,100,0,0
65253,-100,4,1,1,100,0,0
65349,-100,4,2,2,100,0,0
68329,-100,4,1,1,100,0,0
68426,-100,4,2,2,100,0,0
74483,-100,4,1,1,100,0,0
74579,-100,4,2,2,100,0,0
78522,-100,4,2,1,0,0,0
80060,-100,4,1,1,90,0,0
80445,-100,4,2,1,100,0,0
102945,-100,4,1,1,100,0,0
113714,-100,4,2,2,100,0,0
126791,-100,4,1,1,100,0,0
126887,-100,4,2,2,100,0,0
129868,-100,4,1,1,100,0,0
130060,-100,4,2,2,100,0,0
136022,-100,4,1,1,100,0,0
136118,-100,4,2,2,100,0,0
140060,-100,4,2,2,0,0,0
141599,-100,4,1,1,100,0,0
141983,-100,4,2,1,100,0,0
165637,-100,4,1,1,100,0,0

[Colours]
Combo1 : 219,217,206
Combo2 : 228,82,92
Combo3 : 133,115,236

[HitObjects]
256,192,39483,12,4,40253
144,64,40637,5,8
144,200,41022,2,0,B|144:304,2,70,0|0|8
256,120,41791,2,0,B|328:88|408:128,1,140,0|8
392,192,42368,1,0
392,192,42560,2,0,B|392:280,2,70,0|0|8
248,192,43329,6,0,B|152:192|152:296,2,140,4|8|0
320,192,44291,1,0
320,192,44483,1,8
320,192,44676,2,0,B|408:192|408:96,1,140
336,104,45252,1,8
192,104,45637,2,0,B|120:104,2,70,0|0|8
192,240,46406,6,0,B|192:336|288:336,2,140,4|8|0
192,168,47368,1,0
192,96,47560,2,0,B|192:16|96:16,2,140,8|0|8
328,96,48714,1,0
384,144,48906,1,0
328,192,49099,1,8
184,192,49483,6,0,B|32:192,2,140,4|8|0
256,192,50445,2,0,B|256:104,2,70,0|8|0
256,328,51214,1,8
256,328,51406,1,8
392,328,51791,1,8
448,280,51983,1,8
392,232,52176,1,8
256,232,52560,6,0,B|200:160|264:96,1,140,4|8
328,104,53137,1,0
184,104,53522,2,0,B|112:104,2,70,0|8|0
184,176,54099,2,0,B|184:336,2,140,0|8|0
256,176,55060,1,8
256,176,55252,1,8
392,136,55637,6,0,B|480:128|384:56|496:48,2,140,0|8|0
392,208,56599,1,0
392,208,56791,2,0,B|392:296,2,70,8|0|0
248,208,57560,1,8
104,208,57945,1,0
104,208,58137,1,0
104,208,58329,1,8
176,88,58714,6,0,B|240:56|336:96,1,140,0|8
352,144,59291,1,0
312,200,59483,2,0,B|248:232|152:192,2,140,0|8|0
448,200,60637,1,8
384,320,61022,2,0,B|384:248,2,70,0|8|8
240,320,61791,6,0,C|160:288|192:240,1,140,0|8
256,248,62368,1,0
255,248,62560,2,0,C|283:206|203:174,2,140,0|8|0
312,288,63522,1,0
312,288,63714,1,8
312,144,64099,1,0
248,112,64291,1,0
184,144,64483,1,8
88,40,64868,6,0,B|24:96|24:240|104:296,1,280,4|0
168,296,65829,2,0,B|168:368,2,70,0|8|0
168,224,66406,1,0
168,80,66791,1,8
304,80,67176,1,0
304,224,67560,1,8
424,288,67945,6,0,B|488:232|488:88|408:32,1,280,4|0
344,40,68906,2,0,B|264:40,2,70,0|8|0
344,112,69483,1,0
200,112,69868,1,8
200,112,70060,1,0
200,248,70445,1,0
200,248,70637,6,0,B|120:248,2,70,8|0|0
336,208,71406,2,0,B|424:208,2,70,8|0|0
200,160,72176,2,0,B|112:160,2,70,8|0|0
336,120,72945,2,0,B|416:120,2,70,8|0|0
200,72,73714,1,8
208,208,74099,6,0,B|176:224|168:272|176:320|216:360|272:368|336:352|368:320|376:264|360:200|320:176|264:176,1,420,0|8
256,192,75637,12,0,78522
256,192,80252,5,4
128,128,80637,2,0,B|72:192|136:264,2,140,8|0|8
256,192,81791,1,0
384,256,82176,2,0,B|440:192|376:120,2,140,8|0|8
312,256,83137,6,0,B|312:336,2,70
312,184,83714,2,0,B|352:152|288:104|368:64,2,140,8|0|8
240,184,84676,1,0
168,184,84868,2,0,B|128:216|192:264|112:304,2,140,0|8|0
56,96,86022,5,8
112,56,86214,1,0
168,96,86406,1,4
112,224,86791,1,8
208,328,87176,6,0,B|304:328|344:272,1,140,0|8
208,232,87945,1,0
208,232,88329,2,0,B|304:232|344:176,1,140,8|0
336,48,89099,5,8
336,48,89483,2,0,B|256:16|168:56,1,140,0|8
160,104,90060,1,0
160,104,90252,2,0,B|64:104,2,70,0|0|8
232,104,90829,1,0
232,104,91022,2,0,B|312:104|352:184,2,140,0|8|0
232,240,92176,6,0,B|168:224|200:328|112:296,2,140,8|4|8
304,240,93137,1,0
376,240,93329,1,0
376,96,93714,1,8
232,96,94099,2,0,B|232:24,2,70,0|0|8
160,96,94676,2,0,B|104:160|168:232,1,140
232,224,95252,6,0,B|232:304,2,70,8|0|0
368,224,96022,1,8
368,224,96406,2,0,B|456:192|424:80,2,140,0|8|0
232,224,97560,1,8
160,224,97752,1,0
88,224,97945,1,0
88,80,98329,1,8
224,80,98714,6,0,B|224:8,2,70,4|0|0
224,152,99291,2,0,B|224:312,1,140,4|0
360,296,100060,6,0,B|360:368,2,70,0|0|4
360,224,100637,1,0
360,224,100829,2,0,B|360:64,2,140,8|0|0
256,192,101791,12,4,102945
256,224,114099,6,0,B|200:272|312:304|248:352,2,140,4|8|0
256,152,115060,1,0
256,152,115252,2,0,B|256:72,2,70,8|0|0
128,96,116022,2,0,B|72:160|144:248,2,140,8|0|8
200,96,116983,5,0
200,96,117176,2,0,B|352:96,1,140,0|8
336,168,117752,1,0
336,168,117945,2,0,B|184:168,2,140,0|8|0
472,168,119099,1,8
472,168,119483,1,0
472,304,119868,1,8
472,304,120252,6,0,B|408:344|312:296,1,140,0|8
280,264,120829,1,0
280,264,121022,2,0,B|208:208|240:120,2,140,0|8|0
416,264,122176,1,8
416,120,122560,1,0
272,120,122945,6,0,B|272:32,2,70,8|0|0
144,168,123714,2,0,B|80:224|144:296,2,140,8|0|8
216,168,124676,1,8
216,168,124868,1,0
216,304,125252,2,0,B|216:384,2,70,8|2|2
336,232,126022,1,8
432,328,126406,6,0,B|496:272|496:128|416:72,1,280,4|0
352,72,127368,2,0,B|272:72,2,70,0|8|0
352,144,127945,2,0,B|352:296,1,140,0|8
288,320,128522,1,0
224,288,128714,2,0,B|224:120,1,140,0|8
104,72,129483,6,0,B|40:128|40:272|120:328,1,280,4|0
184,320,130445,2,0,B|264:320,2,70,0|8|0
184,248,131022,1,0
184,104,131406,1,8
320,104,131791,2,0,B|320:24,2,70,0|0|8
320,176,132368,5,0
320,176,132560,2,0,B|320:328,2,140,0|8|0
232,280,133714,2,0,B|152:280,2,70,8|0|0
184,152,134483,2,0,B|104:152,2,70,8|0|0
320,152,135252,1,8
319,152,135637,6,0,B|347:149|387:173|403:237|395:293|363:325|299:341|243:333|203:293|195:245|203:197|235:181,1,420,0|8
256,192,137176,12,0,140060
256,192,141791,5,4
392,192,142176,2,0,B|488:200|416:112|512:112,2,140,8|4|8
256,192,143329,1,0
112,192,143714,2,0,B|16:184|88:272|-8:272,2,140,8|4|8
184,192,144676,5,0
184,192,144868,1,0
280,96,145252,1,8
376,192,145637,1,0
272,288,146022,2,0,B|208:328|120:280,2,140,8|0|8
320,240,146983,1,0
375,192,147176,2,0,B|414:123|374:60,2,140,0|8|4
232,192,148329,5,8
232,192,148714,2,0,B|136:192,2,70,0|0|8
368,192,149483,1,0
296,72,149868,1,8
296,72,150252,1,4
152,72,150637,5,8
88,112,150829,1,0
152,144,151022,2,0,B|312:144,2,140,0|8|0
152,280,152176,1,8
92,243,152368,1,0
154,211,152560,2,0,B|314:211,2,140,0|8|0
232,96,153714,5,8
232,96,154099,2,0,B|296:64|392:104,1,140,0|8
368,168,154676,1,0
368,240,154868,2,0,B|304:272|208:232,2,140,0|8|0
440,240,155829,1,0
440,240,156022,2,0,B|440:320,2,70,8|0|0
320,312,156791,5,8
320,312,157176,2,0,B|248:344|152:304,1,140,0|8
120,280,157752,1,0
64,232,157945,2,0,B|32:160|72:64,2,140,0|8|0
200,232,159099,1,8
200,88,159483,2,0,B|200:16,2,70,0|0|8
336,88,160252,5,4
392,48,160445,1,0
448,88,160637,1,8
392,136,160829,2,0,B|392:304,1,140,4|0
248,280,161599,6,0,B|248:360,2,70,0|0|4
248,208,162176,1,0
248,208,162368,2,0,B|248:56,2,140,8|0|0
256,192,163329,12,4,165637
