osu file format v5

[General]
AudioFilename: 03 - Shangri-La.mp3
AudioLeadIn: 0
PreviewTime: -1
Countdown: 0
SampleSet: Soft
StackLeniency: 0.7
Mode: 0
LetterboxInBreaks: 1
EditorBookmarks: 39483
EditorDistanceSpacing: 1.39999997615814

[Metadata]
Title:Shangri-La
Artist:angela
Creator:kioukiou
Version:Hard
Source:Fafner of the Azure
Tags:

[Difficulty]
HPDrainRate:8
CircleSize:4
OverallDifficulty:7
SliderMultiplier:1.4
SliderTickRate:2

[Events]
//Background and Video events
0,0,"fafner.jpg"
//Break Periods
2,103145,113199
//Storyboard Layer 0 (Background)
//Storyboard Layer 1 (Fail)
//Storyboard Layer 2 (Pass)
//Storyboard Layer 3 (Foreground)
Sprite,Foreground,Centre,"White.PNG",320,240 M,0,80253,,320,240 F,0,80253,80445,1,0
Sprite,Foreground,Centre,"White.PNG",320,240 F,0,141791,141983,1,0
//Storyboard Sound Samples
//Background Colour Transformations
3,100,163,162,255

[TimingPoints]
253,384.615384615385,4,1,1,100,1,0
40445,-100,4,2,2,100,0,0
78522,-100,4,2,1,0,0,0
78714,-100,4,2,1,100,0,0
80156,-100,4,1,1,90,0,0
80445,-100,4,2,1,100,0,0
102945,-100,4,1,1,100,0,0
113714,-100,4,2,2,100,0,0
140060,-100,4,2,2,0,0,0
140253,-100,4,2,2,100,0,0
141695,-100,4,1,1,100,0,0
141887,-100,4,2,1,100,0,0
165637,-100,4,1,1,100,0,0

[Colours]
Combo1 : 219,217,206
Combo2 : 228,82,92
Combo3 : 133,115,236

[HitObjects]
256,192,39483,12,4,40253
256,80,40637,5,0
256,216,41022,2,0,B|256:296,2,70,0|0|8
216,160,41599,1,0
184,224,41791,1,0
144,160,41983,1,0
112,224,42176,2,0,B|32:224|32:328,2,140,8|0|8
184,224,43137,5,2
184,224,43233,1,2
184,224,43329,2,0,B|336:224,1,140,4|8
392,224,43906,2,0,B|472:224,2,70
328,96,44676,1,0
272,48,44868,1,0
216,96,45060,1,0
272,136,45252,2,0,B|272:296,1,140,8|2
200,280,45829,1,2
200,280,46022,1,8
128,280,46214,5,2
128,280,46310,1,2
128,280,46406,2,0,B|40:280|40:192,2,140,4|8|0
128,208,47368,1,0
128,208,47560,1,8
128,136,47752,2,0,B|128:56,2,70,0|0|0
192,168,48329,2,0,B|368:168,2,140,8|0|8
192,240,49291,5,2
192,240,49387,1,2
192,240,49483,2,0,B|192:312,2,70,4|0|8
264,240,50060,1,0
264,240,50252,2,0,B|336:240,2,70,0|0|8
264,168,50829,2,0,B|120:168,1,140,0|2
128,96,51406,1,10
128,96,51599,1,0
200,96,51791,1,2
200,96,51887,1,2
200,96,51983,1,2
272,96,52176,2,0,B|440:96,1,140,12|0
416,232,52945,5,8
376,288,53137,2,0,B|312:336|216:272,1,140
208,224,53714,1,8
208,224,53906,1,0
208,223,54099,2,0,B|140:176|76:224,2,140,0|8|0
280,224,55060,5,8
280,224,55252,2,0,B|456:224,1,140,8|0
416,152,55829,1,0
416,152,56022,2,0,B|416:64,2,70,8|0|0
344,152,56599,1,0
344,152,56791,1,8
272,152,56983,1,0
272,152,57176,2,0,B|200:120|104:168,2,140,0|8|0
272,224,58137,1,0
272,296,58329,1,8
128,296,58714,6,0,B|48:296|48:192,2,140,0|8|0
200,296,59676,1,0
168,232,59868,1,8
168,232,60060,2,0,B|168:144,2,70
240,232,60637,2,0,B|408:232,1,140,8|0
424,176,61214,1,8
384,112,61406,2,0,B|216:112,1,140,8|0
176,112,61983,6,0,B|176:40,2,70,0|8|0
176,184,62560,2,0,B|112:256|192:320,1,140,0|8
248,312,63137,1,0
248,312,63329,1,0
320,312,63522,1,0
320,312,63714,2,0,B|416:312,2,70,8|0|0
288,248,64291,1,0
288,248,64483,2,0,B|288:104,1,140,8|4
80,56,65252,6,0,B|48:104|120:120|48:184,1,140,8|0
48,248,65829,1,0
80,312,66022,1,8
120,248,66214,1,0
152,312,66406,2,0,B|312:312,1,140,0|8
344,264,66983,1,2
344,264,67079,1,2
344,264,67176,1,2
288,216,67368,1,0
288,216,67560,2,0,B|144:216,2,140,8|0|8
288,144,68522,5,0
144,144,68906,1,0
144,144,69099,2,0,B|144:224,2,70,8|0|0
144,72,69676,1,0
144,72,69868,2,0,B|224:72,1,70,8|0
216,144,70252,2,0,B|320:144,1,70
288,216,70637,2,0,B|368:216,2,70,8|0|0
144,216,71406,5,8
96,264,71599,1,0
144,312,71791,1,0
408,224,72176,1,8
456,176,72368,1,0
408,128,72560,1,0
144,136,72945,1,8
96,88,73137,1,0
144,40,73329,2,0,B|304:40,1,140,0|8
400,112,74099,5,0
440,168,74291,1,0
424,240,74483,1,8
376,312,74676,1,0
288,344,74868,1,0
192,320,75060,1,0
120,240,75252,1,8
128,128,75445,1,0
208,40,75637,1,0
336,40,75829,2,0,B|416:40,2,70,0|8|0
256,192,76599,12,0,78522
32,64,78906,5,0
72,152,79099,1,0
160,104,79291,1,0
200,192,79483,1,0
296,160,79676,1,0
344,240,79868,1,0
432,184,80060,1,0
480,272,80252,1,4
480,72,80637,5,8
384,72,80829,2,0,B|304:72,1,70
320,168,81214,2,0,B|232:168,1,70,0|8
216,72,81599,1,0
168,160,81791,1,0
96,96,81983,1,0
96,96,82079,1,0
96,96,82176,1,8
16,160,82368,2,0,B|16:248,2,70
96,216,82945,5,8
168,280,83137,1,0
248,216,83329,2,0,B|424:216,1,140,0|8
464,280,83906,5,0
376,328,84099,2,0,B|304:328,1,70
48,248,84483,2,0,B|120:248,1,70,8|0
376,160,84868,2,0,B|272:160,1,70
48,80,85252,2,0,B|144:80,2,70,8|0|0
464,80,86022,5,8
464,80,86118,1,2
464,80,86214,1,2
384,136,86406,2,0,B|344:184|296:120|248:208,1,140,4|8
160,192,86983,1,0
215,271,87176,2,0,B|251:339|299:275|336:320,2,140,0|8|0
272,192,88137,5,0
360,152,88329,1,8
328,56,88522,1,0
232,80,88714,1,0
232,80,88810,1,0
232,80,88906,2,0,B|152:80,2,70,0|8|0
200,176,89483,5,0
104,208,89676,2,0,B|160:264,2,70,0|8|0
56,120,90252,2,0,B|56:40,2,70,0|0|8
152,120,90829,1,0
192,32,91022,6,0,B|368:32,1,140,0|8
328,352,91791,2,0,B|184:352,1,140,0|8
104,296,92368,5,0
16,248,92560,1,4
16,152,92752,1,0
104,104,92945,1,8
104,200,93137,2,0,B|280:200,1,140
248,104,93714,1,8
328,152,93906,1,0
328,248,94099,1,0
240,296,94291,1,0
240,200,94483,2,0,B|88:200,1,140,8|0
16,144,95060,1,0
16,240,95252,1,8
104,288,95445,6,0,B|104:360,1,70
176,184,95829,2,0,B|176:88,1,70,0|8
248,288,96214,2,0,B|248:368,1,70
312,184,96599,2,0,B|312:104,1,70,0|8
248,40,96983,5,0
152,40,97176,2,0,B|56:40,2,70,0|0|8
200,120,97752,2,0,B|144:192|216:272,1,140,0|0
296,248,98329,1,8
128,344,98714,5,4
64,272,98906,1,0
136,208,99099,1,8
192,288,99291,2,0,B|352:288,1,140,4|0
408,40,100060,5,0
480,112,100252,1,0
400,168,100445,1,4
320,112,100637,1,0
320,112,100829,2,0,B|160:112,2,140,8|0|0
256,192,101791,12,4,102945
144,48,114099,6,0,B|56:64|64:168,1,140,4|8
136,152,114676,1,0
136,152,114868,2,0,B|136:240,2,70,0|0|8
208,152,115445,1,0
208,152,115637,2,0,B|376:152,2,140,0|8|0
208,224,116599,1,8
208,296,116791,1,8
136,296,116983,6,0,B|200:360,2,70
64,296,117560,1,8
64,224,117752,2,0,B|8:168,2,70
136,224,118329,2,0,B|296:224,1,140,8|0
336,192,118906,1,0
272,152,119099,1,8
336,120,119291,1,0
272,80,119483,1,0
272,80,119579,1,0
272,80,119676,1,0
336,48,119868,1,8
472,48,120252,5,2
472,184,120637,2,0,B|472:288,2,70,8|0|0
400,184,121214,1,0
400,184,121406,2,0,B|328:128|256:200,1,140,8|0
272,112,121983,1,0
272,112,122176,2,0,B|272:288,1,140,8|0
200,256,122752,1,0
160,312,122945,1,8
120,256,123137,5,0
120,256,123329,2,0,B|32:256|32:136,1,140,0|8
32,96,123906,1,0
32,96,124099,2,0,B|32:16,2,70,0|0|8
104,96,124676,1,0
104,96,124868,1,0
176,96,125060,1,0
176,96,125156,1,0
176,96,125252,1,8
176,168,125445,2,0,B|176:264,2,70,0|2|2
248,168,126022,2,0,B|424:168,1,140,8|4
384,304,126791,5,8
312,304,126983,1,0
248,176,127368,1,0
320,176,127560,1,8
288,112,127752,2,0,B|288:24,2,70
216,112,128329,2,0,B|64:112,1,140,8|0
32,168,128906,1,0
72,224,129099,2,0,B|232:224,1,140,8|0
208,296,129676,1,0
208,296,129868,2,0,B|208:376,2,70,8|0|0
248,240,130445,5,0
280,304,130637,1,8
312,240,130829,1,0
344,304,131022,2,0,B|496:304,1,140,0|8
488,232,131599,2,0,B|488:176,2,35,2|2|2
416,232,131983,1,8
416,232,132176,1,8
344,232,132368,5,0
384,176,132560,1,0
344,120,132752,2,0,B|344:80,2,35,0|0|8
272,120,133137,1,0
232,176,133329,1,0
272,232,133522,2,0,B|272:288,2,35,0|0|8
200,240,133906,5,0
200,240,134099,2,0,B|200:328,2,70,0|0|8
200,168,134676,1,0
200,168,134868,2,0,B|200:80,2,70,0|0|8
80,248,135637,5,0
120,304,135829,1,0
184,344,136022,1,8
264,352,136214,1,0
352,320,136406,1,0
408,240,136599,1,0
392,136,136791,1,8
312,56,136983,1,0
192,40,137176,1,0
80,96,137368,2,0,B|80:184,2,70,0|8|0
256,192,138137,12,0,140060
480,64,140445,5,0
440,152,140637,1,0
352,104,140829,1,0
312,192,141022,1,0
216,160,141214,1,0
168,240,141406,1,0
80,184,141599,1,0
32,272,141791,1,4
32,72,142176,5,8
128,72,142368,2,0,B|176:160,1,70,0|4
208,216,142752,1,0
296,184,142945,2,0,B|344:272,1,70,8|0
384,320,143329,1,0
464,272,143522,2,0,B|416:184,2,70,4|8|0
368,272,144099,6,0,B|312:320|216:304,1,140,0|8
144,264,144676,1,0
80,184,144868,2,0,B|40:120,2,70,0|0|8
144,112,145445,5,0
216,40,145637,2,0,B|216:128,1,70
216,312,146022,2,0,B|216:240,1,70,8|0
296,40,146406,2,0,B|296:144,1,70
296,312,146791,2,0,B|296:240,2,70,8|0|0
40,312,147560,5,8
120,256,147752,1,0
40,192,147945,2,0,B|40:112,2,70,0|4|8
120,136,148522,1,0
200,192,148714,2,0,B|200:280,2,70,4|0|0
200,96,149291,1,0
288,144,149483,1,0
368,88,149676,1,0
368,88,149772,1,0
368,88,149868,2,0,B|448:80|488:160,1,140,8|4
408,216,150445,5,0
320,264,150637,2,0,B|288:344,1,70,8|0
216,264,151022,2,0,B|272:120,1,140,0|8
208,48,151599,5,0
112,48,151791,2,0,B|32:104,2,70,0|0|8
152,136,152368,1,0
40,136,152560,6,0,B|-8:208|56:288,1,140,0|8
456,264,153329,2,0,B|504:192|440:112,1,140,0|8
376,64,153906,5,0
328,152,154099,1,4
280,64,154291,1,0
232,152,154483,2,0,B|72:152,2,140,8|0|8
280,232,155445,1,0
184,232,155637,1,0
232,312,155829,1,0
328,312,156022,2,0,B|472:312,1,140,8|0
464,216,156599,1,0
464,216,156791,1,8
416,128,156983,6,0,B|416:48,1,70
344,272,157368,2,0,B|344:368,1,70,0|8
272,128,157752,2,0,B|272:48,1,70
200,272,158137,2,0,B|200:360,2,70,0|8|0
120,216,158714,5,0
56,144,158906,2,0,B|0:88,2,70,0|8|0
128,72,159483,1,0
192,144,159676,2,0,B|248:200,2,70,0|8|0
120,216,160252,5,4
48,288,160445,1,0
120,360,160637,1,8
192,296,160829,2,0,B|352:296,1,140,4|0
400,24,161599,5,0
488,64,161791,1,0
400,112,161983,1,4
312,64,162176,1,0
312,64,162368,2,0,B|136:64,2,140,8|0|0
256,192,163329,12,4,165637
