osu file format v14

[General]
AudioFilename: KINGS.mp3
AudioLeadIn: 0
PreviewTime: 14490
Countdown: 0
SampleSet: Soft
StackLeniency: 0.7
Mode: 0
LetterboxInBreaks: 1
WidescreenStoryboard: 0

[Editor]
Bookmarks: 9206,14660,41762,66478,88296,99206,126308,151024,172842,194660,216818,241363,263181,284999,295908,314999
DistanceSpacing: 0.7
BeatDivisor: 4
GridSize: 32
TimelineZoom: 2

[Metadata]
Title:KINGS
TitleUnicode:KINGS
Artist:angela
ArtistUnicode:angela
Creator:fish39
Version:The King
Source:[K]
Tags:atsuko KATSU full ver opening GoRA GoHands K-Project
BeatmapID:730858
BeatmapSetID:329650

[Difficulty]
HPDrainRate:7
CircleSize:4
OverallDifficulty:9
ApproachRate:9
SliderMultiplier:1.6
SliderTickRate:1

[Events]
//Background and Video events
0,0,"BG.jpg",0,0
//Break Periods
//Storyboard Layer 0 (Background)
//Storyboard Layer 1 (Fail)
//Storyboard Layer 2 (Pass)
//Storyboard Layer 3 (Foreground)
//Storyboard Sound Samples

[TimingPoints]
1063,689.655172413793,4,2,2,20,1,0
3779,689.655172413793,4,2,2,20,1,0
6473,722.89156626506,4,2,2,20,1,0
6473,-133.333333333333,4,2,2,20,0,0
7824,666.666666666667,4,2,2,20,1,0
7824,-200,4,2,2,20,0,0
9206,340.909090909091,4,2,1,70,1,0
10399,-200,4,2,1,70,0,0
11081,-100,4,2,2,70,0,0
11933,-100,4,2,1,70,0,0
14660,-133.333333333333,4,2,1,70,0,0
15342,-133.333333333333,4,2,3,70,0,0
15427,-133.333333333333,4,2,1,70,0,0
26251,-133.333333333333,4,2,3,70,0,0
26336,-133.333333333333,4,2,1,70,0,0
37160,-133.333333333333,4,2,3,70,0,0
37245,-133.333333333333,4,2,1,70,0,0
41762,-100,4,2,1,80,0,1
41848,-100,4,2,1,70,0,0
55399,-100,4,2,1,80,0,1
55484,-100,4,2,1,70,0,0
66137,-200,4,2,1,10,0,0
66478,-90.9090909090909,4,2,1,90,0,1
66563,-90.9090909090909,4,2,1,80,0,1
77366,-90.9090909090909,4,2,1,80,0,0
77387,-90.9090909090909,4,2,1,90,0,1
77473,-90.9090909090909,4,2,1,80,0,1
86933,-90.9090909090909,4,2,1,80,0,0
87018,-200,4,2,1,10,0,0
88296,-133.333333333333,4,2,1,70,0,1
88382,-133.333333333333,4,2,1,70,0,0
88978,-133.333333333333,4,2,3,70,0,0
89063,-133.333333333333,4,2,1,70,0,0
94433,-133.333333333333,4,2,3,70,0,0
94518,-133.333333333333,4,2,1,70,0,0
98865,-100,4,2,1,70,0,0
99206,-111.111111111111,4,2,1,70,0,0
126308,-100,4,2,1,80,0,1
126393,-100,4,2,1,70,0,0
139944,-100,4,2,1,80,0,1
140029,-100,4,2,1,70,0,0
150683,-200,4,2,1,10,0,0
151024,-90.9090909090909,4,2,1,90,0,1
151109,-90.9090909090909,4,2,1,80,0,1
161911,-90.9090909090909,4,2,1,80,0,0
161933,-90.9090909090909,4,2,1,90,0,1
162018,-90.9090909090909,4,2,1,80,0,1
171478,-90.9090909090909,4,2,1,80,0,0
172842,-100,4,2,1,80,0,1
172927,-100,4,2,1,70,0,0
183751,-100,4,2,1,70,0,1
183836,-100,4,2,1,70,0,0
194660,-133.333333333333,4,2,1,70,0,0
196706,-133.333333333333,4,2,3,70,0,0
196791,-133.333333333333,4,2,1,70,0,0
200796,-133.333333333333,4,2,3,70,0,0
200882,-133.333333333333,4,2,1,70,0,0
206251,-133.333333333333,4,2,3,70,0,0
206336,-133.333333333333,4,2,1,70,0,0
210342,-133.333333333333,4,2,3,70,0,0
210427,-133.333333333333,4,2,1,70,0,0
213751,-200,4,2,1,70,0,0
216649,-100,4,2,1,70,0,1
216734,-100,4,2,1,70,0,0
216818,340.909090909091,4,2,1,70,1,0
216818,-100,4,2,1,80,0,0
217073,-125,4,2,1,70,0,0
230283,-100,4,2,1,80,0,1
230369,-100,4,2,1,70,0,0
241022,-200,4,2,1,10,0,0
241363,-90.9090909090909,4,2,1,90,0,1
241448,-90.9090909090909,4,2,1,80,0,1
252251,-90.9090909090909,4,2,1,80,0,0
252272,-90.9090909090909,4,2,1,90,0,1
252357,-90.9090909090909,4,2,1,80,0,1
261818,-133.333333333333,4,2,1,80,0,1
263096,-133.333333333333,4,2,1,80,0,0
263181,-133.333333333333,4,2,1,90,0,1
263266,-133.333333333333,4,2,1,80,0,1
271704,-133.333333333333,4,2,1,40,0,1
272045,-133.333333333333,4,2,1,50,0,1
272386,-133.333333333333,4,2,1,60,0,1
273068,-90.9090909090909,4,2,1,80,0,1
274069,-90.9090909090909,4,2,1,80,0,0
274090,-90.9090909090909,4,2,1,90,0,1
274175,-90.9090909090909,4,2,1,80,0,1
284914,-90.9090909090909,4,2,1,80,0,0
284999,-100,4,2,1,90,0,1
285085,-100,4,2,1,80,0,0
295908,-125,4,2,1,80,0,1
295994,-125,4,2,1,70,0,0
304090,-100,4,2,1,80,0,0
305795,-100,4,2,1,40,0,0
306477,-100,4,2,1,80,0,0
306647,-100,4,2,1,60,0,1
306732,-100,4,2,1,40,0,0
308181,-100,4,2,1,20,0,0
310908,-100,4,2,1,10,0,0
313636,-100,4,2,1,5,0,0

[Colours]
Combo1 : 185,118,218
Combo2 : 79,79,79
Combo3 : 255,255,255
Combo4 : 105,134,194

[HitObjects]
72,172,1063,22,0,P|80:108|108:164,1,160,2|0,0:0|0:0,0:0:0:0:
56,200,2442,2,0,P|116:176|229:184,1,160,2|0,0:0|0:0,0:0:0:0:
185,249,3779,6,0,P|176:169|181:65,2,160,2|0|2,0:0|0:0|0:0,0:0:0:0:
176,264,6473,6,0,L|322:268,1,120.000004577637,2|0,0:0|0:0,0:0:0:0:
256,306,7824,6,0,L|340:302,1,80,2|0,0:0|0:0,0:0:0:0:
372,320,9206,5,4,1:0:0:0:
400,95,9376,1,8,1:2:0:0:
404,128,9887,1,2,0:0:0:0:
256,68,10058,1,8,0:0:0:0:
256,68,10143,1,8,0:0:0:0:
256,68,10228,1,8,0:0:0:0:
132,168,10399,6,0,P|213:169|304:176,1,160,4|0,1:2|0:0,0:0:0:0:
291,174,11251,5,2,0:0:0:0:
366,90,11421,1,0,0:0:0:0:
256,68,11592,1,2,0:0:0:0:
332,286,11762,2,0,P|330:315|328:352,1,40,2|2,0:0|0:0,0:0:0:0:
406,202,11933,22,0,P|446:198|496:196,1,80,6|0,0:0|0:0,0:0:0:0:
252,280,12274,2,0,P|292:284|342:286,1,80,2|4,0:0|0:0,0:0:0:0:
366,90,12615,1,0,0:0:0:0:
121,171,12785,1,2,0:0:0:0:
121,171,12870,1,2,0:0:0:0:
121,171,12955,1,6,0:0:0:0:
231,42,13126,1,2,0:0:0:0:
231,42,13211,1,2,0:0:0:0:
231,42,13296,5,2,0:0:0:0:
252,280,13467,1,4,0:0:0:0:
144,364,13637,1,2,0:0:0:0:
224,200,13808,1,0,0:0:0:0:
243,199,13893,1,0,0:0:0:0:
263,199,13978,1,6,0:0:0:0:
283,198,14063,1,0,0:0:0:0:
303,198,14148,1,0,0:0:0:0:
323,197,14234,1,0,0:0:0:0:
362,222,14319,2,0,L|418:214,1,40,2|2,0:0|0:0,0:0:0:0:
323,117,14490,2,0,L|378:128,1,40,2|2,0:0|0:0,0:0:0:0:
491,256,14660,5,8,0:0:0:0:
368,344,14831,2,0,P|306:342|240:340,1,120.000004577637,8|0,0:0|0:0,0:0:0:0:
84,244,15342,2,0,P|132:252|196:224,1,120.000004577637,4|0,0:0|0:0,0:0:0:0:
224,124,15853,1,2,0:0:0:0:
56,72,16024,1,2,0:0:0:0:
160,40,16194,2,0,P|157:108|156:176,1,120.000004577637,8|0,0:0|0:0,0:0:0:0:
280,252,16706,1,2,0:0:0:0:
411,170,16876,2,0,P|381:168|352:168,1,60.0000022888184,2|0,0:0|3:0,0:0:0:0:
280,252,17217,1,0,0:0:0:0:
386,353,17387,21,4,0:3:0:0:
160,255,17558,2,0,P|219:253|281:251,1,120.000004577637,4|0,0:3|0:0,0:0:0:0:
106,319,18069,2,0,P|122:249|105:188,1,120.000004577637,8|0,0:0|0:0,0:0:0:0:
28,138,18581,1,2,0:0:0:0:
178,81,18751,1,2,0:0:0:0:
29,18,18921,2,0,L|27:150,1,120.000004577637,8|0,0:0|0:0,0:0:0:0:
178,81,19433,2,0,L|112:80,1,60.0000022888184,2|0,0:0|3:0,0:0:0:0:
232,165,19774,2,0,L|332:163,1,90.0000034332277,0|0,3:0|0:0,0:0:0:0:
321,163,20115,5,4,0:3:0:0:
277,292,20285,2,0,P|335:281|409:287,1,120.000004577637,4|0,0:3|0:0,0:0:0:0:
211,357,20796,2,0,L|67:354,1,120.000004577637,8|0,0:0|0:0,0:0:0:0:
56,252,21308,1,2,0:0:0:0:
216,213,21478,1,2,0:0:0:0:
147,119,21649,2,0,P|196:100|280:116,1,120.000004577637,8|0,0:0|0:0,0:0:0:0:
216,213,22160,1,2,0:0:0:0:
345,78,22331,2,0,P|344:107|342:137,1,60.0000022888184,2|0,0:0|3:0,0:0:0:0:
293,288,22671,1,0,0:0:0:0:
146,254,22842,5,4,0:3:0:0:
226,349,23012,2,0,L|367:345,1,120.000004577637,4|0,0:3|0:0,0:0:0:0:
436,212,23524,1,8,0:0:0:0:
368,61,23694,2,0,L|366:120,1,60.0000022888184,0|2,0:0|0:0,0:0:0:0:
436,212,24035,1,0,0:0:0:0:
293,288,24206,1,4,0:3:0:0:
139,175,24376,2,0,P|200:175|271:179,1,120.000004577637,8|0,0:0|0:0,0:0:0:0:
436,212,24887,1,8,0:0:0:0:
368,342,25058,1,2,0:0:0:0:
368,342,25143,1,2,0:0:0:0:
368,342,25228,2,0,L|366:237,1,90.0000034332277,2|0,0:0|0:0,0:0:0:0:
366,252,25569,21,8,0:0:0:0:
323,105,25740,2,0,L|200:100,1,120.000004577637,8|0,0:0|0:0,0:0:0:0:
127,215,26251,2,0,P|180:195|248:213,1,120.000004577637,4|0,0:0|0:0,0:0:0:0:
191,306,26762,1,2,0:0:0:0:
366,252,26933,1,2,0:0:0:0:
243,88,27103,2,0,P|241:148|240:208,1,120.000004577637,8|0,0:0|0:0,0:0:0:0:
366,252,27615,1,2,0:0:0:0:
191,306,27785,2,0,P|155:303|106:301,1,60.0000022888184,2|0,0:0|3:0,0:0:0:0:
272,363,28126,1,0,0:0:0:0:
336,156,28296,5,4,0:3:0:0:
424,313,28467,2,0,P|426:253|427:193,1,120.000004577637,4|0,0:3|0:0,0:0:0:0:
361,62,28978,2,0,P|310:53|230:60,1,120.000004577637,8|0,0:0|0:0,0:0:0:0:
183,236,29490,1,2,0:0:0:0:
118,130,29660,1,2,0:0:0:0:
262,183,29831,2,0,L|391:178,1,120.000004577637,8|0,0:0|0:0,0:0:0:0:
340,299,30342,1,2,0:0:0:0:
183,236,30512,2,0,P|148:233|101:234,1,60.0000022888184,0|2,3:0|0:0,0:0:0:0:
91,334,30853,1,0,0:0:0:0:
225,370,31024,5,4,0:3:0:0:
262,183,31194,2,0,L|257:54,1,120.000004577637,4|0,0:3|0:0,0:0:0:0:
183,236,31706,1,8,0:0:0:0:
77,139,31876,2,0,L|157:141,1,60.0000022888184,2|2,0:0|0:0,0:0:0:0:
257,63,32217,1,0,0:0:0:0:
262,183,32387,1,4,0:3:0:0:
123,235,32558,2,0,L|203:237,1,60.0000022888184,4|0,3:0|0:0,0:0:0:0:
320,320,32899,1,0,0:0:0:0:
372,212,33069,2,0,L|370:152,1,60.0000022888184,8|0,0:0|0:0,0:0:0:0:
257,63,33410,2,0,P|204:68|154:64,1,90.0000034332277,4|0,3:0|0:0,0:0:0:0:
167,65,33751,22,0,P|132:61|90:58,1,60.0000022888184,4|0,0:3|0:0,0:0:0:0:
42,157,34092,1,0,0:0:0:0:
225,209,34262,1,0,0:0:0:0:
146,343,34433,2,0,L|144:273,1,60.0000022888184,8|0,0:0|0:0,0:0:0:0:
76,128,34774,2,0,L|75:188,1,60.0000022888184,0|2,0:0|0:0,0:0:0:0:
225,209,35115,1,4,0:3:0:0:
426,127,35285,2,0,L|306:124,1,120.000004577637,4|2,0:3|0:0,0:0:0:0:
307,125,35711,1,2,0:0:0:0:
307,125,35796,1,2,0:0:0:0:
238,310,35967,1,2,0:0:0:0:
339,248,36137,2,0,P|369:246|416:246,1,60.0000022888184,4|2,3:0|0:0,0:0:0:0:
225,209,36478,5,8,0:0:0:0:
56,124,36649,2,0,P|123:108|180:119,1,120.000004577637,8|0,0:0|0:0,0:0:0:0:
364,53,37160,2,0,P|304:51|245:46,1,120.000004577637,4|0,0:0|0:0,0:0:0:0:
428,152,37671,1,0,0:0:0:0:
360,289,37842,1,0,0:0:0:0:
194,217,38012,2,0,L|321:213,1,120.000004577637,8|0,0:0|0:0,0:0:0:0:
466,264,38524,1,8,0:0:0:0:
361,348,38694,2,0,L|359:288,1,60.0000022888184
428,152,39035,1,0,0:0:0:0:
317,88,39206,6,0,P|250:99|176:88,1,120.000004577637,0|0,3:0|0:0,0:0:0:0:
98,30,39717,1,0,0:0:0:0:
63,235,39887,2,0,L|61:175,1,60.0000022888184,8|0,0:0|0:0,0:0:0:0:
61,175,40143,1,0,0:0:0:0:
61,175,40228,2,0,L|112:178,1,30.0000011444092
198,93,40399,2,0,L|143:96,1,30.0000011444092
282,202,40569,2,0,L|332:205,1,30.0000011444092,8|0,0:0|0:0,0:0:0:0:
419,120,40740,1,2,0:0:0:0:
419,120,40825,1,2,0:0:0:0:
419,120,40910,2,0,L|363:123,3,30.0000011444092,2|2|0|0,0:0|0:0|0:0|0:0,0:0:0:0:
300,52,41251,21,4,0:3:0:0:
311,318,41421,1,4,0:3:0:0:
353,297,41762,6,0,B|239:289|239:289|177:263,1,160,4|0,1:2|0:0,0:0:0:0:
315,188,42274,2,0,L|411:185,1,80,8|0,0:0|0:0,0:0:0:0:
196,271,42615,2,0,L|100:268,1,80,2|2,0:0|0:0,0:0:0:0:
61,137,42956,1,8,0:0:0:0:
256,64,43126,1,2,0:0:0:0:
166,191,43296,1,4,0:3:0:0:
120,5,43467,1,0,0:0:0:0:
256,64,43637,2,0,P|296:66|352:67,1,80,8|0,0:0|0:0,0:0:0:0:
463,181,43978,2,0,P|423:181|383:183,1,80,2|2,0:0|0:0,0:0:0:0:
261,271,44319,1,10,0:0:0:0:
371,341,44490,6,0,B|385:297|385:297|383:183,1,160,4|2,0:3|0:0,0:0:0:0:
241,148,45001,1,8,0:0:0:0:
421,71,45171,1,0,0:0:0:0:
310,11,45342,1,2,0:0:0:0:
383,183,45512,1,2,0:0:0:0:
261,271,45683,2,0,P|218:268|176:268,1,80,8|2,0:0|0:0,0:0:0:0:
83,159,46024,2,0,P|145:166|247:145,1,160,4|8,0:3|0:0,0:0:0:0:
310,11,46535,1,0,0:0:0:0:
421,71,46706,2,0,P|461:68|501:68,1,80,2|2,0:0|0:0,0:0:0:0:
354,191,47046,1,8,0:0:0:0:
418,286,47217,22,0,P|340:266|260:270,1,160,4|2,0:3|0:0,0:0:0:0:
138,324,47728,2,0,P|138:284|135:220,1,80,8|0,0:0|0:0,0:0:0:0:
54,149,48069,1,2,0:0:0:0:
228,75,48240,1,2,0:0:0:0:
107,47,48410,1,8,0:0:0:0:
236,189,48581,1,0,0:0:0:0:
138,324,48751,2,0,B|251:319|251:319|296:330,1,160,4|8,0:3|0:0,0:0:0:0:
436,275,49262,1,0,0:0:0:0:
352,90,49433,2,0,L|349:169,1,80,2|2,0:0|0:0,0:0:0:0:
436,275,49774,1,8,0:0:0:0:
190,175,49944,6,0,B|235:164|235:164|348:169,1,160,4|2,0:3|0:0,0:0:0:0:
227,65,50456,2,0,P|183:67|112:68,1,80,8|0,0:0|0:0,0:0:0:0:
29,239,50796,1,2,0:0:0:0:
190,176,50967,1,2,0:0:0:0:
26,112,51137,1,8,0:0:0:0:
160,284,51308,1,0,0:0:0:0:
295,210,51478,2,0,P|298:119|300:26,1,160,4|8,0:3|0:0,0:0:0:0:
197,91,51990,1,0,0:0:0:0:
396,152,52160,1,2,0:0:0:0:
371,13,52331,1,2,0:0:0:0:
265,219,52501,1,8,0:0:0:0:
373,165,52671,1,0,0:0:0:0:
215,64,52842,6,0,P|175:67|134:67,1,80,4|0,0:3|0:0,0:0:0:0:
373,165,53183,2,0,P|412:164|452:168,1,80,8|2,0:0|0:0,0:0:0:0:
306,302,53524,1,2,0:0:0:0:
143,211,53694,1,2,0:0:0:0:
298,53,53865,2,0,P|296:92|292:132,1,80,8|0,0:0|0:0,0:0:0:0:
143,211,54206,1,4,0:3:0:0:
338,300,54376,1,2,0:0:0:0:
338,300,54461,1,2,0:0:0:0:
338,300,54546,2,0,L|343:252,1,40,8|2,0:0|0:0,0:0:0:0:
471,186,54717,2,0,L|475:225,1,40,2|2,0:0|0:0,0:0:0:0:
429,348,54887,21,4,0:3:0:0:
144,312,55058,1,4,0:3:0:0:
171,350,55399,6,0,L|176:158,1,160,4|0,1:2|0:0,0:0:0:0:
90,41,55910,2,0,L|92:122,1,80,8|0,0:0|0:0,0:0:0:0:
262,245,56251,2,0,L|265:166,1,80,2|2,0:0|0:0,0:0:0:0:
375,334,56592,1,8,0:0:0:0:
463,224,56762,1,0,0:0:0:0:
352,115,56933,2,0,P|263:121|156:117,1,160,4|8,0:3|0:0,0:0:0:0:
295,9,57444,1,0,0:0:0:0:
429,69,57615,2,0,P|470:66|515:65,1,80,2|2,0:0|0:0,0:0:0:0:
397,218,57956,1,8,0:0:0:0:
262,165,58126,6,0,L|265:358,1,160,4|0,0:3|0:0,0:0:0:0:
159,362,58637,1,8,0:0:0:0:
56,253,58808,1,0,0:0:0:0:
181,186,58978,2,0,P|185:136|186:75,1,80,2|2,0:0|0:0,0:0:0:0:
397,218,59319,2,0,P|398:257|402:297,1,80,8|2,0:0|0:0,0:0:0:0:
300,80,59660,2,0,P|364:87|460:63,1,160,4|8,0:3|0:0,0:0:0:0:
207,10,60171,1,0,0:0:0:0:
109,112,60342,2,0,P|107:152|107:192,1,80,2|2,0:0|0:0,0:0:0:0:
220,280,60683,1,8,0:0:0:0:
439,196,60853,22,0,B|397:188|397:188|279:193,1,160,4|0,0:3|0:0,0:0:0:0:
384,289,61365,1,8,0:0:0:0:
448,96,61535,1,0,0:0:0:0:
329,37,61706,2,0,L|230:39,1,80,2|2,0:0|0:0,0:0:0:0:
78,150,62046,2,0,L|163:152,1,80,8|0,0:0|0:0,0:0:0:0:
220,280,62387,1,4,0:3:0:0:
330,116,62558,2,0,P|329:74|328:24,1,80,2|8,0:0|0:0,0:0:0:0:
157,151,62899,1,0,0:0:0:0:
300,222,63069,2,0,P|342:218|415:215,1,80,2|2,0:0|0:0,0:0:0:0:
491,304,63410,1,8,0:0:0:0:
369,362,63581,1,2,0:0:0:0:
220,280,63751,5,4,0:3:0:0:
308,74,63921,1,2,0:0:0:0:
308,74,64007,1,2,0:0:0:0:
308,74,64092,1,8,0:0:0:0:
425,224,64262,1,2,0:0:0:0:
425,224,64348,1,2,0:0:0:0:
425,224,64433,1,8,0:0:0:0:
207,114,64603,1,2,0:0:0:0:
167,115,64688,1,2,0:0:0:0:
127,116,64774,1,8,0:0:0:0:
87,117,64859,1,0,0:0:0:0:
47,118,64945,2,0,P|16:116|-11:114,1,40,2|2,0:0|0:0,0:0:0:0:
70,217,65115,6,0,P|121:211|178:208,1,80,4|2,0:0|0:0,0:0:0:0:
189,211,65370,1,2,0:0:0:0:
365,271,65541,1,0,1:0:0:0:
355,296,66137,6,0,P|353:328|353:361,1,60
355,296,66478,6,0,P|352:249|348:188,1,88.000002685547,4|0,1:2|0:0,0:0:0:0:
165,132,66819,1,8,0:0:0:0:
229,244,66990,1,2,0:0:0:0:
367,86,67160,1,0,0:0:0:0:
251,31,67331,1,2,0:0:0:0:
349,208,67501,1,8,0:0:0:0:
212,341,67671,1,0,0:0:0:0:
212,341,67757,1,0,0:0:0:0:
212,341,67842,6,0,P|165:343|116:345,1,88.000002685547,4|0,0:3|0:0,0:0:0:0:
58,210,68183,1,8,0:0:0:0:
162,44,68353,2,0,P|164:88|165:132,1,88.000002685547,2|0,0:0|0:0,0:0:0:0:
58,210,68694,1,2,0:0:0:0:
212,341,68865,1,8,0:0:0:0:
296,237,69035,1,0,0:0:0:0:
296,237,69120,1,0,0:0:0:0:
296,237,69206,6,0,P|339:231|392:227,1,88.000002685547,4|0,0:3|0:0,0:0:0:0:
156,145,69546,2,0,P|112:143|59:139,1,88.000002685547,8|2,0:0|0:0,0:0:0:0:
257,35,69887,1,0,0:0:0:0:
378,139,70058,1,2,0:0:0:0:
378,139,70143,1,0,0:0:0:0:
378,139,70228,2,0,P|382:184|383:226,1,88.000002685547,8|0,0:0|0:0,0:0:0:0:
217,298,70569,21,4,0:3:0:0:
333,360,70740,1,0,0:0:0:0:
283,182,70910,1,8,0:0:0:0:
97,322,71081,1,2,0:0:0:0:
333,360,71251,1,0,0:0:0:0:
193,212,71421,1,2,0:0:0:0:
193,212,71507,1,2,0:0:0:0:
193,212,71592,2,0,L|196:112,1,88.000002685547,8|0,0:0|0:0,0:0:0:0:
291,17,71933,6,0,P|336:14|391:12,1,88.000002685547,4|0,0:3|0:0,0:0:0:0:
491,130,72274,1,8,0:0:0:0:
303,165,72444,1,2,0:0:0:0:
457,48,72615,1,0,0:0:0:0:
410,242,72785,1,2,0:0:0:0:
410,242,72870,1,0,0:0:0:0:
410,242,72956,2,0,P|411:290|415:343,1,88.000002685547,8|0,0:0|0:0,0:0:0:0:
238,281,73296,6,0,P|193:279|129:278,1,88.000002685547,4|0,0:3|0:0,0:0:0:0:
90,177,73637,1,8,0:0:0:0:
251,118,73808,2,0,P|255:78|256:21,1,88.000002685547,2|0,0:0|0:0,0:0:0:0:
149,77,74149,1,2,0:0:0:0:
238,281,74319,1,8,0:0:0:0:
350,134,74490,1,2,0:0:0:0:
350,134,74575,1,2,0:0:0:0:
350,134,74660,21,8,0:0:0:0:
331,336,74831,1,2,0:0:0:0:
459,183,75001,1,8,0:0:0:0:
238,281,75171,1,2,0:0:0:0:
434,289,75342,1,8,0:0:0:0:
350,134,75512,1,2,0:0:0:0:
134,196,75683,1,8,0:0:0:0:
256,35,75853,1,2,0:0:0:0:
256,35,75938,1,0,0:0:0:0:
256,35,76024,6,0,L|254:95,1,44.0000013427735,10|2,0:0|0:0,0:0:0:0:
134,196,76194,2,0,L|132:153,1,44.0000013427735,2|2,0:0|0:0,0:0:0:0:
175,278,76365,2,0,L|65:275,1,88.000002685547,8|4,0:0|0:0,0:0:0:0:
317,340,76706,1,4,0:3:0:0:
355,144,76876,2,0,P|382:140|433:136,1,44.0000013427735,2|2,0:0|0:0,0:0:0:0:
504,230,77046,1,8,0:3:0:0:
460,229,77131,1,8,0:3:0:0:
416,227,77217,1,8,0:3:0:0:
372,226,77301,1,8,0:3:0:0:
329,225,77387,6,0,P|282:226|219:230,1,88.000002685547,4|0,1:2|0:0,0:0:0:0:
166,103,77728,1,8,0:0:0:0:
67,303,77899,2,0,P|68:258|72:202,1,88.000002685547,2|0,0:0|0:0,0:0:0:0:
166,103,78240,1,2,0:0:0:0:
241,228,78410,1,8,0:0:0:0:
368,57,78581,1,0,0:0:0:0:
368,57,78666,1,0,0:0:0:0:
368,57,78751,22,0,P|322:54|270:53,1,88.000002685547,4|0,0:3|0:0,0:0:0:0:
132,200,79092,1,8,0:0:0:0:
313,146,79262,1,2,0:0:0:0:
230,318,79433,1,0,0:0:0:0:
211,93,79603,1,2,0:0:0:0:
211,93,79688,1,0,0:0:0:0:
211,93,79774,1,8,0:0:0:0:
325,251,79944,1,0,0:0:0:0:
132,200,80115,6,0,P|86:200|27:203,1,88.000002685547,4|0,0:3|0:0,0:0:0:0:
184,339,80456,2,0,P|227:340|271:341,1,88.000002685547,8|2,0:0|0:0,0:0:0:0:
412,198,80796,1,0,0:0:0:0:
232,241,80967,1,2,0:0:0:0:
232,241,81052,1,0,0:0:0:0:
232,241,81137,1,8,0:0:0:0:
389,326,81308,1,0,0:0:0:0:
305,133,81478,6,0,P|306:84|310:22,1,88.000002685547,4|0,0:3|0:0,0:0:0:0:
459,89,81819,1,8,0:0:0:0:
319,243,81990,2,0,L|224:240,1,88.000002685547,2|0,0:0|0:0,0:0:0:0:
108,334,82331,1,2,0:0:0:0:
108,334,82416,1,0,0:0:0:0:
108,334,82501,1,8,0:0:0:0:
191,134,82671,1,0,0:0:0:0:
191,134,82757,1,0,0:0:0:0:
191,134,82842,22,0,P|190:93|187:36,1,88.000002685547,4|0,0:3|0:0,0:0:0:0:
84,222,83183,1,8,0:0:0:0:
217,320,83353,2,0,P|260:318|310:318,1,88.000002685547,2|0,0:0|0:0,0:0:0:0:
341,102,83694,1,2,0:0:0:0:
447,265,83865,1,8,0:0:0:0:
237,188,84035,1,0,0:0:0:0:
237,188,84120,1,0,0:0:0:0:
237,188,84206,6,0,P|182:190|113:194,1,88.000002685547,4|0,0:3|0:0,0:0:0:0:
346,125,84546,1,8,0:0:0:0:
447,265,84717,2,0,L|444:363,1,88.000002685547,2|0,0:0|0:0,0:0:0:0:
217,320,85058,1,2,0:0:0:0:
350,234,85228,1,8,0:0:0:0:
264,50,85399,2,0,P|240:51|211:54,1,44.0000013427735,2|2,0:0|0:0,0:0:0:0:
97,121,85569,6,0,P|118:122|140:123,1,44.0000013427735,4|2,0:3|0:0,0:0:0:0:
281,186,85740,2,0,P|257:187|228:190,1,44.0000013427735,2|2,0:0|0:0,0:0:0:0:
48,236,85910,2,0,P|69:237|91:238,1,44.0000013427735,2|2,0:0|0:0,0:0:0:0:
217,320,86081,2,0,P|193:321|164:324,1,44.0000013427735,2|2,0:0|0:0,0:0:0:0:
315,361,86251,1,2,0:0:0:0:
351,337,86336,1,2,0:0:0:0:
393,325,86421,1,2,0:0:0:0:
437,327,86507,1,2,0:0:0:0:
478,343,86592,1,2,0:0:0:0:
465,296,86677,1,2,0:0:0:0:
470,253,86762,1,2,0:0:0:0:
475,209,86848,1,2,0:0:0:0:
465,166,86933,21,8,1:2:0:0:
475,208,87615,38,0,P|478:169|479:129,1,80
453,97,88296,5,4,1:2:0:0:
352,63,88467,2,0,P|289:66|228:67,1,120.000004577637,4|0,0:3|0:0,0:0:0:0:
172,205,88978,2,0,P|229:197|307:231,1,120.000004577637,4|2,0:0|0:0,0:0:0:0:
218,304,89490,1,0,0:0:0:0:
172,205,89660,2,0,P|136:203|91:202,1,60.0000022888184,2|2,0:0|0:0,0:0:0:0:
59,70,90001,2,0,L|202:65,1,120.000004577637,2|8,0:0|3:2,0:0:0:0:
269,173,90512,1,0,3:0:0:0:
347,83,90683,2,0,P|346:52|345:9,1,60.0000022888184,2|2,0:0|0:0,0:0:0:0:
268,172,91024,5,4,0:3:0:0:
491,240,91194,2,0,L|371:244,1,120.000004577637,4|0,0:3|0:0,0:0:0:0:
150,164,91706,2,0,P|210:157|268:172,1,120.000004577637,8|2,0:0|0:0,0:0:0:0:
299,332,92217,1,0,0:0:0:0:
371,244,92387,2,0,P|373:213|374:168,1,60.0000022888184,2|0,0:0|0:0,0:0:0:0:
305,74,92728,2,0,P|361:83|442:80,1,120.000004577637,0|8,0:0|3:2,0:0:0:0:
214,15,93240,2,0,L|69:23,1,120.000004577637,2|0,0:0|0:0,0:0:0:0:
40,129,93751,5,0,0:3:0:0:
134,304,93921,2,0,P|144:245|141:185,1,120.000004577637,4|0,0:3|0:0,0:0:0:0:
357,248,94433,2,0,L|238:253,1,120.000004577637,4|2,0:0|0:0,0:0:0:0:
294,133,94944,1,0,0:0:0:0:
244,37,95115,2,0,P|302:26|357:45,1,90.0000034332277,2|0,0:0|0:0,0:0:0:0:
331,32,95456,2,0,P|364:38|401:38,1,60.0000022888184,2|2,0:0|0:0,0:0:0:0:
475,127,95796,2,0,L|472:196,1,60.0000022888184,8|0,3:2|3:0,0:0:0:0:
359,307,96137,2,0,L|356:247,1,60.0000022888184
266,358,96478,21,4,0:3:0:0:
77,275,96649,2,0,L|215:269,1,120.000004577637,4|2,0:3|0:0,0:0:0:0:
197,270,97075,1,2,0:0:0:0:
196,269,97160,1,8,0:0:0:0:
275,181,97331,1,2,0:0:0:0:
275,181,97416,1,2,0:0:0:0:
275,181,97501,1,2,0:0:0:0:
139,111,97671,2,0,L|136:133,2,15.0000005722046,2|2|2,0:0|0:0|0:0,0:0:0:0:
126,149,97842,6,0,P|101:155|76:158,2,40.000001525879,2|2|2,3:2|0:0|0:0,0:0:0:0:
45,250,98183,2,0,P|64:253|84:258,2,40.000001525879,2|2|2,0:0|0:0|0:0,0:0:0:0:
55,349,98524,2,0,P|86:348|138:345,1,60.0000022888184,2|0,0:0|3:0,0:0:0:0:
311,287,98865,6,0,P|256:265|197:270,1,120.000004577637,4|0,0:3|0:0,0:0:0:0:
196,270,99206,22,0,P|197:232|199:188,1,71.9999978027344,4|2,0:3|0:0,0:0:0:0:
83,53,99546,2,0,P|84:93|85:128,1,71.9999978027344,8|2,0:0|0:0,0:0:0:0:
307,151,99887,1,2,0:0:0:0:
178,16,100058,1,2,0:0:0:0:
197,198,100228,1,8,0:0:0:0:
351,53,100399,1,0,0:0:0:0:
351,53,100484,1,0,0:0:0:0:
351,53,100569,6,0,P|388:48|439:46,1,71.9999978027344,2|2,0:0|0:0,0:0:0:0:
474,258,100910,2,0,L|330:249,1,143.999995605469,8|2,0:0|0:0,0:0:0:0:
225,307,101421,1,2,0:0:0:0:
371,350,101592,1,8,0:0:0:0:
366,162,101762,1,0,0:0:0:0:
233,205,101933,6,0,P|188:204|127:194,1,71.9999978027344,2|2,0:0|0:0,0:0:0:0:
325,66,102274,2,0,P|360:62|396:61,1,71.9999978027344,8|0,0:0|0:0,0:0:0:0:
486,175,102615,1,2,0:0:0:0:
320,265,102785,1,2,0:0:0:0:
320,265,102870,1,0,0:0:0:0:
320,265,102956,2,0,P|321:225|323:184,1,71.9999978027344,8|0,0:0|0:0,0:0:0:0:
214,338,103296,21,2,0:0:0:0:
133,246,103467,2,0,P|94:241|38:238,1,71.9999978027344,2|8,0:0|0:0,0:0:0:0:
214,338,103808,1,0,0:0:0:0:
246,157,103978,2,0,L|244:72,1,71.9999978027344,2|0,0:0|3:0,0:0:0:0:
369,18,104319,1,8,3:2:0:0:
412,213,104490,1,0,0:0:0:0:
412,213,104575,1,0,0:0:0:0:
412,213,104660,6,0,P|374:217|332:219,1,71.9999978027344,2|2,0:0|0:0,0:0:0:0:
214,338,105001,2,0,P|264:330|362:351,1,143.999995605469,8|2,0:0|0:0,0:0:0:0:
110,255,105512,1,2,0:0:0:0:
198,110,105683,2,0,P|197:150|196:189,1,71.9999978027344,8|0,0:0|0:0,0:0:0:0:
366,51,106024,6,0,P|327:47|284:38,1,71.9999978027344,2|2,0:0|0:0,0:0:0:0:
340,218,106365,2,0,P|378:213|422:213,1,71.9999978027344,8|0,0:0|0:0,0:0:0:0:
383,348,106706,1,2,0:0:0:0:
243,294,106876,1,2,0:0:0:0:
243,294,106961,1,0,0:0:0:0:
243,294,107046,1,8,0:0:0:0:
383,348,107217,1,0,0:0:0:0:
340,218,107387,22,0,P|341:178|344:122,1,71.9999978027344,2|2,0:0|0:0,0:0:0:0:
446,70,107728,1,8,0:0:0:0:
327,0,107899,1,0,0:0:0:0:
193,93,108069,2,0,P|231:92|283:90,1,71.9999978027344,2|2,0:0|0:0,0:0:0:0:
340,218,108410,1,8,0:0:0:0:
254,327,108581,1,0,0:0:0:0:
254,327,108666,1,0,0:0:0:0:
254,327,108751,6,0,L|185:324,1,35.9999989013672,2|2,3:2|0:0,0:0:0:0:
83,261,108921,2,0,L|152:258,1,35.9999989013672,2|2,0:0|0:0,0:0:0:0:
194,170,109092,1,2,0:0:0:0:
197,152,109177,1,2,0:0:0:0:
200,134,109262,1,2,0:0:0:0:
200,116,109347,1,2,0:0:0:0:
200,99,109433,2,0,P|199:51|209:12,1,71.9999978027344,8|2,0:0|0:0,0:0:0:0:
203,27,109688,1,2,0:0:0:0:
203,27,109774,2,0,L|134:30,1,35.9999989013672,0|0,3:0|0:0,0:0:0:0:
298,116,109944,2,0,L|367:119,1,35.9999989013672
443,86,110115,6,0,L|438:181,1,71.9999978027344,4|2,0:3|0:0,0:0:0:0:
347,278,110456,2,0,P|418:270|513:271,1,143.999995605469,8|2,0:0|0:0,0:0:0:0:
252,352,110967,1,2,0:0:0:0:
193,223,111137,2,0,P|194:184|198:129,1,71.9999978027344,8|0,0:0|0:0,0:0:0:0:
322,57,111478,21,2,0:0:0:0:
285,196,111649,1,2,0:0:0:0:
183,20,111819,1,8,0:0:0:0:
85,119,111990,1,0,0:0:0:0:
85,119,112075,1,0,0:0:0:0:
85,119,112160,2,0,L|-2:117,1,71.9999978027344,2|2,0:0|0:0,0:0:0:0:
193,223,112501,1,8,0:0:0:0:
87,347,112671,1,0,0:0:0:0:
87,347,112757,1,0,0:0:0:0:
87,347,112842,6,0,P|85:310|89:245,1,71.9999978027344,2|2,0:0|0:0,0:0:0:0:
193,223,113183,1,8,0:0:0:0:
319,312,113353,1,0,0:0:0:0:
183,364,113524,1,2,0:0:0:0:
276,186,113694,1,0,0:0:0:0:
276,186,113779,1,0,0:0:0:0:
276,186,113865,2,0,P|279:145|274:84,1,71.9999978027344,8|0,0:0|0:0,0:0:0:0:
398,72,114206,5,2,0:0:0:0:
499,190,114376,2,0,P|459:193|414:196,1,71.9999978027344,2|8,0:0|0:0,0:0:0:0:
398,72,114717,1,0,0:0:0:0:
333,250,114887,2,0,L|336:326,1,71.9999978027344,2|2,0:0|0:0,0:0:0:0:
139,362,115228,1,8,0:0:0:0:
243,291,115399,1,0,0:0:0:0:
165,173,115569,21,2,0:0:0:0:
165,173,115654,1,2,0:0:0:0:
165,173,115740,1,2,0:0:0:0:
165,173,115825,1,2,0:0:0:0:
165,173,115910,2,0,L|65:177,1,71.9999978027344,8|0,0:0|0:0,0:0:0:0:
223,48,116251,1,2,0:0:0:0:
393,138,116421,1,2,0:0:0:0:
258,206,116592,1,8,0:0:0:0:
338,28,116762,1,0,0:0:0:0:
480,102,116933,5,2,0:0:0:0:
480,102,117018,1,2,0:0:0:0:
480,102,117103,1,2,0:0:0:0:
480,102,117188,1,2,0:0:0:0:
480,102,117274,2,0,P|479:144|476:182,1,71.9999978027344,8|0,0:0|0:0,0:0:0:0:
447,326,117615,1,2,0:0:0:0:
324,257,117785,1,2,0:0:0:0:
393,138,117956,1,8,0:0:0:0:
346,359,118126,1,0,0:0:0:0:
234,292,118296,5,2,0:0:0:0:
234,292,118382,1,2,0:0:0:0:
234,292,118467,1,2,0:0:0:0:
234,292,118552,1,2,0:0:0:0:
234,292,118637,2,0,P|189:293|151:295,1,71.9999978027344,8|0,0:0|0:0,0:0:0:0:
120,155,118978,1,2,0:0:0:0:
294,200,119149,1,2,0:0:0:0:
162,294,119319,1,8,0:0:0:0:
227,96,119490,1,0,0:0:0:0:
393,138,119660,21,2,0:0:0:0:
393,138,119745,1,2,0:0:0:0:
393,138,119831,1,2,0:0:0:0:
393,138,119916,1,2,0:0:0:0:
393,138,120001,2,0,P|393:179|391:216,1,71.9999978027344,8|0,0:0|0:0,0:0:0:0:
327,340,120342,1,0,0:0:0:0:
162,294,120512,1,0,0:0:0:0:
294,200,120683,1,8,0:0:0:0:
247,366,120853,1,0,0:0:0:0:
130,213,121024,5,2,0:0:0:0:
130,213,121109,1,2,0:0:0:0:
130,213,121194,1,2,0:0:0:0:
130,213,121279,1,2,0:0:0:0:
130,213,121365,2,0,P|169:211|220:212,1,71.9999978027344,8|0,0:0|0:0,0:0:0:0:
321,108,121706,1,2,0:0:0:0:
124,2,121876,1,2,0:0:0:0:
267,18,122046,1,8,0:0:0:0:
76,120,122217,1,0,0:0:0:0:
206,228,122387,5,2,0:0:0:0:
206,228,122473,1,2,0:0:0:0:
206,228,122558,1,2,0:0:0:0:
206,228,122643,1,2,0:0:0:0:
206,228,122728,2,0,P|209:269|210:311,1,71.9999978027344,8|0,0:0|0:0,0:0:0:0:
97,345,123069,1,2,0:0:0:0:
309,371,123240,1,2,0:0:0:0:
430,286,123410,1,8,0:0:0:0:
430,286,123495,1,2,0:0:0:0:
430,286,123581,1,2,0:0:0:0:
430,286,123666,1,2,0:0:0:0:
430,286,123751,22,0,L|431:321,1,35.9999989013672,2|2,0:0|0:0,0:0:0:0:
295,198,123921,2,0,L|296:162,1,35.9999989013672,2|2,0:0|0:0,0:0:0:0:
485,92,124092,2,0,L|486:127,1,35.9999989013672,8|2,0:0|0:0,0:0:0:0:
252,51,124262,2,0,L|253:15,1,35.9999989013672,2|2,0:0|0:0,0:0:0:0:
399,181,124433,2,0,L|400:216,3,35.9999989013672,2|2|2|2,0:0|0:0|0:0|0:0,0:0:0:0:
196,279,124774,2,0,L|194:314,3,35.9999989013672,8|2|2|2,0:0|0:0|0:0|0:0,0:0:0:0:
295,198,125115,5,4,0:3:0:0:
63,144,125285,1,0,0:0:0:0:
63,144,125370,1,0,0:0:0:0:
63,144,125456,2,0,L|61:109,3,35.9999989013672,8|2|2|2,0:0|0:0|0:0|0:0,0:0:0:0:
138,47,125796,5,4,0:3:0:0:
116,321,125967,1,4,0:3:0:0:
81,298,126308,22,0,B|198:304|198:304|272:290,1,160,4|0,1:2|0:0,0:0:0:0:
193,155,126819,2,0,P|150:158|87:161,1,80,8|0,0:0|0:0,0:0:0:0:
240,296,127160,2,0,P|279:298|319:301,1,80,2|2,0:0|0:0,0:0:0:0:
419,223,127501,1,8,0:0:0:0:
193,155,127671,1,0,0:0:0:0:
297,67,127842,2,0,P|294:108|293:148,1,80,4|0,0:3|0:0,0:0:0:0:
419,223,128183,1,8,0:0:0:0:
240,296,128353,1,0,0:0:0:0:
293,146,128524,1,2,0:0:0:0:
376,328,128694,1,2,0:0:0:0:
419,223,128865,1,8,0:0:0:0:
240,296,129035,6,0,L|52:291,1,160,4|2,0:3|0:0,0:0:0:0:
27,169,129546,1,8,0:0:0:0:
170,211,129717,1,0,0:0:0:0:
121,34,129887,2,0,P|119:73|118:113,1,80,2|2,0:0|0:0,0:0:0:0:
295,226,130228,2,0,P|293:186|292:146,1,80,8|0,0:0|0:0,0:0:0:0:
221,344,130569,2,0,P|282:322|406:340,1,160,4|8,0:3|0:0,0:0:0:0:
485,210,131081,1,0,0:0:0:0:
401,46,131251,2,0,L|398:125,1,80,2|2,0:0|0:0,0:0:0:0:
295,226,131592,1,8,0:0:0:0:
84,145,131762,6,0,B|197:133|197:133|262:139,1,160,4|2,0:3|0:0,0:0:0:0:
192,288,132274,2,0,L|90:284,1,80,8|0,0:0|0:0,0:0:0:0:
314,351,132615,2,0,P|353:345|400:344,1,80,2|2,0:0|0:0,0:0:0:0:
485,238,132956,1,8,0:0:0:0:
336,148,133126,1,0,0:0:0:0:
490,78,133296,2,0,P|485:165|485:256,1,160,4|8,0:3|0:0,0:0:0:0:
336,148,133808,1,0,0:0:0:0:
192,288,133978,2,0,P|192:252|194:206,1,80,2|2,0:0|0:0,0:0:0:0:
314,351,134319,1,8,0:0:0:0:
97,328,134490,22,0,P|96:243|93:147,1,160,4|2,0:3|0:0,0:0:0:0:
290,92,135001,1,8,0:0:0:0:
203,208,135171,1,0,0:0:0:0:
124,40,135342,1,2,0:0:0:0:
290,92,135512,1,2,0:0:0:0:
93,168,135683,2,0,L|11:167,1,80,8|0,0:0|0:0,0:0:0:0:
193,295,136024,2,0,P|265:285|370:293,1,160,4|8,0:3|0:0,0:0:0:0:
257,370,136535,1,0,0:0:0:0:
203,208,136706,1,0,0:0:0:0:
351,289,136876,1,0,0:0:0:0:
469,162,137046,2,0,P|429:164|390:167,1,80,8|0,0:0|0:0,0:0:0:0:
219,38,137387,6,0,P|261:41|321:43,1,80,4|0,0:3|0:0,0:0:0:0:
203,208,137728,2,0,P|163:209|123:212,1,80,8|0,0:0|0:0,0:0:0:0:
67,333,138069,1,2,0:0:0:0:
257,370,138240,1,2,0:0:0:0:
304,179,138410,2,0,P|303:136|297:77,1,80,8|0,0:0|0:0,0:0:0:0:
140,51,138751,1,4,0:3:0:0:
378,0,138921,1,2,0:0:0:0:
378,0,139007,1,2,0:0:0:0:
378,0,139092,2,0,L|451:6,1,40,8|2,0:0|0:0,0:0:0:0:
497,123,139262,2,0,L|458:127,1,40,2|2,0:0|0:0,0:0:0:0:
299,99,139433,5,4,0:3:0:0:
408,316,139603,1,4,0:3:0:0:
369,339,139944,22,0,P|372:223|376:150,1,160,4|0,1:2|0:0,0:0:0:0:
199,251,140456,2,0,P|239:252|289:255,1,80,8|0,0:0|0:0,0:0:0:0:
137,354,140796,2,0,P|97:356|57:357,1,80,2|2,0:0|0:0,0:0:0:0:
7,194,141137,1,8,0:0:0:0:
177,159,141308,1,0,0:0:0:0:
92,263,141478,2,0,B|89:146|89:146|102:83,1,160,4|8,0:3|0:0,0:0:0:0:
296,56,141990,1,0,0:0:0:0:
177,159,142160,1,2,0:0:0:0:
214,3,142331,1,2,0:0:0:0:
305,181,142501,1,8,0:0:0:0:
182,307,142671,6,0,P|123:296|19:301,1,160,4|0,0:3|0:0,0:0:0:0:
265,368,143183,2,0,L|377:365,1,80,8|0,0:0|0:0,0:0:0:0:
458,217,143524,1,2,0:0:0:0:
302,279,143694,1,2,0:0:0:0:
453,355,143865,1,8,0:0:0:0:
378,144,144035,1,0,0:0:0:0:
228,206,144206,2,0,B|111:200|111:200|49:179,1,160,4|8,0:3|0:0,0:0:0:0:
166,44,144717,1,0,0:0:0:0:
299,69,144887,2,0,L|339:66|379:63,1,80,2|2,0:0|0:0,0:0:0:0:
166,44,145228,1,8,0:0:0:0:
228,206,145399,6,0,P|224:292|222:370,1,160,4|0,0:3|0:0,0:0:0:0:
364,324,145910,2,0,P|362:284|358:229,1,80,8|0,0:0|0:0,0:0:0:0:
495,107,146251,2,0,P|492:148|488:195,1,80,2|2,0:0|0:0,0:0:0:0:
359,244,146592,1,8,0:0:0:0:
296,123,146762,1,0,0:0:0:0:
203,223,146933,2,0,L|44:220,1,160,4|8,0:3|0:0,0:0:0:0:
121,318,147444,1,0,0:0:0:0:
160,125,147615,2,0,P|116:127|54:129,1,80,2|2,0:0|0:0,0:0:0:0:
226,16,147956,1,8,0:0:0:0:
361,73,148126,1,0,0:0:0:0:
292,223,148297,21,4,0:3:0:0:
411,285,148467,1,2,0:0:0:0:
411,285,148552,1,2,0:0:0:0:
411,285,148637,1,8,0:0:0:0:
209,363,148808,1,2,0:0:0:0:
209,363,148893,1,2,0:0:0:0:
209,363,148978,1,8,0:0:0:0:
292,223,149149,1,2,0:0:0:0:
290,183,149234,1,2,0:0:0:0:
289,143,149319,1,8,0:0:0:0:
288,103,149404,1,0,0:0:0:0:
287,63,149490,2,0,P|289:34|293:-1,1,40,2|2,0:0|0:0,0:0:0:0:
411,165,149660,6,0,P|416:229|417:278,1,80,4|2,0:0|0:0,0:0:0:0:
411,285,149916,1,2,0:0:0:0:
209,363,150086,1,0,1:0:0:0:
197,347,150683,22,0,P|155:349|121:352,1,60
197,347,151024,6,0,P|242:350|288:352,1,88.000002685547,4|0,1:2|0:0,0:0:0:0:
357,239,151365,1,8,0:0:0:0:
152,139,151535,1,2,0:0:0:0:
237,264,151706,1,0,0:0:0:0:
381,144,151876,1,2,0:0:0:0:
265,37,152046,1,8,0:0:0:0:
143,165,152217,1,0,0:0:0:0:
143,165,152302,1,0,0:0:0:0:
143,165,152387,6,0,P|99:164|56:163,1,88.000002685547,4|0,0:3|0:0,0:0:0:0:
265,37,152728,1,8,0:0:0:0:
315,210,152899,2,0,P|314:258|312:311,1,88.000002685547,2|0,0:0|0:0,0:0:0:0:
165,337,153240,1,2,0:0:0:0:
165,337,153325,1,0,0:0:0:0:
165,337,153410,1,8,0:0:0:0:
385,374,153581,1,0,0:0:0:0:
315,210,153751,6,0,P|270:210|220:212,1,88.000002685547,4|0,0:3|0:0,0:0:0:0:
376,97,154092,2,0,P|420:99|464:99,1,88.000002685547,8|2,0:0|0:0,0:0:0:0:
265,38,154433,1,0,0:0:0:0:
87,185,154603,1,2,0:0:0:0:
155,56,154774,1,8,0:0:0:0:
232,248,154944,1,0,0:0:0:0:
232,248,155029,1,0,0:0:0:0:
232,248,155115,22,0,L|229:351,1,88.000002685547,4|0,0:3|0:0,0:0:0:0:
87,185,155456,1,8,0:0:0:0:
256,111,155626,2,0,P|300:108|348:109,1,88.000002685547,2|0,0:0|0:0,0:0:0:0:
466,233,155967,1,2,0:0:0:0:
466,233,156052,1,0,0:0:0:0:
466,233,156137,1,8,0:0:0:0:
317,307,156308,1,0,0:0:0:0:
343,108,156478,6,0,P|341:67|336:22,1,88.000002685547,4|0,0:3|0:0,0:0:0:0:
182,5,156819,1,8,0:0:0:0:
100,184,156990,2,0,P|145:184|197:187,1,88.000002685547,2|0,0:0|0:0,0:0:0:0:
317,307,157331,1,2,0:0:0:0:
164,356,157501,1,8,0:0:0:0:
282,211,157671,1,0,0:0:0:0:
282,211,157757,1,0,0:0:0:0:
282,211,157842,6,0,P|284:172|285:115,1,88.000002685547,4|0,0:3|0:0,0:0:0:0:
439,60,158183,1,8,0:0:0:0:
512,195,158353,2,0,P|501:243|487:286,1,88.000002685547,2|0,0:0|0:0,0:0:0:0:
317,307,158694,1,2,0:0:0:0:
431,373,158865,1,8,0:0:0:0:
414,158,159035,1,0,0:0:0:0:
414,158,159120,1,0,0:0:0:0:
414,158,159206,21,8,0:0:0:0:
317,307,159376,1,2,0:0:0:0:
512,195,159546,1,8,0:0:0:0:
278,221,159717,1,2,0:0:0:0:
447,280,159887,1,8,0:0:0:0:
402,17,160058,1,2,0:0:0:0:
366,218,160228,1,8,0:0:0:0:
505,99,160399,1,2,0:0:0:0:
505,99,160484,1,0,0:0:0:0:
505,99,160569,6,0,L|503:43,1,44.0000013427735,10|2,0:0|0:0,0:0:0:0:
446,279,160740,2,0,L|445:323,1,44.0000013427735,2|2,0:0|0:0,0:0:0:0:
366,218,160910,2,0,L|244:223,1,88.000002685547,8|4,0:0|0:0,0:0:0:0:
149,354,161251,1,4,0:3:0:0:
86,159,161421,2,0,L|84:202,1,44.0000013427735,2|2,0:0|0:0,0:0:0:0:
187,266,161592,1,8,0:3:0:0:
185,222,161677,1,8,0:3:0:0:
183,178,161762,1,8,0:3:0:0:
181,134,161847,1,8,0:3:0:0:
180,90,161933,6,0,P|183:45|188:-3,1,88.000002685547,4|0,1:2|0:0,0:0:0:0:
316,146,162274,1,8,0:0:0:0:
471,53,162444,2,0,P|427:54|383:57,1,88.000002685547,2|0,0:0|0:0,0:0:0:0:
321,249,162785,1,2,0:0:0:0:
321,249,162870,1,0,0:0:0:0:
321,249,162956,1,8,0:0:0:0:
470,320,163126,1,0,0:0:0:0:
268,363,163296,22,0,P|223:356|158:353,1,88.000002685547,4|0,0:3|0:0,0:0:0:0:
91,218,163637,1,8,0:0:0:0:
231,149,163808,2,0,P|234:109|238:50,1,88.000002685547,2|0,0:0|0:0,0:0:0:0:
321,249,164149,1,2,0:0:0:0:
396,83,164319,1,8,0:0:0:0:
471,232,164490,1,0,0:0:0:0:
471,232,164575,1,0,0:0:0:0:
471,232,164660,6,0,L|469:319,1,88.000002685547,4|0,0:3|0:0,0:0:0:0:
268,363,165001,1,8,0:0:0:0:
92,274,165171,2,0,P|135:272|192:272,1,88.000002685547,2|0,0:0|0:0,0:0:0:0:
268,363,165512,1,2,0:0:0:0:
321,249,165683,1,8,0:0:0:0:
222,87,165853,1,0,0:0:0:0:
222,87,165938,1,0,0:0:0:0:
222,87,166024,6,0,P|219:142|218:207,1,88.000002685547,4|0,0:3|0:0,0:0:0:0:
321,249,166365,1,8,0:0:0:0:
479,105,166535,1,2,0:0:0:0:
342,157,166706,1,0,0:0:0:0:
409,346,166876,1,2,0:0:0:0:
409,346,166961,1,0,0:0:0:0:
409,346,167046,1,8,0:0:0:0:
482,192,167217,1,0,0:0:0:0:
482,192,167302,1,0,0:0:0:0:
482,192,167387,22,0,P|480:148|478:101,1,88.000002685547,4|0,0:3|0:0,0:0:0:0:
353,29,167728,1,8,0:0:0:0:
222,87,167899,2,0,L|112:84,1,88.000002685547,2|0,0:0|0:0,0:0:0:0:
67,244,168240,1,2,0:0:0:0:
277,176,168410,1,8,0:0:0:0:
187,358,168581,1,0,0:0:0:0:
187,358,168666,1,0,0:0:0:0:
187,358,168751,6,0,P|184:309|183:260,1,88.000002685547,4|0,0:3|0:0,0:0:0:0:
277,176,169092,1,8,0:0:0:0:
425,267,169262,1,2,0:0:0:0:
286,363,169433,1,0,0:0:0:0:
398,178,169603,1,2,0:0:0:0:
203,105,169774,1,8,0:0:0:0:
426,28,169944,1,2,0:0:0:0:
426,28,170029,1,2,0:0:0:0:
426,28,170115,6,0,P|427:57|428:88,1,44.0000013427735,4|2,0:3|0:0,0:0:0:0:
274,219,170285,2,0,P|275:197|277:176,1,44.0000013427735,2|2,0:0|0:0,0:0:0:0:
425,267,170456,2,0,P|426:296|427:327,1,44.0000013427735,2|2,0:0|0:0,0:0:0:0:
187,358,170626,2,0,P|187:336|189:314,1,44.0000013427735,2|2,0:0|0:0,0:0:0:0:
274,219,170796,1,2,0:0:0:0:
236,196,170881,1,2,0:0:0:0:
193,187,170966,1,2,0:0:0:0:
150,193,171051,1,2,0:0:0:0:
111,213,171137,1,2,0:0:0:0:
121,170,171223,1,2,0:0:0:0:
119,127,171308,1,2,0:0:0:0:
117,83,171393,1,2,0:0:0:0:
126,40,171478,21,8,1:2:0:0:
117,83,172842,6,0,L|227:79,1,80,4|2,1:2|0:0,0:0:0:0:
301,173,173183,1,8,0:0:0:0:
126,224,173353,1,0,0:0:0:0:
228,350,173524,2,0,P|229:305|234:257,1,80,2|2,0:0|0:0,0:0:0:0:
380,318,173865,1,8,0:0:0:0:
459,187,174035,2,0,B|343:169|343:169|293:173,1,160,0|2,0:0|0:0,0:0:0:0:
381,58,174546,2,0,L|479:56,1,80,8|0,0:0|0:0,0:0:0:0:
269,19,174887,1,4,0:1:0:0:
169,151,175058,1,2,0:0:0:0:
300,172,175228,1,8,0:0:0:0:
123,77,175399,1,0,0:0:0:0:
96,233,175569,6,0,P|97:279|100:323,1,80,4|2,0:3|0:0,0:0:0:0:
300,172,175910,2,0,P|302:132|303:92,1,80,8|0,0:0|0:0,0:0:0:0:
218,273,176251,1,2,0:0:0:0:
168,77,176421,1,2,0:0:0:0:
379,169,176592,2,0,L|293:172,1,80,8|0,0:0|0:0,0:0:0:0:
218,273,176933,1,2,0:0:0:0:
411,341,177103,1,2,0:0:0:0:
259,364,177274,1,8,0:0:0:0:
379,169,177444,1,0,0:0:0:0:
323,289,177615,1,2,0:0:0:0:
256,85,177785,1,2,0:0:0:0:
378,168,177956,2,0,L|459:166,1,80,8|0,0:0|0:0,0:0:0:0:
256,85,178296,22,0,P|212:90|159:93,1,80,4|2,0:3|0:0,0:0:0:0:
56,260,178637,1,8,0:0:0:0:
88,128,178808,1,0,0:0:0:0:
217,244,178978,2,0,P|256:245|296:250,1,80,2|2,0:0|0:0,0:0:0:0:
171,348,179319,1,8,0:0:0:0:
372,318,179490,2,0,B|379:204|379:204|404:134,1,160,0|2,0:0|0:0,0:0:0:0:
472,276,180001,2,0,L|475:361,1,80,8|0,0:0|0:0,0:0:0:0:
261,371,180342,1,2,0:0:0:0:
372,318,180512,1,2,0:0:0:0:
217,244,180683,1,8,0:0:0:0:
394,160,180853,1,0,0:0:0:0:
274,103,181024,6,0,P|275:63|277:24,1,80,4|0,0:3|0:0,0:0:0:0:
394,160,181365,1,8,0:0:0:0:
444,40,181535,1,0,0:0:0:0:
274,103,181706,2,0,P|229:102|176:99,1,80,2|2,0:0|0:0,0:0:0:0:
392,279,182046,2,0,P|431:276|471:275,1,80,8|2,0:0|0:0,0:0:0:0:
296,346,182387,6,0,P|268:345|231:343,3,40,8|0|0|0,0:0|0:0|0:0|0:0,0:0:0:0:
217,258,182728,2,0,P|189:259|152:261,3,40,0|0|2|2,0:0|0:0|0:0|0:0,0:0:0:0:
151,148,183069,1,2,0:0:0:0:
180,140,183154,1,2,0:0:0:0:
209,139,183239,1,2,0:0:0:0:
239,143,183324,1,2,0:0:0:0:
267,152,183410,1,2,0:0:0:0:
303,169,183495,1,2,0:0:0:0:
342,178,183580,1,2,0:0:0:0:
382,178,183665,1,2,0:0:0:0:
420,169,183751,22,0,P|423:128|427:67,1,80,4|2,1:2|0:0,0:0:0:0:
295,24,184092,1,8,0:0:0:0:
151,148,184262,2,0,P|192:150|247:151,1,80,0|2,0:0|0:0,0:0:0:0:
295,24,184603,1,2,0:0:0:0:
337,218,184774,2,0,L|333:319,1,80,8|0,0:0|0:0,0:0:0:0:
165,345,185115,1,2,0:0:0:0:
68,220,185285,1,2,0:0:0:0:
267,152,185456,1,8,0:0:0:0:
161,249,185626,1,0,0:0:0:0:
117,62,185796,1,2,0:0:0:0:
280,36,185967,1,2,0:0:0:0:
280,36,186052,1,0,0:0:0:0:
280,36,186137,2,0,P|329:37|378:40,1,80,8|0,0:0|0:0,0:0:0:0:
487,207,186478,6,0,P|420:189|329:223,1,160,4|8,0:3|0:0,0:0:0:0:
420,313,186990,1,0,0:0:0:0:
336,217,187160,2,0,P|338:173|342:125,1,80,2|2,0:0|0:0,0:0:0:0:
227,288,187501,2,0,P|229:327|231:367,1,80,8|0,0:0|0:0,0:0:0:0:
86,221,187842,1,2,0:0:0:0:
183,106,188012,2,0,P|228:107|290:109,1,80,2|8,0:0|0:0,0:0:0:0:
336,217,188353,1,0,0:0:0:0:
466,66,188524,2,0,P|420:67|359:69,1,80,2|2,0:0|0:0,0:0:0:0:
420,313,188865,2,0,P|465:314|527:316,1,80,8|0,0:0|0:0,0:0:0:0:
336,217,189206,5,4,0:3:0:0:
266,351,189376,1,2,0:0:0:0:
440,225,189546,1,8,0:0:0:0:
310,112,189717,1,0,0:0:0:0:
310,112,189802,1,0,0:0:0:0:
310,112,189887,2,0,L|314:23,1,80,2|2,0:0|0:0,0:0:0:0:
210,218,190228,1,8,0:0:0:0:
109,134,190399,1,0,0:0:0:0:
109,134,190484,1,0,0:0:0:0:
109,134,190569,2,0,P|63:135|12:138,1,80,2|2,0:0|0:0,0:0:0:0:
78,295,190910,1,8,0:0:0:0:
210,218,191081,1,0,0:0:0:0:
210,218,191166,1,0,0:0:0:0:
210,218,191251,2,0,L|207:129,1,80,2|2,0:0|0:0,0:0:0:0:
378,303,191592,2,0,P|333:304|277:313,1,80,8|0,0:0|0:0,0:0:0:0:
166,358,191933,21,2,0:0:0:0:
93,216,192103,1,2,0:0:0:0:
93,216,192188,1,0,0:0:0:0:
93,216,192274,1,8,0:0:0:0:
288,171,192444,1,0,0:0:0:0:
186,263,192615,1,2,0:0:0:0:
208,73,192785,1,2,0:0:0:0:
208,73,192870,1,0,0:0:0:0:
208,73,192956,2,0,L|204:23,1,40,8|0,0:0|0:0,0:0:0:0:
288,171,193126,2,0,L|292:121,1,40
397,54,193296,6,0,L|393:4,3,40,2|2|2|2,0:0|0:0|0:0|0:0,0:0:0:0:
465,214,193637,2,0,L|469:164,3,40,8|2|2|2,0:0|0:0|0:0|0:0,0:0:0:0:
400,312,193978,1,2,0:0:0:0:
400,312,194063,1,2,0:0:0:0:
400,312,194149,1,2,0:0:0:0:
400,312,194234,1,2,0:0:0:0:
400,312,194319,2,0,P|380:314|360:315,1,40,8|2,0:0|0:0,0:0:0:0:
259,364,194490,2,0,P|236:363|219:360,1,40,2|2,0:0|0:0,0:0:0:0:
146,282,194660,6,0,P|136:226|138:163,1,120.000004577637,4|2,0:3|0:0,0:0:0:0:
207,79,195171,1,0,0:0:0:0:
370,174,195342,2,0,P|310:177|251:178,1,120.000004577637,8|2,0:0|0:0,0:0:0:0:
207,79,195853,1,0,0:0:0:0:
81,220,196024,1,4,0:3:0:0:
116,114,196194,2,0,P|115:80|111:42,1,60.0000022888184,8|0,0:0|0:0,0:0:0:0:
81,220,196535,1,0,0:0:0:0:
155,298,196706,2,0,L|217:296,1,60.0000022888184,4|2,0:0|0:0,0:0:0:0:
370,174,197046,2,0,L|308:172,1,60.0000022888184,0|2,0:0|0:0,0:0:0:0:
472,227,197387,22,0,P|480:162|459:102,1,120.000004577637,4|2,0:3|0:0,0:0:0:0:
370,174,197899,1,0,0:0:0:0:
264,59,198069,2,0,P|304:64|383:54,1,120.000004577637,8|2,0:0|0:0,0:0:0:0:
382,54,198581,1,0,0:0:0:0:
196,133,198751,2,0,P|160:130|112:129,1,60.0000022888184,2|8,0:0|0:0,0:0:0:0:
55,201,199092,1,0,0:0:0:0:
143,334,199262,1,0,0:0:0:0:
242,270,199433,2,0,P|241:238|240:201,1,60.0000022888184,8|2,0:0|0:0,0:0:0:0:
360,318,199774,2,0,P|361:286|362:249,1,60.0000022888184,0|2,0:0|0:0,0:0:0:0:
451,145,200115,6,0,P|385:155|330:148,1,120.000004577637,4|2,0:3|0:0,0:0:0:0:
297,42,200626,1,0,0:0:0:0:
77,97,200796,2,0,P|136:96|200:100,1,120.000004577637,4|2,0:0|0:0,0:0:0:0:
246,195,201308,1,0,0:0:0:0:
169,268,201478,2,0,P|136:270|84:271,1,60.0000022888184,4|8,0:3|0:0,0:0:0:0:
246,195,201819,1,0,0:0:0:0:
280,332,201990,1,0,0:0:0:0:
340,220,202160,2,0,P|339:187|337:137,1,60.0000022888184,8|2,0:0|0:0,0:0:0:0:
259,30,202501,2,0,P|257:59|257:89,1,60.0000022888184,0|2,0:0|0:0,0:0:0:0:
383,64,202842,6,0,L|506:61,1,120.000004577637,4|2,0:3|0:0,0:0:0:0:
445,166,203353,1,0,0:0:0:0:
396,291,203524,2,0,P|343:303|259:273,1,120.000004577637,8|2,0:0|0:0,0:0:0:0:
243,172,204035,1,0,0:0:0:0:
280,287,204206,2,0,P|278:327|276:357,1,60.0000022888184,4|8,0:3|0:0,0:0:0:0:
153,210,204546,2,0,P|150:180|149:150,1,60.0000022888184
215,75,204887,1,8,0:0:0:0:
375,193,205058,1,2,0:0:0:0:
243,172,205228,1,2,0:0:0:0:
347,96,205399,1,2,0:0:0:0:
375,193,205569,22,0,L|378:338,1,120.000004577637,4|2,0:3|0:0,0:0:0:0:
480,238,206081,1,0,0:0:0:0:
434,363,206251,2,0,P|370:351|289:358,1,120.000004577637,4|2,0:0|0:0,0:0:0:0:
235,211,206762,1,0,0:0:0:0:
318,293,206933,2,0,L|315:359,1,60.0000022888184,4|8,0:3|0:0,0:0:0:0:
235,211,207274,1,0,0:0:0:0:
129,257,207444,1,0,0:0:0:0:
141,141,207615,2,0,L|139:82,1,60.0000022888184,8|2,0:0|0:0,0:0:0:0:
240,33,207956,1,0,0:0:0:0:
235,211,208126,1,2,0:0:0:0:
422,132,208296,6,0,P|363:120|303:123,1,120.000004577637,4|2,0:3|0:0,0:0:0:0:
352,261,208808,1,0,0:0:0:0:
481,190,208978,2,0,P|479:130|477:54,1,120.000004577637,8|2,0:0|0:0,0:0:0:0:
444,278,209490,1,0,0:0:0:0:
444,278,209575,1,0,0:0:0:0:
444,278,209660,2,0,P|443:310|441:338,1,60.0000022888184,4|8,0:3|0:0,0:0:0:0:
266,289,210001,2,0,P|263:259|263:229,1,60.0000022888184
263,229,210257,1,0,0:0:0:0:
263,229,210342,2,0,P|265:199|265:169,1,60.0000022888184,4|2,0:0|0:0,0:0:0:0:
187,109,210683,1,0,0:0:0:0:
79,151,210853,1,2,0:0:0:0:
149,14,211024,6,0,P|200:9|271:50,1,120.000004577637,4|2,0:3|0:0,0:0:0:0:
187,109,211535,1,0,0:0:0:0:
443,106,211706,2,0,P|383:104|324:110,1,120.000004577637,8|2,0:0|0:0,0:0:0:0:
263,229,212217,1,0,0:0:0:0:
439,297,212387,1,4,0:3:0:0:
367,193,212558,1,8,0:0:0:0:
344,361,212728,2,0,L|341:313,1,30.0000011444092,2|0,0:0|0:0,0:0:0:0:
263,229,212899,2,0,L|266:181,1,30.0000011444092,2|2,0:0|0:0,0:0:0:0:
352,86,213069,2,0,P|350:65|349:38,3,30.0000011444092,2|2|2|2,0:0|0:0|0:0|0:0,0:0:0:0:
166,138,213410,2,0,P|167:113|169:90,3,30.0000011444092,2|2|2|2,0:0|0:0|0:0|0:0,0:0:0:0:
179,278,213751,6,0,P|161:363|108:249,1,300,4|0,0:3|0:0,0:0:0:0:
90,256,215115,5,4,0:3:0:0:
292,217,215285,1,2,0:0:0:0:
292,217,215370,1,2,0:0:0:0:
292,217,215456,1,2,0:0:0:0:
166,100,215626,1,2,0:0:0:0:
381,308,215796,1,2,0:0:0:0:
406,277,215881,1,2,0:0:0:0:
421,240,215966,1,2,0:0:0:0:
423,200,216051,1,2,0:0:0:0:
413,162,216136,5,4,0:3:0:0:
166,100,216308,1,4,0:3:0:0:
193,62,216649,6,0,B|186:172|186:172|173:222,1,160,4|0,1:2|0:0,0:0:0:0:
100,276,217158,22,0,P|64:270|21:268,1,64,8|0,0:0|0:0,0:0:0:0:
173,220,217499,2,0,P|243:218|332:213,1,128,4|0,0:1|0:0,0:0:0:0:
300,215,218181,2,0,P|298:259|296:308,1,64,0|8,0:0|0:0,0:0:0:0:
395,169,218522,2,0,P|392:125|390:76,1,64,2|2,0:0|0:0,0:0:0:0:
464,11,218863,2,0,P|414:22|334:-4,1,128,4|0,0:1|0:0,0:0:0:0:
257,76,219374,1,0,0:0:0:0:
156,29,219545,6,0,P|119:29|69:33,1,64,4|2,0:3|0:0,0:0:0:0:
223,164,219886,2,0,P|254:165|286:166,1,64,0|2,0:0|0:0,0:0:0:0:
369,260,220227,2,0,P|309:254|234:289,1,128,8|0,0:0|0:0,0:0:0:0:
325,364,220738,1,0,0:0:0:0:
369,260,220908,2,0,P|368:224|366:179,1,64,2|2,0:0|0:0,0:0:0:0:
307,111,221249,1,2,0:0:0:0:
466,173,221420,1,2,0:0:0:0:
433,17,221590,2,0,P|431:48|431:80,1,64,8|0,0:0|0:0,0:0:0:0:
307,111,221931,2,0,P|271:104|227:100,1,64
134,215,222272,6,0,P|194:224|275:187,1,128,4|2,0:3|0:0,0:0:0:0:
307,111,222783,1,2,0:0:0:0:
369,260,222954,1,8,0:0:0:0:
369,260,223295,2,0,P|366:301|363:343,1,64
274,358,223636,1,2,0:0:0:0:
174,305,223806,2,0,P|138:306|98:310,1,64,2|0,0:0|0:0,0:0:0:0:
227,215,224147,1,2,0:0:0:0:
227,215,224232,1,2,0:0:0:0:
227,215,224318,2,0,L|229:183|231:151,1,64,8|2,0:0|0:0,0:0:0:0:
124,29,224658,2,0,P|125:60|128:92,1,64,2|2,0:0|0:0,0:0:0:0:
231,151,224999,22,0,P|289:155|366:120,1,128,4|2,0:3|0:0,0:0:0:0:
277,48,225511,1,0,0:0:0:0:
429,90,225681,2,0,P|433:138|436:236,1,128,8|0,0:0|0:0,0:0:0:0:
435,217,226363,2,0,L|433:306,1,64,2|2,0:0|0:0,0:0:0:0:
358,353,226704,1,0,0:0:0:0:
204,302,226874,1,0,0:0:0:0:
204,302,226960,1,0,0:0:0:0:
204,302,227045,2,0,P|236:302|285:306,1,64,8|0,0:0|0:0,0:0:0:0:
167,200,227386,2,0,P|135:202|103:202,1,64
231,113,227727,6,0,P|286:109|378:135,1,128,4|0,0:3|0:0,0:0:0:0:
282,233,228238,1,0,0:0:0:0:
433,167,228408,2,0,P|440:123|442:94,1,64,8|0,0:0|0:0,0:0:0:0:
383,264,228749,2,0,P|386:295|391:327,1,64
486,280,229090,1,4,0:3:0:0:
256,352,229261,1,2,0:0:0:0:
256,352,229346,1,2,0:0:0:0:
256,352,229431,1,8,0:0:0:0:
264,319,229772,5,0,0:0:0:0:
224,64,229942,1,0,0:0:0:0:
259,37,230283,22,0,B|146:45|146:45|81:36,1,160,4|0,1:2|0:0,0:0:0:0:
33,157,230795,2,0,P|39:199|42:239,1,80,8|0,0:0|0:0,0:0:0:0:
213,306,231136,2,0,P|216:266|221:226,1,80,2|2,0:0|0:0,0:0:0:0:
386,161,231477,1,8,0:0:0:0:
335,344,231647,1,0,0:0:0:0:
442,247,231818,2,0,P|446:166|450:68,1,160,4|8,0:3|0:0,0:0:0:0:
280,112,232329,1,0,0:0:0:0:
332,0,232499,2,0,P|373:1|419:5,1,80,2|2,0:0|0:0,0:0:0:0:
280,112,232840,1,8,0:0:0:0:
174,53,233011,6,0,B|168:163|168:163|146:231,1,160,4|2,0:3|0:0,0:0:0:0:
42,260,233522,1,8,0:0:0:0:
255,276,233693,1,0,0:0:0:0:
168,367,233863,2,0,P|123:365|80:364,1,80,2|2,0:0|0:0,0:0:0:0:
266,290,234204,2,0,P|305:288|345:287,1,80,8|0,0:0|0:0,0:0:0:0:
436,122,234545,2,0,P|377:106|275:113,1,160,4|8,0:3|0:0,0:0:0:0:
180,235,235056,1,0,0:0:0:0:
159,55,235227,1,0,0:0:0:0:
287,203,235397,1,0,0:0:0:0:
101,157,235568,1,8,0:0:0:0:
155,323,235738,6,0,B|267:319|267:319|330:295,1,160,4|2,0:3|0:0,0:0:0:0:
468,206,236249,2,0,L|378:201,1,80,8|0,0:0|0:0,0:0:0:0:
180,235,236590,1,2,0:0:0:0:
303,76,236761,1,2,0:0:0:0:
287,203,236931,1,8,0:0:0:0:
142,58,237102,1,0,0:0:0:0:
46,167,237272,2,0,P|49:251|51:339,1,160,4|8,0:3|0:0,0:0:0:0:
180,235,237783,1,0,0:0:0:0:
308,340,237954,2,0,L|218:345,1,80,2|2,0:0|0:0,0:0:0:0:
370,207,238295,2,0,L|460:212,1,80,8|0,0:0|0:0,0:0:0:0:
506,89,238636,21,4,0:3:0:0:
319,133,238806,1,2,0:0:0:0:
319,133,238891,1,2,0:0:0:0:
319,133,238977,1,8,0:0:0:0:
421,0,239147,1,2,0:0:0:0:
421,0,239232,1,2,0:0:0:0:
421,0,239318,1,8,0:0:0:0:
221,52,239488,1,2,0:0:0:0:
219,91,239573,1,2,0:0:0:0:
218,131,239658,1,8,0:0:0:0:
217,171,239743,1,0,0:0:0:0:
216,211,239829,2,0,P|217:241|220:268,1,40,2|2,0:0|0:0,0:0:0:0:
153,361,239999,6,0,P|95:356|35:353,1,80,4|2,0:0|0:0,0:0:0:0:
33,357,240255,1,2,0:0:0:0:
304,292,240425,1,0,1:0:0:0:
288,303,241022,22,0,P|291:338|294:367,1,60
288,303,241363,6,0,P|291:261|296:197,1,88.000002685547,4|0,1:2|0:0,0:0:0:0:
464,163,241704,1,8,0:0:0:0:
347,55,241874,2,0,L|244:60,1,88.000002685547,2|0,0:0|0:0,0:0:0:0:
128,242,242215,1,2,0:0:0:0:
60,100,242386,1,8,0:0:0:0:
220,194,242556,1,0,0:0:0:0:
220,194,242641,1,0,0:0:0:0:
220,194,242727,6,0,P|218:244|217:289,1,88.000002685547,4|0,0:3|0:0,0:0:0:0:
101,346,243068,1,8,0:0:0:0:
278,367,243238,2,0,P|326:363|396:360,1,88.000002685547,2|0,0:0|0:0,0:0:0:0:
481,243,243579,1,2,0:0:0:0:
481,243,243664,1,0,0:0:0:0:
481,243,243749,1,8,0:0:0:0:
291,139,243920,1,0,0:0:0:0:
394,0,244090,6,0,P|398:45|399:86,1,88.000002685547,4|0,0:3|0:0,0:0:0:0:
161,239,244431,2,0,P|162:195|165:151,1,88.000002685547,8|2,0:0|0:0,0:0:0:0:
252,57,244772,1,0,0:0:0:0:
386,193,244943,1,2,0:0:0:0:
386,193,245028,1,0,0:0:0:0:
386,193,245113,1,8,0:0:0:0:
244,310,245283,1,0,0:0:0:0:
291,139,245454,21,4,0:3:0:0:
481,243,245624,1,0,0:0:0:0:
244,310,245795,1,8,0:0:0:0:
393,376,245965,1,2,0:0:0:0:
463,167,246136,1,0,0:0:0:0:
327,266,246306,1,2,0:0:0:0:
327,266,246391,1,0,0:0:0:0:
327,266,246477,1,8,0:0:0:0:
176,124,246647,1,0,0:0:0:0:
236,24,246818,6,0,P|280:23|328:26,1,88.000002685547,4|0,0:3|0:0,0:0:0:0:
176,124,247158,1,8,0:0:0:0:
243,305,247329,2,0,P|248:252|252:208,1,88.000002685547,2|0,0:0|0:0,0:0:0:0:
103,255,247670,1,2,0:0:0:0:
190,375,247840,1,8,0:0:0:0:
360,320,248011,1,0,0:0:0:0:
360,320,248096,1,0,0:0:0:0:
360,320,248181,6,0,P|406:320|457:323,1,88.000002685547,4|0,0:3|0:0,0:0:0:0:
485,177,248522,1,8,0:0:0:0:
365,25,248693,2,0,P|367:69|370:113,1,88.000002685547,2|0,0:0|0:0,0:0:0:0:
485,177,249033,1,0,0:0:0:0:
308,234,249204,1,8,0:0:0:0:
197,158,249374,1,0,0:0:0:0:
197,158,249460,1,0,0:0:0:0:
197,158,249545,21,8,0:0:0:0:
144,365,249715,1,2,0:0:0:0:
309,231,249886,1,8,0:0:0:0:
92,245,250056,1,2,0:0:0:0:
276,355,250227,1,8,0:0:0:0:
260,87,250397,1,2,0:0:0:0:
162,282,250568,1,8,0:0:0:0:
31,168,250738,1,2,0:0:0:0:
31,168,250823,1,0,0:0:0:0:
31,168,250908,22,0,L|35:86,1,44.0000013427735,10|2,0:0|0:0,0:0:0:0:
162,282,251079,2,0,L|166:364,1,44.0000013427735,2|2,0:0|0:0,0:0:0:0:
207,205,251249,2,0,L|328:211,1,88.000002685547,8|4,0:0|0:0,0:0:0:0:
461,84,251590,1,4,0:3:0:0:
383,256,251761,2,0,L|426:253,1,44.0000013427735,2|2,0:0|0:0,0:0:0:0:
488,354,251931,1,8,0:3:0:0:
444,351,252016,1,8,0:3:0:0:
400,348,252101,1,8,0:3:0:0:
356,346,252186,1,8,0:3:0:0:
313,344,252272,22,0,P|267:345|194:349,1,88.000002685547,4|0,1:2|0:0,0:0:0:0:
118,239,252613,1,8,0:0:0:0:
236,85,252783,2,0,L|238:129|240:173,1,88.000002685547,2|0,0:0|0:0,0:0:0:0:
118,239,253124,1,2,0:0:0:0:
304,263,253295,1,8,0:0:0:0:
389,146,253465,1,0,0:0:0:0:
389,146,253550,1,0,0:0:0:0:
389,146,253636,6,0,P|435:143|508:141,1,88.000002685547,4|0,0:3|0:0,0:0:0:0:
350,13,253977,1,8,0:0:0:0:
236,85,254147,2,0,P|185:87|142:83,1,88.000002685547,2|0,0:0|0:0,0:0:0:0:
66,0,254488,1,2,0:0:0:0:
66,0,254573,1,0,0:0:0:0:
66,0,254658,1,8,0:0:0:0:
118,239,254829,1,0,0:0:0:0:
0,175,254999,6,0,P|2:125|7:79,1,88.000002685547,4|0,3:0|0:0,0:0:0:0:
118,239,255340,1,8,0:0:0:0:
300,174,255511,2,0,L|208:171,1,88.000002685547,2|0,0:0|0:0,0:0:0:0:
325,298,255852,1,2,0:0:0:0:
503,237,256022,1,8,0:0:0:0:
367,105,256193,1,0,0:0:0:0:
367,105,256278,1,0,0:0:0:0:
367,105,256363,22,0,P|369:53|373:0,1,88.000002685547,4|0,0:3|0:0,0:0:0:0:
503,237,256704,2,0,P|505:280|507:324,1,88.000002685547,8|2,0:0|0:0,0:0:0:0:
268,364,257045,1,0,0:0:0:0:
406,283,257215,1,2,0:0:0:0:
406,283,257300,1,0,0:0:0:0:
406,283,257386,1,8,0:0:0:0:
219,249,257556,1,0,0:0:0:0:
219,249,257641,1,0,0:0:0:0:
219,249,257727,6,0,P|216:205|214:161,1,88.000002685547,4|0,0:3|0:0,0:0:0:0:
91,91,258068,1,8,0:0:0:0:
237,29,258238,2,0,P|281:31|331:33,1,88.000002685547,2|0,0:0|0:0,0:0:0:0:
356,165,258579,1,2,0:0:0:0:
356,165,258664,1,0,0:0:0:0:
356,165,258749,1,8,0:0:0:0:
219,249,258920,1,0,0:0:0:0:
467,292,259090,6,0,L|423:295|379:298,1,88.000002685547,4|0,0:3|0:0,0:0:0:0:
219,249,259431,1,8,0:0:0:0:
291,369,259602,1,2,0:0:0:0:
262,143,259772,1,0,0:0:0:0:
443,196,259943,1,2,0:0:0:0:
219,249,260113,1,8,0:0:0:0:
356,165,260283,1,0,0:0:0:0:
356,165,260369,1,0,0:0:0:0:
356,165,260454,22,0,P|358:137|361:90,1,44.0000013427735,2|2,0:0|0:0,0:0:0:0:
253,19,260624,2,0,P|254:40|256:62,1,44.0000013427735,2|2,0:0|0:0,0:0:0:0:
219,249,260795,2,0,P|221:221|224:174,1,44.0000013427735,2|2,0:0|0:0,0:0:0:0:
74,88,260965,2,0,P|75:109|77:131,1,44.0000013427735,2|2,0:0|0:0,0:0:0:0:
52,281,261136,1,2,0:0:0:0:
95,277,261221,1,2,0:0:0:0:
138,285,261306,1,2,0:0:0:0:
177,305,261391,1,2,0:0:0:0:
210,335,261477,1,0,0:0:0:0:
223,293,261562,1,0,0:0:0:0:
219,249,261647,1,0,0:0:0:0:
216,205,261732,1,0,0:0:0:0:
228,162,261818,6,0,P|234:104|216:34,1,120.000004577637,4|0,0:1|0:0,0:0:0:0:
220,44,262329,1,2,0:0:0:0:
328,90,262499,1,4,0:3:0:0:
453,62,262670,1,2,0:0:0:0:
512,207,262840,1,4,0:3:0:0:
362,174,263011,1,2,0:0:0:0:
223,293,263181,6,0,P|152:296|99:278,1,120.000004577637,4|0,1:2|0:0,0:0:0:0:
105,281,263693,1,0,0:0:0:0:
56,206,263863,2,0,L|60:136,1,60.0000022888184,8|2,0:0|0:0,0:0:0:0:
220,44,264204,2,0,L|223:103,1,60.0000022888184,2|0,0:0|0:0,0:0:0:0:
172,203,264545,1,4,0:3:0:0:
420,160,264715,2,0,L|300:155,1,120.000004577637,8|0,0:0|0:0,0:0:0:0:
271,262,265227,1,8,0:0:0:0:
378,254,265397,1,2,0:0:0:0:
331,350,265568,1,2,0:0:0:0:
195,338,265738,1,0,0:0:0:0:
172,203,265908,22,0,P|127:201|48:209,1,120.000004577637,4|2,0:3|0:0,0:0:0:0:
256,136,266420,1,2,0:0:0:0:
122,84,266590,2,0,P|155:83|192:78,1,60.0000022888184,8|2,0:0|0:0,0:0:0:0:
346,33,266931,2,0,P|316:29|286:28,1,60.0000022888184,2|0,0:0|0:0,0:0:0:0:
417,113,267272,1,4,0:3:0:0:
348,310,267443,2,0,P|340:250|343:191,1,120.000004577637,8|2,0:0|0:0,0:0:0:0:
343,191,267869,1,2,0:0:0:0:
343,191,267954,1,8,0:0:0:0:
417,113,268124,1,0,0:0:0:0:
272,132,268295,1,2,0:0:0:0:
346,32,268465,1,0,0:0:0:0:
185,82,268636,6,0,P|180:141|175:210,1,120.000004577637,4|0,0:3|0:0,0:0:0:0:
235,273,269147,1,0,0:0:0:0:
175,201,269318,2,0,L|105:205,1,60.0000022888184,8|2,0:0|0:0,0:0:0:0:
22,303,269658,2,0,L|81:305,1,60.0000022888184
235,273,269999,1,4,0:3:0:0:
306,355,270170,2,0,P|246:351|187:360,1,120.000004577637,8|0,0:0|0:0,0:0:0:0:
365,273,270681,2,0,P|394:277|437:278,1,60.0000022888184,8|2,0:0|0:0,0:0:0:0:
487,184,271022,1,2,0:0:0:0:
336,102,271193,1,0,0:0:0:0:
336,102,271278,1,0,0:0:0:0:
336,102,271363,5,4,0:1:0:0:
235,273,271533,1,0,0:0:0:0:
185,52,271704,1,8,0:0:0:0:
323,199,271874,1,8,0:0:0:0:
101,218,272045,1,8,0:0:0:0:
244,124,272215,1,8,0:0:0:0:
271,358,272386,1,8,0:0:0:0:
101,218,272556,1,8,0:0:0:0:
365,273,272727,21,4,0:3:0:0:
185,52,272897,1,4,0:0:0:0:
333,145,273068,2,0,P|335:123|336:99,1,44.0000013427735
101,218,273238,1,8,0:0:0:0:
255,321,273408,1,2,0:0:0:0:
298,320,273493,1,2,0:0:0:0:
342,319,273578,1,2,0:0:0:0:
386,318,273663,1,2,0:0:0:0:
421,345,273749,2,0,P|445:347|473:351,1,44.0000013427735,0|2,0:0|0:0,0:0:0:0:
512,224,273920,2,0,P|492:215|472:204,1,44.0000013427735,2|2,0:0|0:0,0:0:0:0:
407,102,274090,6,0,P|410:58|414:15,1,88.000002685547,4|0,1:2|0:0,0:0:0:0:
318,241,274431,1,8,0:0:0:0:
152,157,274602,2,0,P|197:153|249:152,1,88.000002685547,0|2,0:0|0:0,0:0:0:0:
298,320,274943,1,2,0:0:0:0:
87,231,275113,1,8,0:0:0:0:
182,378,275283,1,0,0:0:0:0:
182,378,275369,1,0,0:0:0:0:
182,378,275454,6,0,P|184:324|187:277,1,88.000002685547,4|0,0:3|0:0,0:0:0:0:
318,241,275795,1,8,0:0:0:0:
218,69,275965,2,0,P|163:71|112:72,1,88.000002685547,0|2,0:0|0:0,0:0:0:0:
334,22,276306,1,2,0:0:0:0:
334,22,276391,1,0,0:0:0:0:
334,22,276477,1,8,0:0:0:0:
452,143,276647,1,0,0:0:0:0:
318,241,276818,22,0,P|313:293|309:345,1,88.000002685547,4|0,0:3|0:0,0:0:0:0:
472,299,277158,1,8,0:0:0:0:
364,146,277329,2,0,P|407:143|463:143,1,88.000002685547,0|2,0:0|0:0,0:0:0:0:
334,22,277670,1,2,0:0:0:0:
188,195,277840,1,8,0:0:0:0:
239,49,278011,1,0,0:0:0:0:
239,49,278096,1,0,0:0:0:0:
239,49,278181,6,0,P|195:47|136:48,1,88.000002685547,4|0,0:3|0:0,0:0:0:0:
47,157,278522,1,8,0:0:0:0:
232,271,278693,1,0,0:0:0:0:
95,349,278863,1,2,0:0:0:0:
188,195,279033,1,2,0:0:0:0:
188,195,279119,1,0,0:0:0:0:
188,195,279204,1,8,0:0:0:0:
408,285,279374,1,0,0:0:0:0:
408,285,279460,1,0,0:0:0:0:
408,285,279545,6,0,L|312:288,1,88.000002685547,4|0,0:3|0:0,0:0:0:0:
277,95,279886,1,8,0:0:0:0:
472,117,280056,2,0,P|471:169|468:214,1,88.000002685547,0|2,0:0|0:0,0:0:0:0:
320,287,280397,1,2,0:0:0:0:
188,195,280568,1,8,0:0:0:0:
112,361,280738,1,0,0:0:0:0:
112,361,280823,1,0,0:0:0:0:
112,361,280908,22,0,L|110:255,1,88.000002685547,4|0,0:3|0:0,0:0:0:0:
295,198,281249,1,8,0:0:0:0:
131,109,281420,1,0,0:0:0:0:
221,298,281590,1,2,0:0:0:0:
258,92,281761,1,2,0:0:0:0:
258,92,281846,1,0,0:0:0:0:
258,92,281931,2,0,P|303:88|353:88,1,88.000002685547,8|0,0:0|0:0,0:0:0:0:
439,188,282272,5,8,0:0:0:0:
221,298,282443,1,2,0:0:0:0:
449,352,282613,1,8,0:0:0:0:
295,198,282783,1,2,0:0:0:0:
334,375,282954,1,8,0:0:0:0:
345,87,283124,1,2,0:0:0:0:
345,87,283210,1,2,0:0:0:0:
345,87,283295,2,0,L|343:23,3,44.0000013427735,2|2|2|2,0:0|0:0|0:0|0:0,0:0:0:0:
227,10,283636,5,12,0:0:0:0:
43,57,283806,1,0,0:0:0:0:
103,173,283977,1,4,0:3:0:0:
101,217,284062,1,2,0:0:0:0:
100,261,284147,1,2,0:0:0:0:
99,305,284232,1,2,0:0:0:0:
98,349,284317,1,2,0:0:0:0:
262,231,284488,1,0,0:0:0:0:
133,322,284658,1,2,0:0:0:0:
175,308,284743,1,2,0:0:0:0:
218,308,284828,1,2,0:0:0:0:
260,322,284913,1,2,0:0:0:0:
295,349,284999,22,0,P|337:350|408:353,1,80,4|0,1:2|0:0,0:0:0:0:
182,169,285340,2,0,P|142:170|103:172,1,80,8|0,0:0|0:0,0:0:0:0:
43,57,285681,1,2,0:0:0:0:
205,20,285852,1,2,0:0:0:0:
205,20,285937,1,0,0:0:0:0:
205,20,286022,1,8,0:0:0:0:
296,141,286193,1,0,0:0:0:0:
142,253,286363,6,0,P|182:250|222:250,1,80,4|2,0:3|0:0,0:0:0:0:
432,258,286704,1,8,0:0:0:0:
288,342,286874,1,0,0:0:0:0:
288,342,286960,1,0,0:0:0:0:
288,342,287045,1,2,0:0:0:0:
296,141,287215,1,2,0:0:0:0:
388,358,287386,1,8,0:0:0:0:
512,213,287556,1,0,0:0:0:0:
447,76,287727,6,0,P|399:78|362:81,1,80,4|2,0:3|0:0,0:0:0:0:
161,22,288068,2,0,P|200:24|240:25,1,80,8|0,0:0|0:0,0:0:0:0:
296,141,288408,1,2,0:0:0:0:
94,228,288579,1,2,0:0:0:0:
200,105,288749,1,8,0:0:0:0:
293,283,288920,1,0,0:0:0:0:
293,283,289005,1,0,0:0:0:0:
293,283,289090,22,0,P|291:328|289:366,1,80,4|2,0:3|0:0,0:0:0:0:
139,308,289431,1,8,0:0:0:0:
296,141,289602,1,0,0:0:0:0:
156,204,289772,1,2,0:0:0:0:
371,240,289943,1,2,0:0:0:0:
450,132,290113,1,8,0:0:0:0:
278,56,290283,1,0,0:0:0:0:
278,56,290369,1,0,0:0:0:0:
278,56,290454,6,0,P|226:59|173:60,1,80,4|2,0:3|0:0,0:0:0:0:
372,149,290795,2,0,P|404:139|459:131,1,80,8|0,0:0|0:0,0:0:0:0:
296,284,291136,1,2,0:0:0:0:
230,157,291306,1,2,0:0:0:0:
230,157,291391,1,0,0:0:0:0:
230,157,291477,1,8,0:0:0:0:
445,243,291647,1,0,0:0:0:0:
265,363,291818,6,0,L|172:361,1,80,4|2,0:3|0:0,0:0:0:0:
91,217,292158,1,8,0:0:0:0:
296,284,292329,1,0,0:0:0:0:
102,320,292499,1,2,0:0:0:0:
230,157,292670,1,2,0:0:0:0:
296,284,292840,1,8,0:0:0:0:
276,71,293011,1,0,0:0:0:0:
276,71,293096,1,0,0:0:0:0:
276,71,293181,21,8,0:0:0:0:
91,217,293352,1,2,0:0:0:0:
352,177,293522,1,8,0:0:0:0:
141,111,293693,1,2,0:0:0:0:
197,302,293863,1,8,0:0:0:0:
276,71,294033,1,2,0:0:0:0:
397,264,294204,2,0,P|395:299|386:333,1,40,10|2,0:0|0:0,0:0:0:0:
297,375,294374,1,2,0:0:0:0:
297,375,294460,1,2,0:0:0:0:
297,375,294545,6,0,L|225:380,3,40,4|2|2|2,0:3|0:0|0:0|0:0,0:0:0:0:
150,247,294886,2,0,L|222:252,3,40,0|2|2|2,0:0|0:0|0:0|0:0,0:0:0:0:
352,177,295227,1,4,0:3:0:0:
384,147,295312,1,2,0:0:0:0:
401,107,295397,1,2,0:0:0:0:
399,63,295482,1,2,0:0:0:0:
380,24,295568,2,0,P|377:58|376:100,1,40,2|2,0:0|0:0,0:0:0:0:
275,239,295738,2,0,P|272:220|272:199,1,40,2|2,0:0|0:0,0:0:0:0:
203,83,295908,6,0,P|137:74|65:108,1,128,4|0,1:2|0:0,0:0:0:0:
154,226,296420,1,2,0:0:0:0:
53,339,296590,2,0,P|51:304|51:270,1,64,8|2,0:0|0:0,0:0:0:0:
187,358,296931,1,0,0:0:0:0:
154,226,297102,1,2,0:0:0:0:
284,287,297272,1,4,0:3:0:0:
356,167,297443,2,0,L|223:162,1,128,2|0,0:0|0:0,0:0:0:0:
291,56,297954,2,0,L|376:53,1,64,8|2,0:0|0:0,0:0:0:0:
347,289,298295,2,0,L|284:287,1,64,2|2,0:0|0:0,0:0:0:0:
440,226,298636,22,0,P|457:162|419:86,1,128,4|0,0:3|0:0,0:0:0:0:
291,56,299147,1,2,0:0:0:0:
194,135,299318,2,0,P|159:133|125:129,1,64,8|2,0:0|0:0,0:0:0:0:
176,268,299658,2,0,P|207:264|239:262,1,64,0|2,0:0|0:0,0:0:0:0:
347,289,299999,1,4,0:3:0:0:
220,366,300170,2,0,L|85:363,1,128,2|0,0:0|0:0,0:0:0:0:
51,216,300681,1,8,0:0:0:0:
176,268,300852,1,0,0:0:0:0:
250,174,301022,1,2,0:0:0:0:
242,146,301107,1,2,0:0:0:0:
244,114,301192,1,2,0:0:0:0:
247,82,301277,1,2,0:0:0:0:
239,53,301363,6,0,P|296:71|386:60,1,128,4|0,0:3|0:0,0:0:0:0:
469,5,301874,1,2,0:0:0:0:
454,165,302045,2,0,P|419:162|377:162,1,64,8|2,0:0|0:0,0:0:0:0:
314,257,302386,1,0,0:0:0:0:
446,303,302556,1,0,0:0:0:0:
390,161,302727,1,4,0:3:0:0:
339,348,302897,2,0,L|206:344,1,128,2|0,0:0|0:0,0:0:0:0:
159,215,303408,1,8,0:0:0:0:
314,257,303579,1,2,0:0:0:0:
314,257,303664,1,0,0:0:0:0:
314,257,303749,2,0,L|316:223,1,32,2|0,0:0|0:0,0:0:0:0:
386,85,303919,2,0,L|388:142,1,32
256,51,304090,5,4,0:3:0:0:
32,96,304261,1,4,0:3:0:0:
41,121,304602,1,2,0:0:0:0:
17,286,304772,1,8,0:0:0:0:
126,234,304943,2,0,L|155:236,3,26.6666666666667
17,286,305283,1,4,0:3:0:0:
17,286,305795,5,0,0:0:0:0:
210,354,306136,1,0,0:0:0:0:
207,331,306477,5,4,1:2:0:0:
256,51,306647,1,4,0:0:0:0:
256,192,306732,12,0,314999,0:0:0:0:
