osu file format v12

[General]
AudioFilename: KINGS.mp3
AudioLeadIn: 2000
PreviewTime: 65775
Countdown: 0
SampleSet: Soft
StackLeniency: 0.3
Mode: 0
LetterboxInBreaks: 0

[Editor]
DistanceSpacing: 1.1
BeatDivisor: 4
GridSize: 4

[Metadata]
Title:KINGS (TV Size)
TitleUnicode:KINGS (TV Size)
Artist:angela
ArtistUnicode:angela
Creator:No_Gu
Version:Easy
Source:[K]
Tags:atsuko katsu Kiiwa S_h_i_o_n Shion opening
BeatmapID:203251
BeatmapSetID:64779

[Difficulty]
HPDrainRate:2
CircleSize:3
OverallDifficulty:3
ApproachRate:4
SliderMultiplier:0.8
SliderTickRate:1

[Events]
//Background and Video events
Video,0,"video.avi"
0,0,"BG.jpg",0,0
//Break Periods
//Storyboard Layer 0 (Background)
//Storyboard Layer 1 (Fail)
//Storyboard Layer 2 (Pass)
//Storyboard Layer 3 (Foreground)
//Storyboard Sound Samples
//Background Colour Transformations
3,100,163,162,255

[TimingPoints]
758,689.655172413793,4,2,1,70,1,0
3473,689.655172413793,4,2,1,70,1,0
6225,674.157303370787,4,2,1,70,1,0
7591,666.666666666667,4,2,1,70,1,0
8929,340.909090909091,4,1,1,70,1,0
14383,-100,4,2,1,70,0,0
23929,-100,4,2,1,70,0,0
24951,-100,4,2,1,70,0,0
35860,-100,4,2,1,70,0,0
36201,-100,4,2,1,70,0,0
37565,-100,4,2,1,50,0,0
38332,-100,4,2,1,70,0,0
41485,-100,4,2,1,80,0,0
43019,-100,4,1,2,60,0,0
43105,-100,4,2,1,80,0,0
45065,-100,4,1,2,60,0,0
45150,-100,4,2,1,80,0,0
46429,-100,4,1,2,60,0,0
46940,-100,4,2,1,80,0,0
47281,-100,4,1,2,60,0,0
47451,-100,4,2,1,80,0,0
49156,-100,4,1,2,60,0,0
49667,-100,4,2,1,80,0,0
50519,-100,4,1,2,60,0,0
50605,-100,4,2,1,80,0,0
51883,-100,4,1,2,60,0,0
52224,-100,4,2,1,80,0,0
55463,-100,4,1,2,60,0,0
55633,-100,4,2,1,80,0,0
56656,-100,4,1,2,60,0,0
56741,-100,4,2,1,80,0,0
58019,-100,4,1,2,60,0,0
58105,-100,4,2,1,80,0,0
59383,-100,4,1,2,60,0,0
59468,-100,4,2,1,80,0,0
62792,-100,4,2,1,60,0,0
62877,-100,4,2,1,80,0,0
66201,-100,4,2,1,70,0,1
66883,-100,4,1,2,60,0,1
66968,-100,4,2,1,70,0,1
67224,-100,4,2,2,70,0,1
67309,-100,4,2,1,70,0,1
68588,-100,4,2,2,70,0,1
68673,-100,4,2,1,70,0,1
69610,-100,4,1,2,60,0,1
69696,-100,4,2,1,70,0,1
69951,-100,4,2,2,70,0,1
70036,-100,4,2,1,70,0,1
71315,-100,4,2,2,70,0,1
71400,-100,4,2,1,70,0,1
72679,-100,4,2,2,70,0,1
72764,-100,4,2,1,70,0,1
74042,-100,4,2,2,70,0,1
74127,-100,4,2,1,70,0,1
74383,-100,4,2,1,100,0,1
75406,-100,4,2,2,70,0,1
75491,-100,4,2,1,70,0,1
75576,-100,4,2,1,100,0,1
75747,-100,4,2,1,50,0,1
76088,-100,4,2,2,50,0,1
76173,-100,4,2,1,100,0,1
76429,-100,4,2,1,60,0,1
76599,-100,4,2,1,50,0,1
77025,-100,4,2,1,50,0,0
77110,-100,4,2,1,70,0,1
77792,-100,4,1,2,60,0,1
77963,-100,4,2,1,70,0,1
78133,-100,4,2,2,70,0,1
78304,-100,4,2,1,70,0,1
79497,-100,4,2,2,70,0,1
79582,-100,4,2,1,70,0,1
80860,-100,4,2,2,70,0,1
80946,-100,4,2,1,70,0,1
82224,-100,4,2,2,70,0,1
82309,-100,4,2,1,70,0,1
83588,-100,4,2,2,70,0,1
83673,-100,4,2,1,70,0,1
85292,-100,4,2,2,70,0,1
85377,-100,4,2,1,70,0,1
86400,-100,4,2,1,50,0,1
86656,-100,4,2,1,100,0,0
87252,-100,4,2,1,25,0,0
87679,-100,4,2,1,15,0,0
88019,-100,4,1,1,70,0,1
88105,-100,4,2,1,70,0,0

[Colours]
Combo1 : 128,255,128
Combo2 : 255,255,128
Combo3 : 255,128,192
Combo4 : 128,255,255

[HitObjects]
28,104,758,2,0,P|104:116|176:80,1,160,0|2,0:0|0:0,0:0:0:0:
336,80,3473,2,0,P|408:116|484:104,1,160,0|2,0:0|0:0,0:0:0:0:
412,268,6225,6,0,L|332:264,1,80,2|0,0:0|0:0,0:0:0:0:
256,308,7591,2,0,L|176:312,1,80,2|0,0:0|0:0,0:0:0:0:
84,160,8929,6,0,L|80:120,1,40
256,316,10122,1,4,0:0:0:0:
188,92,11656,6,0,P|132:80|76:104,2,120,0|2|0,0:0|0:0|0:0,0:0:0:0:
324,92,13190,2,0,P|380:80|436:104,1,120,2|0,0:0|0:0,0:0:0:0:
468,184,14042,1,8,2:0:0:0:
428,264,14383,6,0,P|352:288|276:268,1,160,0|2,1:0|1:0,0:0:0:0:
212,104,15747,2,0,P|136:80|60:100,1,160,0|2,1:0|0:0,2:0:0:0:
28,184,16769,2,0,L|24:228,2,40,0|8|0,1:0|0:0|1:0,0:0:0:0:
148,312,17792,6,0,P|196:244|184:172,1,160,8|0,0:0|0:0,0:0:0:0:
240,104,18815,2,0,P|280:100|320:108,1,80
384,164,19497,1,8,0:0:0:0:
452,108,19838,6,0,P|472:176|424:248,1,160,4|8,1:0|0:0,0:0:0:0:
264,312,21201,2,0,P|244:244|292:172,1,160,0|8,0:0|0:0,0:0:0:0:
332,252,22224,2,0,L|352:288,2,40,0|8|0,0:0|0:0|1:0,0:0:0:0:
364,80,23247,5,8,0:0:0:0:
192,112,23929,2,0,L|112:116,1,80,2|0,0:0|0:0,0:0:0:0:
88,200,24610,2,0,L|168:196,1,80,8|0,0:0|0:0,0:0:0:0:
252,176,25292,6,0,P|280:108|240:36,2,160,0|2|0,1:0|1:0|0:0,0:0:0:0:
188,236,26997,2,0,P|180:276|184:316,1,80,2|0,0:0|0:0,0:0:0:0:
264,356,27679,2,0,P|272:316|268:276,1,80,2|0,0:0|1:0,0:0:0:0:
360,128,28701,6,0,P|372:184|356:248,2,120,8|0|0,0:0|1:0|0:0,0:0:0:0:
288,76,30065,2,0,P|248:72|208:80,1,80,0|2,0:0|0:0,0:0:0:0:
148,140,30747,5,4,1:0:0:0:
72,300,31429,1,8,0:0:0:0:
248,284,32110,2,0,L|288:288,2,40,0|8|0,0:0|0:0|0:0,0:0:0:0:
180,228,32792,2,0,P|168:192|176:148,1,80,8|0,0:0|0:0,0:0:0:0:
188,64,33474,6,0,P|156:136|76:128,1,160,0|8,1:0|0:0,0:0:0:0:
188,276,34838,2,0,P|220:204|300:212,1,160,0|8,0:0|0:0,0:0:0:0:
360,260,35860,1,2,0:0:0:0:
436,216,36201,6,0,P|456:136|444:56,1,160,4|2,1:0|1:0,0:0:0:0:
276,12,37565,2,0,P|256:92|268:172,1,160,0|8,1:0|1:0,0:0:0:0:
256,192,38929,12,2,40292,0:0:0:0:
8,136,40974,5,8,1:0:0:0:
64,256,41485,6,0,P|120:268|172:236,1,120,4|8,1:0|1:0,0:0:0:0:
172,148,42338,1,0,1:0:0:0:
196,64,42679,2,8,B|232:76|256:116|256:116|280:76|312:64,1,160,8|8,1:0|1:0,0:0:0:0:
340,148,43701,2,0,P|336:192|344:228,1,80,2|8,1:0|0:0,0:0:0:0:
404,292,44383,5,0,1:0:0:0:
320,324,44724,2,8,B|288:360|288:360|256:348|220:360|220:360|196:324,1,160,8|8,1:0|1:0,0:0:0:0:
120,276,45747,1,0,1:0:0:0:
164,200,46088,2,0,B|204:152|204:152|212:88,1,120,8|0,1:0|0:0,0:0:0:0:
300,94,46940,6,0,B|308:152|308:152|348:200,1,120,8|8,0:0|0:0,0:0:0:0:
276,248,47792,2,0,P|256:244|236:248,2,40,0|0|8,1:0|1:0|1:0,0:0:0:0:
256,332,48474,5,0,1:0:0:0:
172,312,48815,2,0,P|148:256|160:196,1,120,8|0,1:0|0:0,0:0:0:0:
228,148,49667,2,0,L|276:152,1,40,8|4,1:0|1:0,0:0:0:0:
312,228,50179,6,0,P|352:164|324:88,1,160,8|8,1:0|1:0,0:0:0:0:
256,36,51201,1,0,0:0:0:0:
186,89,51542,2,0,P|160:164|200:228,1,160,8|8,1:0|1:0,0:0:0:0:
248,300,52565,6,0,P|208:312|168:304,1,80,4|8,1:0|1:0,0:0:0:0:
96,260,53247,2,0,P|56:248|16:256,1,80,0|8,1:0|1:0,0:0:0:0:
52,336,53929,1,0,1:0:0:0:
364,312,55122,6,0,P|412:284|420:224,1,120,4|8,1:0|1:0,0:0:0:0:
372,148,55974,1,0,0:0:0:0:
332,228,56315,2,0,P|256:248|176:228,1,160,8|8,1:0|1:0,0:0:0:0:
120,164,57338,1,0,1:0:0:0:
188,108,57679,6,0,B|232:116|256:148|256:148|280:116|324:108,1,160,8|8,1:0|1:0,0:0:0:0:
392,164,58701,1,0,1:0:0:0:
332,228,59042,2,0,B|304:280|336:336|336:336|292:320,1,160,8|8,1:0|1:0,0:0:0:0:
216,364,60065,2,0,P|204:328|208:284,1,80,0|8,1:0|1:0,0:0:0:0:
316,148,61088,5,8,1:0:0:0:
240,192,61429,2,0,P|200:196|160:188,1,80,0|8,1:0|1:0,0:0:0:0:
132,104,62110,1,0,0:0:0:0:
72,168,62451,2,0,P|60:248|84:332,1,160,8|8,1:0|1:0,0:0:0:0:
168,328,63474,1,0,0:0:0:0:
236,272,63815,2,0,P|320:228|424:244,1,200,8|4,1:0|1:0,0:0:0:0:
108,20,66201,5,6,1:0:0:0:
184,68,66542,2,8,B|256:104|256:104|328:68,1,160,8|8,1:0|0:0,0:0:0:0:
404,20,67565,1,0,1:0:0:0:
404,108,67906,2,0,P|384:184|408:268,1,160,8|8,1:0|0:0,0:0:0:0:
352,332,68929,5,0,1:0:0:0:
312,256,69269,2,0,P|256:208|200:256,1,160,8|8,1:0|0:0,0:0:0:0:
160,332,70292,1,0,1:0:0:0:
108,261,70633,2,0,P|128:184|108:108,1,160,8|8,1:0|0:0,0:0:0:0:
180,56,71656,6,0,P|200:84|212:132,1,80,6|8,1:0|1:0,0:0:0:0:
300,127,72338,2,0,P|312:84|332:56,2,80,0|8|0,1:0|0:0|1:0,0:0:0:0:
404,108,73360,2,0,P|384:184|403:261,1,160,8|8,1:0|0:0,0:0:0:0:
344,324,74383,6,8,L|264:320,1,80,8|10,0:0|0:0,0:0:0:0:
200,260,75065,2,8,L|120:264,1,80,10|8,0:0|0:0,0:0:0:0:
52,208,75747,2,0,P|28:152|40:96,2,120,0|4|0,1:0|1:0|1:0,0:0:0:0:
112,144,77110,5,4,1:0:0:0:
176,84,77451,2,0,P|256:76|336:84,1,160,8|8,1:0|0:0,0:0:0:0:
400,144,78474,1,0,1:0:0:0:
336,204,78815,2,0,P|256:212|176:204,1,160,8|8,1:0|0:0,0:0:0:0:
108,256,79838,6,0,P|100:296|104:336,1,80,2|8,1:0|1:0,0:0:0:0:
180,380,80519,2,0,P|188:340|184:300,1,80,0|8,1:0|0:0,0:0:0:0:
184,212,81201,1,4,1:0:0:0:
108,164,81542,2,0,P|48:120|64:44,1,160,8|8,1:0|0:0,0:0:0:0:
148,68,82565,5,4,1:0:0:0:
228,36,82906,2,0,P|268:32|308:40,1,80,8|0,1:0|1:0,0:0:0:0:
344,120,83588,2,0,P|304:124|264:116,1,80,8|0,0:0|1:0,0:0:0:0:
200,176,84269,2,0,L|212:336,1,160,8|8,1:0|1:0,0:0:0:0:
300,336,85292,6,0,L|312:176,2,160,8|0|0,0:0|1:0|1:0,0:0:0:0:
168,220,87338,2,0,P|128:208|88:212,2,80,0|0|4,1:0|1:0|1:0,0:0:0:0:
