osu file format v9

[General]
AudioFilename: Aoi Haru.mp3
AudioLeadIn: 0
PreviewTime: 29302
Countdown: 1
SampleSet: Normal
StackLeniency: 0.7
Mode: 0
LetterboxInBreaks: 1

[Editor]
Bookmarks: 29302,53436,89627,123157
DistanceSpacing: 1
BeatDivisor: 4
GridSize: 8

[Metadata]
Title:Aoi Haru
Artist:angela
Creator:Crazy Jay
Version:Insane
Source:
Tags:

[Difficulty]
HPDrainRate:5
CircleSize:5
OverallDifficulty:8
ApproachRate:8
SliderMultiplier:1.9
SliderTickRate:1

[Events]
//Background and Video events
0,0,"BG.png"
//Break Periods
//Storyboard Layer 0 (Background)
//Storyboard Layer 1 (Fail)
//Storyboard Layer 2 (Pass)
//Storyboard Layer 3 (Foreground)
//Storyboard Sound Samples
//Background Colour Transformations
3,100,163,162,255

[TimingPoints]
1154,335.195530726257,4,1,0,100,1,0
6517,-100,4,1,1,100,0,0
17243,-100,4,1,2,100,0,0
29310,-100,4,1,2,100,0,1
40036,-100,4,1,2,100,0,0
48081,-100,4,1,1,100,0,0
51768,-100,4,1,0,80,0,0
51852,-100,4,1,1,100,0,0
53444,-100,4,2,1,100,0,0
58640,-100,4,2,0,70,0,0
58975,-100,4,2,1,100,0,0
65511,-100,4,2,1,100,0,1
76237,-100,4,2,1,100,0,0
84282,-100,4,2,1,50,0,0
86964,-100,4,2,1,0,0,0
89310,-100,4,1,1,100,0,0
123165,-100,4,1,1,100,0,1
133556,-100,4,2,1,0,0,1
133598,-100,4,1,1,100,0,1
144450,-100,4,1,0,100,0,0
144617,-100,4,1,0,100,0,1

[Colours]
Combo1 : 255,255,0
Combo2 : 5,240,5
Combo3 : 5,5,240
Combo4 : 255,0,128

[HitObjects]
256,32,1154,5,6
256,96,1321,1,2
96,128,1656,1,2
128,192,1824,2,0,B|224:192,1,95,4|2
416,320,2327,1,2
384,256,2494,2,0,B|288:256,1,95,4|2
128,192,2997,6,0,B|352:192,1,190,2|2
352,128,3500,1,2
368,96,3584,1,0
400,112,3667,1,0
416,80,3751,1,0
256,32,4003,5,0
192,64,4170,1,0
160,128,4338,1,0
192,192,4505,1,0
256,224,4673,1,0
320,192,4841,1,0
352,128,5008,1,0
320,64,5176,5,2
256,96,5343,1,2
192,64,5511,1,4
128,96,5679,1,2
192,224,6014,5,0
160,160,6181,1,0
144,128,6265,1,0
128,96,6349,1,0
112,64,6433,1,0
96,32,6517,6,0,B|32:48|16:96|32:144|96:160,1,190,6|8
160,128,7019,1,0
192,192,7187,2,0,B|192:288,1,95
352,352,7522,2,0,B|352:256,1,95,8|0
288,224,7857,6,0,B|256:128|384:160|352:64,1,190,2|8
288,32,8360,1,0
256,96,8528,2,0,B|160:96,1,95
32,192,8863,2,0,B|128:192,1,95,8|0
160,256,9198,6,0,B|166:309|256:332|256:241|325:292,1,190,2|8
384,320,9701,1,0
448,288,9869,2,0,B|480:256|480:192,1,95
352,32,10204,2,0,B|320:64|320:128,1,95,8|0
384,160,10539,5,2
320,192,10707,1,0
256,160,10874,2,0,B|160:202,1,95,10|0
128,256,11209,1,0
64,224,11377,1,2
96,160,11545,1,8
32,128,11712,1,2
64,64,11880,6,0,B|184:36|192:164,1,190,2|8
256,192,12383,1,0
288,256,12550,2,0,B|381:355,1,95
416,192,12885,2,0,B|323:93,1,95,8|0
288,96,13221,6,0,B|287:217|160:192,1,190,2|8
128,128,13723,1,0
64,160,13891,2,0,L|56:192|72:224|61:253,1,95
192,352,14226,2,0,L|200:320|184:288|195:259,1,95,8|0
256,224,14561,6,2,B|272:288|321:303|368:288|384:224,1,190,2|8
416,160,15064,1,0
384,96,15232,2,0,B|288:96,1,95,2|0
224,128,15567,2,0,B|128:128,1,95,10|2
64,160,15902,5,2
96,224,16070,1,0
160,192,16237,1,10
256,256,16489,1,0
256,256,16572,1,2
320,224,16740,1,0
352,288,16908,1,2
416,256,17075,1,0
480,224,17243,6,0,B|512:128|384:160|416:64,2,190,0|8|8
416,256,18081,2,0,B|361:242|352:192,1,95,0|8
384,128,18416,2,0,B|192:128,1,190,0|0
128,96,18919,2,0,B|61:92|96:32,2,95,8|0|8
96,160,19422,1,0
160,192,19589,1,8
128,256,19757,1,0
192,288,19924,6,0,B|208:320|240:336|272:336|304:336|336:320|352:288,2,190,8|8|8
224,224,20762,2,0,B|259:127,1,95,0|8
288,64,21098,1,0
352,96,21265,1,8
384,32,21433,1,0
448,64,21600,2,0,B|472:115|448:160,1,95,8|0
320,256,21936,2,0,B|296:205|320:160,1,95
384,128,22271,1,0
384,128,22606,6,0,B|384:320,2,190,4|8|8
320,96,23444,1,0
256,128,23612,1,8
256,192,23779,2,0,B|160:224|192:96|96:128,1,190
64,192,24282,2,0,B|64:224|32:224|0:224|0:192,1,95,8|0
32,128,24617,1,8
64,64,24785,1,0
128,96,24952,1,8
160,32,25120,1,0
224,64,25288,5,8
352,128,25623,1,8
256,192,25874,1,0
256,160,25958,1,0
288,96,26126,1,0
320,32,26293,1,0
384,64,26461,1,0
416,64,26545,1,0
448,64,26628,1,6
128,320,27131,5,2
64,320,27299,1,2
192,128,27802,5,2
256,96,27969,1,2
384,288,28304,1,2
128,288,28640,1,2
160,224,28807,1,0
192,224,28891,1,0
224,224,28975,1,0
256,224,29059,1,0
288,224,29142,1,0
320,224,29226,1,0
352,224,29310,6,0,B|408:200|400:144,1,95,10|0
336,112,29645,1,10
264,136,29813,2,0,B|216:112|224:56,1,95,0|8
296,32,30148,5,0
168,136,30316,1,10
328,184,30483,1,0
264,136,30651,6,0,B|224:176|248:232,1,95,10|0
333,242,30986,2,0,B|293:202|237:226,1,95,10|0
192,280,31321,1,8
245,222,31489,1,0
288,288,31656,1,10
160,200,31824,5,0
328,208,31991,1,12
256,72,32327,6,0,B|328:-8|360:104|440:16,2,190,10|10|8
192,112,33165,1,2
160,40,33332,1,8
216,96,33500,5,2
176,160,33667,1,10
112,120,33835,1,0
184,128,34003,6,2,B|232:192|320:160|296:72,1,190,10|8
296,224,34673,6,0,B|400:216,1,95,10|0
280,240,35008,2,0,B|384:232,1,95,10|0
448,224,35343,1,8
472,152,35511,1,0
456,80,35679,1,10
392,40,35846,1,0
384,112,36014,2,0,B|376:176|312:192,1,95,10|0
216,208,36349,2,0,B|224:144|288:128,1,95,10|0
272,256,36684,2,0,B|264:320|200:336,1,95,8|0
216,208,37019,5,10
268,134,37355,1,8
120,88,37690,6,0,B|40:112|24:200|80:240,1,190,10|10
136,192,38193,1,2
152,264,38360,1,8
76,234,38528,2,0,B|268:202,1,190,2|2
408,256,39031,2,0,B|216:288,1,190,10|10
152,152,39533,1,0
296,192,39701,1,8
152,264,39869,1,0
208,216,40036,6,0,B|240:176|232:120,1,95,8|0
160,112,40371,1,8
136,184,40539,2,0,B|192:192|248:136,1,95,0|8
272,96,40874,1,0
328,152,41042,2,0,B|344:208|336:256,1,95,8|0
320,320,41377,1,8
264,272,41545,1,0
272,200,41712,5,10
256,88,41880,1,0
192,216,42047,5,10
336,72,42215,1,0
208,144,42383,5,2
320,144,42550,1,8
168,80,42718,6,0,B|112:96|104:160,1,95,8|0
96,224,43053,1,8
168,200,43221,1,0
208,264,43388,2,0,B|272:240|272:176,1,95,8|0
232,136,43723,1,8
152,136,43891,2,0,B|104:112|112:40,1,95,0|8
176,16,44226,5,2
320,56,44561,1,2
240,56,44729,2,0,B|160:112|264:168|152:224,1,190,10|10
96,248,45232,1,2
144,304,45399,6,0,B|208:352|288:336|328:264,2,190,8|8|8
168,232,46237,1,0
96,248,46405,1,8
160,288,46572,2,0,B|136:248|136:192,1,95,0|8
152,120,46908,1,0
200,176,47075,6,0,B|176:136|176:80,1,95,10|0
224,24,47410,1,10
288,64,47578,1,0
296,72,47662,1,0
304,80,47746,1,10
296,152,47913,1,0
304,160,47997,1,0
312,168,48081,6,0,B|360:208,2,47.5,8|0|0
352,144,48332,2,0,B|400:184,2,47.5,0|8|0
392,120,48584,2,0,B|440:160,2,47.5,8|0|0
432,96,48835,2,0,B|480:136,2,47.5,0|0|0
416,56,49086,6,0,B|360:32,1,47.5,8|0
352,64,49254,2,0,B|296:40,1,47.5,0|0
296,80,49422,2,0,B|240:56,1,47.5,8|0
240,96,49589,2,0,B|184:72,1,47.5,0|0
176,112,49757,5,8
152,96,49841,1,0
136,128,49924,1,8
112,112,50008,1,0
96,144,50092,2,0,B|70:180|70:236,1,95
92,308,50427,1,8
92,308,50511,1,0
92,308,50595,1,0
168,328,50762,6,0,B|280:336|352:272|312:192|232:176,1,285,6|2
160,216,51433,2,0,B|88:128|168:24,1,190,2|0
256,80,51936,1,2
352,40,52103,2,0,B|421:128|349:216,1,190,2|8
192,312,52774,1,8
224,248,52941,1,0
240,240,53025,1,0
256,240,53109,1,0
272,248,53193,1,0
288,256,53276,1,0
304,248,53360,1,0
320,240,53444,6,0,B|376:216|384:160|376:112|309:90,1,190,4|8
184,96,54114,2,0,B|72:96,2,95,0|0|8
184,184,54617,1,0
264,144,54785,2,0,B|360:144,2,95,0|0|8
264,232,55288,1,0
264,320,55455,1,0
184,280,55623,2,0,B|80:280,2,95,0|8|0
264,320,56126,1,0
264,320,56461,6,0,B|328:304|328:248|328:192|256:176,1,190,8|0
184,176,56964,1,0
184,176,57131,2,0,B|384:176,2,190,8|0|8
120,120,57969,2,0,B|48:48,2,95
192,72,58472,1,8
192,72,58807,6,0,B|384:72,1,190,4|8
432,144,59310,2,0,B|240:144,1,190
176,200,59813,1,8
208,280,59980,1,0
288,312,60148,2,0,B|416:312|400:192,2,190,0|8|0
208,280,60986,2,0,B|192:176,1,95,0|8
112,208,61321,2,0,B|96:104,1,95
168,64,61656,1,0
216,136,61824,5,8
328,72,62075,1,8
296,96,62159,2,8,B|296:160,4,47.5
248,24,62662,1,0
248,24,62829,1,12
264,360,63332,1,8
264,360,63500,1,8
128,144,64003,6,0,B|128:256,1,95,8|8
296,192,64505,1,8
464,144,64841,1,8
472,152,64924,1,8
480,160,65008,1,8
485,171,65092,1,8
487,185,65176,1,8
485,198,65260,1,8
481,209,65343,1,8
475,217,65427,1,8
467,228,65511,6,0,B|264:228,1,190,6|10
192,232,66014,1,0
144,160,66181,2,0,B|256:160,1,95,0|0
328,160,66517,1,10
328,160,66684,1,0
304,240,66852,6,0,B|328:288|304:336,1,95,2|0
205,331,67187,2,0,B|184:288|208:240,1,95,10|0
344,240,67522,2,0,B|368:288|344:336,1,95,0|0
165,331,67857,2,0,B|144:288|168:240,1,95,10|0
200,160,68193,6,0,B|136:80,2,95,0|0|10
312,160,68695,2,0,B|376:80,2,95,0|2|0
256,96,69198,1,8
256,96,69366,2,0,B|256:288,1,190,2|2
176,320,69869,1,10
96,288,70036,1,0
160,232,70204,1,2
160,232,70539,1,8
312,304,70874,6,0,B|432:304|440:184,1,190,2|10
376,136,71377,1,0
312,192,71545,2,0,B|208:192,2,95,0|0|10
56,88,72215,5,2
120,32,72383,1,0
184,88,72550,2,0,B|184:184,2,95,2|0|0
256,40,73053,1,0
256,40,73221,2,0,B|408:168,2,190,10|0|10
256,128,74059,1,0
184,88,74226,1,2
112,128,74394,2,2,B|80:184|120:224,2,95,2|8|6
400,256,75064,6,0,B|432:200|392:160,2,95,2|10|0
320,224,75567,1,2
256,280,75735,1,0
192,224,75902,1,8
256,168,76070,5,0
256,168,76154,1,0
256,168,76237,2,0,B|320:64|192:24,1,190,6|10
144,96,76740,1,0
64,120,76908,2,0,B|64:224,1,95,2|0
192,312,77243,2,0,B|192:208,1,95,10|0
296,40,77578,2,0,B|296:144,1,95
424,232,77913,2,0,B|424:128,2,95,10|0|2
344,264,78416,1,0
304,192,78584,6,0,B|208:192|192:280|232:328,2,190,10|2|10
384,344,79589,1,2
344,264,79757,1,2
408,208,79924,2,0,B|408:112|320:96|272:136,1,190,8|0
216,192,80427,1,10
216,192,80762,5,10
128,192,80930,1,10
160,112,81098,2,0,B|352:112,1,190,8|8
384,192,81600,1,10
296,192,81768,1,8
256,264,81936,6,0,B|192:344|72:296,1,190,10|2
24,240,82438,2,0,B|88:160|208:208,1,190,10|2
256,136,82941,2,0,B|256:24,1,95,8|0
256,248,83276,2,0,B|256:360,1,95,10|0
200,192,83612,2,0,B|88:192,1,95,10|0
312,192,83947,2,0,B|424:192,1,95,10|0
360,120,84282,6,0,L|352:72,1,47.5,8|0
312,24,84450,2,0,L|319:70,1,47.5,0|0
280,104,84617,2,0,L|272:57,1,47.5,0|0
224,24,84785,2,2,L|231:70,1,47.5,0|0
200,96,84952,6,0,B|136:72,1,47.5,0|0
80,88,85120,2,0,B|124:104,1,47.5,0|0
176,160,85288,2,0,B|112:136,1,47.5,0|0
72,160,85455,2,0,B|116:176,1,47.5,0|0
120,224,85623,6,0,B|88:264,2,47.5,0|0|0
168,240,85874,1,0
216,232,85958,2,0,B|254:204|262:150,2,95,0|0|0
280,304,86461,1,0
376,280,86628,1,0
376,280,86712,1,0
376,280,86796,1,0
256,192,86964,12,0,88304
320,40,89645,6,0,B|424:104|384:216,1,190,4|10
312,248,90148,1,2
264,176,90316,1,0
336,128,90483,1,2
389,199,90651,2,0,B|485:167|469:39,2,190,10|0|10
392,288,91489,1,2
392,288,91572,1,0
392,288,91656,1,2
320,240,91824,2,0,B|272:224|224:224,1,95,2|8
304,184,92159,1,2
264,264,92327,6,0,B|232:224|216:176,1,95,0|2
208,320,92662,1,8
208,320,92829,1,0
256,224,92997,2,0,B|224:184|208:136,1,95,2|2
304,144,93332,2,0,B|336:112|352:48,1,95,8|0
272,32,93667,5,2
192,56,93835,1,2
224,136,94003,1,8
96,144,94254,1,0
96,144,94338,2,0,B|96:192|112:240,1,95,2|0
160,168,94673,1,10
168,256,94841,5,0
168,256,94924,1,0
168,256,95008,2,0,B|216:232|256:192,1,95,0|2
192,272,95343,2,0,B|160:315|113:347,1,95,8|2
56,184,95846,1,2
104,112,96014,1,8
192,104,96181,1,2
160,184,96349,6,0,B|216:200|256:192,1,95,2|0
216,112,96684,1,10
136,136,96852,2,0,B|80:112|48:80,1,95
128,48,97187,1,2
216,64,97355,2,0,B|268:136|246:204|196:245,1,190,10|0
128,264,97857,1,0
184,328,98025,5,10
184,328,98193,2,0,B|272:368|336:320|344:256,1,190,2|0
280,216,98695,1,8
200,248,98863,1,0
200,248,99031,2,2,B|168:144|200:40,2,190,2|10|2
272,296,99869,1,0
272,296,99952,1,0
272,296,100036,1,0
272,296,100120,1,0
272,296,100204,1,0
272,296,100288,1,0
272,296,100371,1,6
376,160,100707,6,0,B|336:64|240:32,2,190,8|0|8
296,184,101545,1,0
296,184,101712,1,6
56,88,102215,6,0,B|16:192|56:288,1,190,0|0
112,336,102718,2,0,B|232:368|320:272,2,190,0|6|8
120,168,103723,1,0
200,136,103891,1,0
120,168,104059,1,8
144,88,104226,2,0,B|168:136|168:192,1,95,0|0
136,256,104561,1,0
136,256,104729,1,8
303,206,105064,6,0,B|239:294|119:254,1,190,0|8
200,104,105735,1,6
80,184,106237,6,0,B|72:240|80:280,1,95,0|2
128,208,106572,1,0
48,232,106740,2,0,B|16:128|80:48,1,190,10|6
192,176,107410,5,8
128,120,107578,2,0,B|184:48|272:72|304:112,1,190,2|2
352,168,108081,1,10
272,192,108248,1,0
352,168,108416,2,0,B|408:280|304:328,1,190,2|8
248,264,108919,1,0
160,248,109086,6,2,B|160:192|198:154|262:156|296:192,1,190,2|8
248,264,109589,1,0
152,224,109757,6,2,B|152:168|190:130|254:132|288:168,1,190,2|8
248,264,110260,1,0
136,192,110427,6,2,B|136:136|174:98|238:100|272:136,1,190,2|8
248,264,110930,1,0
328,296,111098,6,0,B|368:256|360:200,1,95,2|0
288,160,111433,1,2
288,160,111600,2,2,B|208:232|80:192,1,190,2|0
88,120,112103,1,2
88,120,112271,2,2,B|120:224|80:312,1,190,2|0
40,232,112774,1,2
112,272,112941,2,0,B|160:288|216:288,1,95,0|2
144,224,113276,2,2,B|94:206|48:176,1,95,0|2
144,168,113612,1,2
192,240,113779,6,0,B|232:224|264:240|296:216,1,95
360,176,114114,1,0
264,320,114450,2,0,B|280:280|248:256|264:216,1,95,0|0
280,144,114785,1,0
344,200,114952,2,2,B|288:256|232:200|160:256,1,190,2|2
96,304,115455,1,0
64,224,115623,1,0
136,176,115790,2,0,B|112:144|136:104|112:80,2,95,0|0|2
229,319,116461,6,2,B|282:241|180:205|247:122,2,190,0|0|2
165,261,117299,2,0,B|234:188|277:252|338:175,1,190,2|2
383,114,117802,5,0
435,180,117969,1,2
408,288,118137,5,0
356,222,118304,1,2
212,126,118472,5,2
264,192,118640,1,0
192,243,118807,6,0,B|170:176|182:106|221:57,2,190,2|0|2
258,297,119645,1,0
258,297,119729,1,0
258,297,119813,1,2
333,257,119980,1,0
333,257,120064,1,0
333,257,120148,1,2
368,178,120316,1,0
368,178,120399,1,0
368,178,120483,1,6
141,58,120986,5,2
95,130,121154,1,2
371,326,121656,1,2
417,254,121824,1,2
256,80,122159,5,8
256,168,122494,1,0
256,176,122578,1,0
256,184,122662,1,0
256,192,122746,1,0
256,200,122829,1,0
256,208,122913,1,0
256,216,122997,1,0
256,224,123081,1,0
256,232,123165,6,0,L|216:256|160:224,1,95,2|0
112,176,123500,1,10
184,128,123667,1,0
256,168,123835,2,0,L|256:56,2,95,0|0|10
328,128,124338,1,0
400,176,124505,1,2
337,232,124673,2,0,L|296:256|256:232,2,95,0|10|0
352,312,125176,5,0
296,376,125343,1,0
256,296,125511,1,10
216,376,125679,1,0
160,312,125846,1,0
176,120,126181,6,2,L|256:72|344:128,1,190,10|2
296,192,126684,1,0
216,192,126852,1,8
168,264,127019,2,2,B|258:336|358:256,1,190,2|2
416,304,127522,2,0,L|464:320|520:304,1,95,10|0
506,76,127857,2,0,L|464:64|416:80,1,95,2|0
456,192,128193,1,8
456,192,128276,1,0
456,192,128360,2,0,L|352:192,2,95,0|2|0
400,128,128863,6,0,L|280:128,1,95,10|0
400,256,129198,2,0,L|280:256,1,95,0|0
256,192,129533,1,10
256,192,129701,1,0
184,144,129869,2,0,L|168:192|187:242,2,95,2|0|10
256,96,130371,1,0
328,144,130539,2,0,L|344:192|325:242,2,95,0|0|10
256,312,131042,1,0
176,288,131209,6,0,L|96:224,1,95
296,224,131545,2,0,L|328:128,1,95,10|0
216,224,131880,2,0,L|184:128,1,95,2|2
336,288,132215,2,0,L|416:224,1,95,8|2
256,80,132718,1,2
256,80,132885,1,10
224,248,133221,6,2,B|152:200|168:120|252:24|344:120|360:200|288:248,1,380
352,304,134059,1,0
352,304,134226,2,0,B|424:256|424:192|400:136,1,190,10|0
110,138,134729,1,0
110,138,134897,2,0,B|88:192|88:256|160:304,1,190,10|2
200,232,135399,1,0
256,296,135567,1,10
312,232,135735,1,0
312,144,135902,6,0,B|384:80,2,95,0|0|10
200,144,136405,2,0,B|128:80,2,95
168,224,136908,2,2,L|258:264|344:224,1,190,10|2
304,152,137410,2,0,L|200:152,1,95,0|8
120,160,137746,2,2,B|56:96|128:-8|224:48,1,190,2|2
329,32,138248,2,2,B|388:16|456:96|392:160,1,190,10|2
336,224,138751,1,0
336,224,138919,1,8
168,192,139254,5,2
72,192,139422,1,0
120,240,139589,1,10
120,144,139757,1,0
256,104,139924,5,0
256,8,140092,1,0
208,56,140260,1,10
304,56,140427,1,0
344,192,140595,5,2
440,192,140762,1,0
392,144,140930,1,10
392,240,141098,1,0
256,280,141265,5,0
256,376,141433,1,0
304,328,141600,1,10
208,328,141768,1,0
256,192,141936,5,0
256,192,142271,1,10
352,48,142606,1,2
416,104,142774,1,2
352,160,142941,1,8
288,104,143109,2,2,L|224:104|200:160|112:160,1,190,2|2
48,160,143612,1,10
48,160,143695,1,0
48,160,143779,1,0
256,192,143947,12,4,144617
