osu file format v12

[General]
AudioFilename: angel.mp3
AudioLeadIn: 0
PreviewTime: 66906
Countdown: 0
SampleSet: Soft
StackLeniency: 0.7
Mode: 0
LetterboxInBreaks: 0
WidescreenStoryboard: 0

[Editor]
DistanceSpacing: 1
BeatDivisor: 4
GridSize: 4

[Metadata]
Title:ANGEL
TitleUnicode:ANGEL
Artist:angela
ArtistUnicode:angela
Creator:TaMul
Version:Insane
Source:COPPELION
Tags:TKSalt Habiholic opening TV Size
BeatmapID:316421
BeatmapSetID:124033

[Difficulty]
HPDrainRate:7
CircleSize:4
OverallDifficulty:8
ApproachRate:9
SliderMultiplier:2.04
SliderTickRate:2

[Events]
//Background and Video events
0,0,"coppelion.jpg",0,0
Video,0,"COPPELION - OP.avi"
//Break Periods
//Storyboard Layer 0 (Background)
//Storyboard Layer 1 (Fail)
//Storyboard Layer 2 (Pass)
//Storyboard Layer 3 (Foreground)
//Storyboard Sound Samples
//Background Colour Transformations
3,100,163,162,255

[TimingPoints]
548,326.086956521739,4,2,1,50,1,0
548,-200,4,2,1,50,0,0
4461,-200,4,2,1,70,0,0
5683,-100,4,2,1,70,0,0
10982,-100,4,1,2,70,0,0
11145,-100,4,2,1,70,0,0
17015,-100,4,2,1,40,0,0
17341,-100,4,2,1,70,0,0
22069,-100,4,2,1,40,0,0
22721,-100,4,2,1,70,0,0
38700,-100,4,1,2,70,0,0
39026,-100,4,2,4,70,0,0
39189,-100,4,2,1,70,0,0
43754,-100,4,1,1,70,0,0
43917,-100,4,2,1,70,0,0
44895,-100,4,1,3,70,0,0
45058,-100,4,2,1,70,0,0
46200,-100,4,1,1,70,0,0
46363,-100,4,2,3,70,0,0
46526,-100,4,2,1,70,0,0
47667,-100,4,1,1,70,0,0
47830,-100,4,2,1,70,0,0
49134,-100,4,1,2,70,0,0
49461,-100,4,2,1,70,0,0
66091,-100,4,2,1,36,0,0
66417,-100,4,2,0,50,0,0
67069,-100,4,2,1,70,0,1
71308,-100,4,2,3,70,0,1
71471,-100,4,2,1,70,0,1
74406,-100,4,2,4,70,0,1
74569,-100,4,2,1,70,0,1
74895,-100,4,2,1,70,0,0
76037,-100,4,1,1,70,0,0
76363,-100,4,2,1,70,0,0
77504,-100,4,1,2,70,0,1
77667,-100,4,2,1,70,0,1
81743,-100,4,2,1,60,0,1
82069,-100,4,2,1,80,0,1
82395,-100,4,2,1,90,0,1
82721,-100,4,2,1,70,0,0
87287,-100,4,2,3,70,0,0
87613,-100,4,2,1,70,0,0
89406,-100,4,2,1,10,0,0

[Colours]
Combo1 : 128,255,0
Combo2 : 128,255,128
Combo3 : 255,255,0
Combo4 : 0,255,128

[HitObjects]
76,104,548,2,0,L|88:212,1,102
335,293,1200,2,0,L|324:192,1,102,0|0,0:0|0:0,0:0:0:0:
176,90,1852,6,0,L|188:192,1,102,0|0,0:0|0:0,0:0:0:0:
436,280,2504,2,0,L|424:178,1,102
88,204,3156,6,0,P|100:252|240:280,1,204
336,224,4134,1,0,0:0:0:0:
424,180,4461,6,0,P|412:132|272:104,1,204
200,164,5439,2,0,L|196:108,1,51,0|2,0:0|0:0,0:0:0:0:
148,100,5683,1,2,0:0:0:0:
100,84,5765,6,0,L|108:192,1,102,8|8,0:0|0:0,0:0:0:0:
176,260,6091,1,0,0:0:0:0:
76,284,6254,1,8,3:0:0:0:
200,164,6417,1,0,0:0:0:0:
356,244,6580,2,0,P|352:184|376:144,1,102,4|0,3:0|0:0,0:0:0:0:
444,212,6906,6,0,P|452:272|336:352,1,204,4|2,0:0|0:0,0:0:0:0:
256,312,7395,2,0,P|192:304|156:324,1,102,8|0,0:0|0:0,0:0:0:0:
76,284,7721,2,0,L|56:332,2,51,8|8|8,0:0|0:0|3:0,0:0:0:0:
84,104,8047,1,4,3:0:0:0:
28,192,8211,1,0,3:0:0:0:
28,192,8292,1,0,0:0:0:0:
28,192,8374,6,0,L|132:196,1,102,4|2,0:0|0:0,0:0:0:0:
228,228,8700,2,0,P|212:180|224:128,1,102,0|8,0:0|0:0,0:0:0:0:
316,176,9026,1,0,0:0:0:0:
208,336,9189,1,4,3:0:0:0:
416,324,9352,2,0,P|368:320|328:284,1,102,8|0,0:0|0:0,0:0:0:0:
388,208,9678,5,0,0:0:0:0:
404,176,9759,1,8,3:0:0:0:
402,140,9840,1,8,3:0:0:0:
386,108,9922,1,8,3:0:0:0:
359,86,10004,1,12,3:0:0:0:
325,77,10086,1,12,3:0:0:0:
290,83,10167,5,4,3:0:0:0:
265,108,10248,1,4,3:0:0:0:
233,124,10330,1,0,3:0:0:0:
198,128,10411,1,0,3:0:0:0:
163,119,10493,1,0,3:0:0:0:
134,100,10574,1,0,3:0:0:0:
120,64,10656,6,0,P|140:128|116:212,1,153,12|0,0:0|0:0,0:0:0:0:
118,208,10982,5,12,0:0:0:0:
20,192,11145,1,2,0:0:0:0:
56,288,11308,1,8,0:0:0:0:
156,296,11471,2,0,P|208:280|168:360,1,204,2|2,0:0|0:0,0:0:0:0:
308,348,11961,2,0,P|308:292|288:252,1,102,8|0,0:0|0:0,0:0:0:0:
204,36,12287,6,0,P|204:92|224:132,1,102,2|2,0:0|0:0,0:0:0:0:
393,52,12613,2,0,P|343:44|296:60,1,102,8|2,0:0|0:0,0:0:0:0:
36,136,12939,2,0,P|85:144|133:128,1,102,0|2,0:0|0:0,0:0:0:0:
80,40,13265,1,8,0:0:0:0:
56,240,13428,1,0,0:0:0:0:
56,240,13509,1,0,0:0:0:0:
56,240,13591,6,0,B|72:288|72:288|64:348,1,102,2|2,0:0|0:0,0:0:0:0:
264,364,13917,1,8,0:0:0:0:
264,364,14080,2,0,P|248:292|344:216,1,204,2|2,0:0|0:0,0:0:0:0:
348,316,14569,2,0,B|428:344|416:288|496:312,1,153,8|0,0:0|0:0,0:0:0:0:
496,311,14895,5,2,0:0:0:0:
264,364,15058,1,2,0:0:0:0:
338,215,15221,1,8,0:0:0:0:
408,352,15384,1,4,3:0:0:0:
260,268,15547,1,8,0:0:0:0:
227,253,15628,1,8,0:0:0:0:
192,246,15710,1,8,0:0:0:0:
156,247,15791,1,8,0:0:0:0:
122,256,15874,5,8,3:0:0:0:
87,251,15955,1,8,3:0:0:0:
56,233,16037,1,8,3:0:0:0:
34,205,16118,1,8,3:0:0:0:
24,171,16200,6,0,B|0:252|0:252|4:280,1,102,2|0,0:0|0:0,0:0:0:0:
100,64,16526,1,0,3:0:0:0:
100,64,16689,2,2,B|109:147|109:147|123:171,1,102,0|0,0:0|0:0,0:0:0:0:
118,162,17015,2,2,P|188:120|312:120,1,204,2|0,0:0|0:0,0:0:0:0:
352,140,17422,1,0,0:0:0:0:
352,140,17504,2,0,L|340:36,1,102,6|0,0:0|0:0,0:0:0:0:
340,38,17993,5,2,0:0:0:0:
272,232,18156,1,8,0:0:0:0:
472,204,18319,2,0,P|416:204|372:228,1,102,2|0,3:0|3:0,0:0:0:0:
336,320,18645,1,0,0:0:0:0:
336,320,18727,1,0,0:0:0:0:
336,320,18808,6,0,P|288:292|276:248,1,102,0|0,3:0|0:0,0:0:0:0:
376,224,19134,1,0,3:0:0:0:
192,328,19297,1,0,3:0:0:0:
4,264,19461,1,8,0:0:0:0:
92,332,19624,2,2,P|112:240|48:152,1,204,2|0,0:0|0:0,0:0:0:0:
52,154,20113,5,2,0:0:0:0:
152,140,20276,1,0,0:0:0:0:
184,44,20439,2,0,P|128:40|92:64,1,102,0|2,0:0|0:0,0:0:0:0:
248,124,20765,1,8,0:0:0:0:
248,124,20928,1,2,3:0:0:0:
248,124,21254,6,0,L|348:100,1,102,0|2,0:0|0:0,0:0:0:0:
347,100,21580,1,2,0:0:0:0:
232,236,21743,1,0,0:0:0:0:
232,236,21906,1,0,0:0:0:0:
428,176,22069,5,0,0:0:0:0:
392,175,22150,1,0,0:0:0:0:
359,188,22232,1,0,0:0:0:0:
333,212,22313,1,0,0:0:0:0:
318,244,22395,2,0,P|312:188|280:160,1,102
416,276,22721,5,6,0:0:0:0:
276,336,22884,1,2,0:0:0:0:
132,300,23047,2,0,P|144:236|132:200,1,102
44,252,23374,1,8,0:0:0:0:
36,152,23537,1,2,0:0:0:0:
128,104,23700,1,0,3:0:0:0:
44,252,23863,1,0,3:0:0:0:
128,104,24026,6,0,P|92:56|48:48,1,102,2|2,0:0|0:0,0:0:0:0:
212,168,24352,2,0,P|236:112|224:68,1,102,0|0,0:0|3:0,0:0:0:0:
227,73,24841,2,2,B|248:80|248:80|240:64|240:64|260:68|260:68|272:28|328:0|380:32,1,204,0|0,3:0|0:0,0:0:0:0:
343,193,25330,6,0,P|325:146|332:96,1,102,6|2,0:0|0:0,0:0:0:0:
472,40,25656,1,0,3:0:0:0:
432,132,25819,1,0,3:0:0:0:
469,323,25982,2,0,B|484:272|484:272|476:224,2,102,8|2|0,0:0|0:0|0:0,0:0:0:0:
368,328,26471,6,0,P|308:272|260:364,1,204,0|2,0:0|0:0,0:0:0:0:
254,352,26961,2,0,L|200:264,1,102,8|0,0:0|0:0,0:0:0:0:
128,356,27287,6,0,L|120:304,1,51,8|8,0:0|0:0,0:0:0:0:
48,308,27450,2,0,L|40:360,1,51,4|4,3:0|3:0,0:0:0:0:
84,248,27613,2,0,P|100:192|68:96,1,153,8|0,0:0|0:0,0:0:0:0:
24,164,27939,6,0,P|72:184|124:168,1,102,6|0,0:0|0:0,0:0:0:0:
244,66,28265,2,0,P|218:109|220:160,1,102,8|0,0:0|0:0,0:0:0:0:
312,140,28591,1,2,3:0:0:0:
400,88,28754,1,2,3:0:0:0:
332,12,28917,1,8,0:0:0:0:
312,140,29080,1,0,0:0:0:0:
432,204,29243,6,0,P|460:248|456:300,1,102,0|2,0:0|0:0,0:0:0:0:
344,368,29569,1,8,0:0:0:0:
360,268,29732,2,0,B|332:248|288:264|268:292|268:292|240:268|200:264|160:288,1,204,2|2,0:0|0:0,0:0:0:0:
112,360,30221,1,8,0:0:0:0:
248,204,30384,6,0,P|180:200|80:292,1,204,2|2,0:0|0:0,0:0:0:0:
0,192,30874,2,0,L|96:212,1,102,8|0,0:0|0:0,0:0:0:0:
176,76,31200,2,0,L|76:56,1,102,2|2,3:0|3:0,0:0:0:0:
180,164,31526,1,8,0:0:0:0:
272,116,31689,6,0,P|296:64|432:64,1,204,2|2,0:0|0:0,0:0:0:0:
394,242,32178,2,0,L|368:144,1,102,8|0,0:0|0:0,0:0:0:0:
312,336,32504,2,0,L|312:232,1,102,2|0,0:0|0:0,0:0:0:0:
392,324,32830,1,8,0:0:0:0:
228,244,32993,1,0,0:0:0:0:
112,384,33156,5,4,0:0:0:0:
176,324,33319,1,0,3:0:0:0:
176,324,33482,2,0,P|128:300|76:304,1,102,8|0,0:0|0:0,0:0:0:0:
116,208,33808,1,2,0:0:0:0:
16,224,33971,1,0,0:0:0:0:
16,224,34053,1,0,0:0:0:0:
16,224,34134,1,8,0:0:0:0:
52,128,34297,6,0,P|104:104|212:188,1,204,2|2,0:0|0:0,0:0:0:0:
419,110,34787,1,8,0:0:0:0:
419,110,34950,2,0,B|376:96|332:124|332:124|280:108|280:108|224:124,1,204,2|2,0:0|0:0,0:0:0:0:
392,196,35439,1,8,0:0:0:0:
292,184,35602,6,0,P|284:128|372:16,1,204,2|2,0:0|0:0,0:0:0:0:
480,176,36091,2,0,P|480:232|448:268,1,102,8|8,0:0|3:0,0:0:0:0:
292,184,36417,1,0,3:0:0:0:
392,196,36580,1,2,3:0:0:0:
327,290,36743,2,0,P|276:276|232:296,1,102,8|0,0:0|0:0,0:0:0:0:
284,372,37069,5,8,3:0:0:0:
292,184,37232,1,0,3:0:0:0:
436,304,37395,1,4,3:0:0:0:
232,295,37558,1,4,3:0:0:0:
380,376,37721,1,8,0:0:0:0:
350,355,37802,1,8,0:0:0:0:
332,325,37884,1,4,3:0:0:0:
327,290,37965,1,4,3:0:0:0:
338,256,38047,6,0,P|372:208|304:96,1,204,8|2,0:0|0:0,0:0:0:0:
184,172,38537,1,2,0:0:0:0:
44,112,38700,6,0,P|100:80|40:168,1,306,12|2,0:0|0:0,0:0:0:0:
216,68,39352,1,8,0:0:0:0:
216,68,39515,2,0,P|264:40|312:40,1,102,0|0,0:0|0:0,0:0:0:0:
376,152,39841,2,0,P|328:180|280:180,1,102,0|8,0:0|0:0,0:0:0:0:
404,64,40167,2,0,P|452:92|464:152,1,102,0|2,0:0|0:0,0:0:0:0:
436,232,40493,2,0,L|464:336,2,102,2|8|2,0:0|0:0|0:0,0:0:0:0:
356,296,40982,5,8,0:0:0:0:
324,278,41063,1,8,0:0:0:0:
290,269,41146,1,4,3:0:0:0:
254,267,41227,1,4,3:0:0:0:
219,272,41308,6,0,P|220:208|168:280,1,204,12|2,0:0|0:0,0:0:0:0:
164,364,41797,1,2,0:0:0:0:
164,364,41879,1,0,0:0:0:0:
164,364,41961,2,0,P|112:368|72:328,1,102,8|0,0:0|0:0,0:0:0:0:
32,196,42287,5,0,3:0:0:0:
88,60,42450,2,0,P|136:40|188:64,1,102,2|8,3:0|0:0,0:0:0:0:
284,200,42776,1,0,0:0:0:0:
292,160,42857,1,0,0:0:0:0:
280,124,42939,2,0,P|296:72|340:48,1,102,2|2,0:0|0:0,0:0:0:0:
360,196,43265,1,8,0:0:0:0:
472,92,43428,1,0,0:0:0:0:
472,92,43509,1,0,0:0:0:0:
472,92,43591,6,0,P|436:136|392:152,1,102,12|4,0:0|0:0,0:0:0:0:
292,160,43917,2,0,P|248:136|192:140,1,102,2|0,0:0|0:0,0:0:0:0:
210,332,44243,2,0,P|229:286|224:236,1,102,2|4,3:0|3:0,0:0:0:0:
124,224,44569,1,2,3:0:0:0:
301,356,44732,6,0,P|319:257|292:160,1,204,0|0,0:0|0:0,0:0:0:0:
210,332,45221,1,0,0:0:0:0:
428,280,45384,1,8,3:0:0:0:
428,280,45466,1,8,3:0:0:0:
428,280,45547,1,4,3:0:0:0:
392,184,45711,1,2,0:0:0:0:
492,196,45874,2,0,P|472:244|480:292,1,102,8|0,0:0|3:0,0:0:0:0:
392,184,46200,6,0,P|432:120|360:32,1,204,4|0,0:0|0:0,0:0:0:0:
316,124,46689,2,0,B|216:160|220:96|116:128,1,204,2|0,0:0|0:0,0:0:0:0:
116,127,47096,1,0,0:0:0:0:
116,127,47178,6,0,P|128:76|116:28,1,102,8|0,0:0|0:0,0:0:0:0:
36,180,47504,1,8,0:0:0:0:
168,216,47667,2,0,P|172:272|200:320,1,102,4|0,0:0|0:0,0:0:0:0:
288,276,47993,1,0,0:0:0:0:
88,332,48156,1,8,3:0:0:0:
288,276,48319,6,0,P|336:296|384:284,1,102,0|4,0:0|3:0,0:0:0:0:
428,192,48645,1,0,0:0:0:0:
428,192,48727,1,0,0:0:0:0:
428,192,48808,6,0,L|456:296,1,102,6|2,0:0|0:0,0:0:0:0:
332,196,49134,2,0,P|336:128|452:92,1,204,12|0,0:0|0:0,0:0:0:0:
256,120,49624,1,0,0:0:0:0:
256,120,49705,1,0,0:0:0:0:
256,120,49787,6,0,L|152:136,1,102,8|0,0:0|0:0,0:0:0:0:
216,216,50113,1,2,0:0:0:0:
176,44,50276,1,0,0:0:0:0:
80,84,50439,2,0,P|64:136|80:188,1,102,8|0,0:0|0:0,0:0:0:0:
124,272,50765,5,2,0:0:0:0:
216,216,50928,1,2,0:0:0:0:
309,340,51091,2,0,P|266:314|216:316,1,102,8|0,0:0|0:0,0:0:0:0:
400,368,51417,1,8,0:0:0:0:
404,332,51499,1,8,0:0:0:0:
396,296,51580,1,4,3:0:0:0:
372,268,51662,1,4,3:0:0:0:
340,252,51743,6,0,P|400:256|480:192,1,153,12|0,0:0|0:0,0:0:0:0:
473,204,52069,1,2,0:0:0:0:
384,92,52232,1,2,0:0:0:0:
272,176,52395,2,0,P|296:128|280:72,1,102,8|8,0:0|3:0,3:0:0:0:
212,16,52721,1,0,0:0:0:0:
192,115,52884,2,0,P|168:160|177:209,1,102,2|8,0:0|0:0,0:0:0:0:
272,176,53211,5,0,0:0:0:0:
116,48,53374,1,2,3:0:0:0:
80,248,53537,2,0,L|36:296,1,51,0|0,3:0|0:0,0:0:0:0:
88,348,53700,2,0,B|121:312|121:312|176:296,1,102,8|0,0:0|0:0,0:0:0:0:
276,304,54026,6,0,P|328:328|376:320,1,102,6|0,0:0|0:0,0:0:0:0:
404,284,54270,1,0,0:0:0:0:
388,236,54352,2,0,P|372:188|384:136,1,102,8|0,0:0|0:0,0:0:0:0:
256,32,54678,2,0,P|272:80|260:132,1,102,2|2,0:0|0:0,0:0:0:0:
360,51,55004,2,0,P|410:55|447:88,1,102,8|0,0:0|0:0,0:0:0:0:
176,88,55330,2,0,P|128:108|36:12,1,204,2|8,0:0|0:0,0:0:0:0:
120,24,55819,1,0,0:0:0:0:
120,24,55901,1,0,0:0:0:0:
120,24,55982,5,2,3:0:0:0:
76,204,56145,2,0,L|100:100,1,102,2|8,3:0|0:0,0:0:0:0:
0,256,56471,1,0,3:0:0:0:
116,288,56634,6,0,P|164:264|224:272,1,102,6|2,0:0|0:0,0:0:0:0:
296,324,56961,2,0,L|288:220,1,102,8|0,0:0|0:0,0:0:0:0:
396,296,57287,2,0,L|388:192,1,102,0|8,0:0|0:0,0:0:0:0:
480,236,57613,1,8,0:0:0:0:
288,222,57776,1,2,3:0:0:0:
480,236,57939,5,0,0:0:0:0:
488,136,58102,1,4,3:0:0:0:
424,56,58265,1,0,3:0:0:0:
324,56,58428,1,4,3:0:0:0:
256,132,58591,1,2,0:0:0:0:
356,148,58754,1,8,0:0:0:0:
356,148,58836,1,8,0:0:0:0:
356,148,58917,1,8,3:0:0:0:
212,32,59080,1,8,0:0:0:0:
212,32,59162,1,8,0:0:0:0:
212,32,59243,6,0,P|144:52|104:40,1,102,6|0,0:0|0:0,0:0:0:0:
148,140,59569,1,8,0:0:0:0:
92,224,59732,2,0,P|56:180|56:128,1,102,0|2,0:0|0:0,0:0:0:0:
115,45,60058,1,2,0:0:0:0:
188,228,60221,2,0,P|240:208|296:224,1,102,8|0,0:0|0:0,0:0:0:0:
356,148,60547,1,2,0:0:0:0:
328,320,60711,1,0,0:0:0:0:
504,252,60874,6,0,P|448:236|400:244,1,102,8|2,0:0|0:0,0:0:0:0:
448,112,61200,2,0,P|398:120|356:148,1,102,0|2,0:0|0:0,0:0:0:0:
287,31,61526,2,0,P|260:73|256:124,1,102,8|0,0:0|0:0,0:0:0:0:
242,133,61770,1,0,0:0:0:0:
232,144,61852,6,0,B|168:128|168:128|124:132,1,102,6|2,0:0|0:0,0:0:0:0:
152,232,62178,1,8,0:0:0:0:
100,28,62341,2,0,B|48:60|48:60|28:108,1,102,2|0,0:0|0:0,0:0:0:0:
152,232,62667,1,2,0:0:0:0:
32,97,62830,2,0,B|48:164|48:164|40:204,1,102,8|0,0:0|0:0,0:0:0:0:
60,296,63156,5,8,0:0:0:0:
81,267,63237,1,8,0:0:0:0:
102,288,63319,1,8,0:0:0:0:
133,305,63400,1,8,0:0:0:0:
169,305,63482,5,8,3:0:0:0:
201,291,63563,1,8,3:0:0:0:
223,263,63645,1,8,3:0:0:0:
229,228,63726,1,8,3:0:0:0:
219,194,63808,6,0,L|272:208,3,51,4|4|4|4,3:0|3:0|3:0|3:0,0:0:0:0:
316,188,64134,6,0,L|324:224,8,25.5,0|0|0|0|0|0|0|0|4,0:0|0:0|0:0|0:0|0:0|0:0|0:0|0:0|0:0,3:0:0:0:
256,192,64787,12,0,66091,3:0:0:0:
252,72,66417,2,2,P|192:80|304:196,1,357,2|0,0:0|0:0,0:0:0:0:
328,128,67069,6,0,P|384:116|444:136,1,102,6|0,0:0|0:0,0:0:0:0:
468,220,67395,1,8,0:0:0:0:
464,36,67558,1,0,0:0:0:0:
376,224,67721,2,0,P|384:280|424:328,1,102,2|2,3:0|0:0,0:0:0:0:
256,360,68047,2,0,P|304:344|356:364,1,102,8|0,0:0|0:0,0:0:0:0:
268,248,68374,5,2,0:0:0:0:
136,304,68537,1,0,0:0:0:0:
136,304,68618,1,0,0:0:0:0:
136,304,68700,2,0,L|160:204,1,102,8|0,0:0|0:0,0:0:0:0:
56,92,69026,2,0,L|80:192,1,102,2|2,3:0|0:0,0:0:0:0:
148,32,69352,2,0,L|140:144,1,102,8|0,0:0|0:0,0:0:0:0:
176,128,69596,1,0,0:0:0:0:
212,120,69678,6,0,P|264:136|312:120,1,102,6|2,0:0|0:0,0:0:0:0:
392,64,70004,2,0,P|392:144|432:212,1,153,8|0,0:0|0:0,0:0:0:0:
426,206,70330,1,2,0:0:0:0:
496,104,70493,1,2,0:0:0:0:
316,204,70656,1,8,0:0:0:0:
316,204,70738,1,0,0:0:0:0:
316,204,70819,6,0,P|308:256|260:288,1,102,2|0,3:0|0:0,0:0:0:0:
247,190,71145,2,0,P|340:221|368:316,1,204,2|2,0:0|0:0,0:0:0:0:
156,240,71634,2,0,L|176:136,1,102,2|0,3:0|0:0,0:0:0:0:
340,24,71961,2,0,L|320:128,1,102,8|0,0:0|0:0,0:0:0:0:
120,56,72287,6,0,P|180:36|228:56,1,102,4|0,0:0|0:0,0:0:0:0:
248,84,72531,1,0,0:0:0:0:
288,112,72613,2,0,P|340:132|388:120,1,102,8|0,0:0|0:0,0:0:0:0:
480,92,72939,1,2,0:0:0:0:
456,192,73102,1,2,0:0:0:0:
456,192,73183,1,0,0:0:0:0:
456,192,73265,6,0,P|460:252|440:288,1,102,8|0,0:0|0:0,0:0:0:0:
276,274,73591,2,0,P|311:238|360:224,1,102,2|0,0:0|0:0,0:0:0:0:
324,360,73917,2,0,P|272:376|224:360,1,102,8|2,0:0|0:0,0:0:0:0:
180,272,74243,2,0,P|120:256|24:352,1,204,0|8,0:0|0:0,0:0:0:0:
24,344,74732,1,2,0:0:0:0:
36,120,74895,5,8,3:0:0:0:
71,125,74976,1,8,3:0:0:0:
106,131,75058,1,4,3:0:0:0:
141,136,75139,1,4,3:0:0:0:
177,142,75221,6,0,L|176:40,1,102,8|0,0:0|0:0,0:0:0:0:
256,196,75547,1,8,0:0:0:0:
320,64,75711,1,8,3:0:0:0:
396,188,75874,1,4,3:0:0:0:
256,196,76037,6,0,B|256:216|256:216|264:208|264:208|264:224|264:224|216:232|180:304|224:348,1,204,4|2,0:0|0:0,0:0:0:0:
377,292,76526,2,0,P|329:308|280:300,1,102,8|0,0:0|0:0,0:0:0:0:
184,185,76852,1,0,0:0:0:0:
128,284,77015,1,8,0:0:0:0:
128,284,77178,1,8,0:0:0:0:
128,284,77341,6,0,L|116:336,2,51,8|0|12,0:0|0:0|0:0,0:0:0:0:
84,192,77667,1,2,0:0:0:0:
136,104,77830,2,0,P|176:140|184:192,1,102,8|2,0:0|0:0,0:0:0:0:
341,145,78156,2,0,P|291:146|256:112,1,102,0|2,0:0|0:0,0:0:0:0:
288,72,78401,1,0,0:0:0:0:
336,52,78482,6,0,P|392:60|424:100,1,102,8|0,0:0|0:0,0:0:0:0:
428,192,78808,2,0,P|396:244|404:292,1,102,2|2,0:0|0:0,0:0:0:0:
500,268,79134,1,8,0:0:0:0:
341,145,79297,1,2,3:0:0:0:
312,348,79461,6,0,P|336:292|320:248,1,102,0|2,0:0|3:0,0:0:0:0:
232,296,79787,2,0,P|208:256|156:244,1,102,8|0,0:0|0:0,0:0:0:0:
140,240,80031,1,0,0:0:0:0:
132,228,80113,6,0,B|148:180|148:180|144:124,1,102,2|2,0:0|0:0,0:0:0:0:
72,168,80439,1,8,0:0:0:0:
180,48,80602,2,0,P|240:88|368:64,1,204,2|2,0:0|0:0,0:0:0:0:
444,128,81091,2,0,L|436:24,1,102,8|0,0:0|0:0,0:0:0:0:
300,124,81417,2,0,L|308:228,1,102,2|2,0:0|0:0,0:0:0:0:
408,220,81743,5,8,0:0:0:0:
364,66,81906,1,2,3:0:0:0:
307,225,82069,1,8,0:0:0:0:
436,26,82232,1,0,3:0:0:0:
300,124,82395,2,0,P|232:96|148:104,1,153,12|0,0:0|0:0,0:0:0:0:
154,101,82721,5,6,0:0:0:0:
8,169,82884,2,0,P|57:161|100:188,1,102,2|0,0:0|0:0,0:0:0:0:
154,101,83211,1,2,0:0:0:0:
40,240,83374,2,0,P|68:288|64:332,1,102,8|0,0:0|0:0,0:0:0:0:
154,101,83700,1,0,0:0:0:0:
144,256,83863,1,0,0:0:0:0:
144,256,83944,1,0,0:0:0:0:
144,256,84026,6,0,P|200:240|248:252,1,102,2|0,0:0|0:0,0:0:0:0:
336,212,84352,1,0,0:0:0:0:
352,312,84515,1,2,0:0:0:0:
256,356,84678,2,0,P|240:264|280:164,1,204,8|0,0:0|0:0,0:0:0:0:
154,101,85167,6,0,B|180:108|180:108|168:92|168:92|188:96|188:96|180:80|180:80|200:88|200:88|208:48|248:20|280:32,1,204,2|0,0:0|0:0,0:0:0:0:
365,129,85656,2,0,P|316:133|276:104,1,102,2|0,0:0|0:0,0:0:0:0:
100,160,85982,5,12,0:0:0:0:
56,68,86145,1,0,0:0:0:0:
154,101,86308,2,0,P|180:160|172:196,1,102,0|0,0:0|0:0,0:0:0:0:
84,248,86634,5,8,0:0:0:0:
224,288,86797,1,4,3:0:0:0:
224,288,86879,1,4,3:0:0:0:
224,288,86961,1,4,3:0:0:0:
336,216,87124,2,0,P|316:272|480:272,1,306,12|8,3:0|0:0,0:0:0:0:
398,269,87776,5,4,0:0:0:0:
256,192,87939,12,0,89406,0:0:0:0:
