osu file format v12

[General]
AudioFilename: angel.mp3
AudioLeadIn: 0
PreviewTime: 66906
Countdown: 0
SampleSet: Soft
StackLeniency: 0.7
Mode: 0
LetterboxInBreaks: 0
WidescreenStoryboard: 0

[Editor]
DistanceSpacing: 1
BeatDivisor: 4
GridSize: 4

[Metadata]
Title:ANGEL
TitleUnicode:ANGEL
Artist:angela
ArtistUnicode:angela
Creator:TaMul
Version:Hard
Source:COPPELION
Tags:TKSalt Habiholic opening TV Size
BeatmapID:316420
BeatmapSetID:124033

[Difficulty]
HPDrainRate:6
CircleSize:4
OverallDifficulty:6
ApproachRate:7
SliderMultiplier:1.54
SliderTickRate:2

[Events]
//Background and Video events
0,0,"coppelion.jpg",0,0
Video,0,"COPPELION - OP.avi"
//Break Periods
//Storyboard Layer 0 (Background)
//Storyboard Layer 1 (Fail)
//Storyboard Layer 2 (Pass)
//Storyboard Layer 3 (Foreground)
//Storyboard Sound Samples
//Background Colour Transformations
3,100,163,162,255

[TimingPoints]
548,326.086956521739,4,2,1,50,1,0
548,-200,4,2,1,50,0,0
4461,-200,4,2,1,70,0,0
5928,-100,4,2,1,70,0,0
10982,-100,4,1,2,70,0,0
11145,-100,4,2,1,70,0,0
12450,-100,4,2,4,70,0,0
12613,-100,4,2,1,70,0,0
17015,-100,4,2,1,40,0,0
17341,-100,4,2,1,70,0,0
22069,-100,4,2,1,40,0,0
22721,-100,4,2,1,70,0,0
28754,-100,4,2,4,70,0,0
28917,-100,4,2,1,70,0,0
29895,-100,4,2,4,70,0,0
30221,-100,4,2,1,70,0,0
31363,-100,4,2,4,70,0,0
31526,-100,4,2,1,70,0,0
35276,-100,4,2,4,70,0,0
35439,-100,4,2,1,70,0,0
38700,-100,4,1,2,70,0,0
39026,-100,4,2,1,70,0,0
41145,-100,4,2,4,70,0,0
41308,-100,4,1,1,70,0,0
41634,-100,4,2,1,70,0,0
41797,-100,4,2,4,70,0,0
41961,-100,4,2,1,70,0,0
42613,-100,4,2,3,70,0,0
42776,-100,4,2,1,70,0,0
42939,-100,4,2,4,70,0,0
43102,-100,4,2,1,70,0,0
43754,-100,4,1,2,70,0,0
43917,-100,4,2,1,70,0,0
44895,-100,4,1,1,70,0,0
45058,-100,4,2,1,70,0,0
46200,-100,4,1,1,70,0,0
46363,-100,4,2,3,70,0,0
46526,-100,4,2,1,70,0,0
47667,-100,4,1,1,70,0,0
48319,-100,4,2,4,70,0,0
48482,-100,4,2,3,70,0,0
48645,-100,4,2,1,70,0,0
49134,-100,4,1,2,70,0,0
49461,-100,4,2,1,70,0,0
50765,-100,4,2,4,70,0,0
50928,-100,4,2,1,70,0,0
51091,-100,4,2,3,70,0,0
51254,-100,4,2,1,70,0,0
53700,-100,4,2,3,70,0,0
53863,-100,4,2,1,70,0,0
57287,-100,4,2,4,70,0,0
57450,-100,4,2,1,70,0,0
57776,-100,4,1,1,70,0,0
58265,-100,4,2,1,70,0,0
58428,-100,4,2,4,70,0,0
58591,-100,4,2,1,70,0,0
58754,-100,4,2,3,70,0,0
58917,-100,4,2,1,70,0,0
61363,-100,4,2,4,70,0,0
61526,-100,4,2,1,70,0,0
66091,-100,4,2,1,36,0,0
66417,-100,4,2,0,50,0,0
67069,-100,4,2,1,70,0,1
74895,-100,4,2,1,70,0,0
76037,-100,4,1,1,70,0,0
76363,-100,4,2,1,70,0,0
77504,-100,4,1,2,70,0,1
77667,-100,4,2,4,70,0,1
77830,-100,4,2,1,70,0,1
81743,-100,4,2,1,60,0,1
82069,-100,4,2,1,80,0,1
82395,-100,4,2,1,90,0,1
82721,-100,4,1,2,70,0,0
82884,-100,4,2,1,70,0,0
89406,-100,4,2,1,10,0,0

[Colours]
Combo1 : 128,255,0
Combo2 : 128,255,128
Combo3 : 255,255,0
Combo4 : 0,255,128

[HitObjects]
256,192,548,1,0,0:0:0:0:
204,248,874,2,0,B|204:292|204:292|180:332,2,77
256,192,1852,1,0,0:0:0:0:
308,248,2178,2,0,B|308:292|308:292|332:332,2,77
360,192,3156,6,0,P|368:144|296:80,1,154,0|0,0:0|0:0,0:0:0:0:
220,96,4134,2,0,P|172:120|136:112,2,77,0|0|0,0:0|0:0|0:0,0:0:0:0:
295,79,5113,2,0,B|320:88|348:80|348:80|344:88|344:88|376:76|400:84,1,115.5
396,82,5765,1,8,0:0:0:0:
360,191,5928,1,8,0:0:0:0:
512,156,6254,6,0,L|437:136,1,77,8|0,3:0|0:0,0:0:0:0:
360,192,6580,2,0,L|435:212,1,77,4|0,3:0|0:0,0:0:0:0:
444,288,6906,2,0,L|292:248,1,154,4|2,0:0|0:0,0:0:0:0:
295,248,7395,1,8,0:0:0:0:
144,268,7721,6,0,L|160:304,2,38.5,8|8|4,3:0|3:0|3:0,0:0:0:0:
68,264,8047,2,0,P|88:216|184:204,1,154,4|4,3:0|0:0,0:0:0:0:
256,204,8537,2,0,L|256:48,2,154,4|8|0,3:0|0:0|0:0,0:0:0:0:
331,201,9352,2,0,P|405:201|444:264,1,154,8|8,0:0|3:0,0:0:0:0:
368,268,9841,6,0,L|352:304,2,38.5,0|0|4,0:0|0:0|3:0,0:0:0:0:
256,352,10167,2,0,L|256:312,2,38.5,0|0|4,0:0|0:0|3:0,0:0:0:0:
144,268,10493,2,0,L|160:304,2,38.5,0|0|12,0:0|0:0|0:0,0:0:0:0:
36,156,10982,6,0,P|70:183|133:113,1,154,12|8,0:0|0:0,0:0:0:0:
111,36,11471,2,0,B|131:112|131:112|177:173,1,154,2|2,0:0|0:0,0:0:0:0:
335,173,11961,2,0,B|380:112|380:112|400:36,2,154,8|2|8,0:0|0:0|0:0,0:0:0:0:
256,248,12776,1,2,0:0:0:0:
256,248,12939,6,0,L|256:168,1,77,0|2,3:0|0:0,0:0:0:0:
335,173,13265,2,0,P|324:112|244:80,1,154,8|2,0:0|0:0,0:0:0:0:
184,124,13754,1,4,3:0:0:0:
184,124,13917,2,0,P|168:84|180:44,1,77,8|2,0:0|0:0,0:0:0:0:
328,260,14406,2,0,P|344:300|332:340,1,77,2|8,0:0|0:0,0:0:0:0:
204,252,14895,6,0,L|116:276,1,77,2|0,0:0|0:0,0:0:0:0:
204,132,15221,2,0,L|116:108,1,77,8|0,0:0|3:0,0:0:0:0:
40,192,15547,2,0,L|0:192,7,38.5,8|8|8|8|4|4|4|4,0:0|3:0|3:0|3:0|3:0|3:0|3:0|3:0,3:0:0:0:
40,192,16200,6,0,B|120:216|116:164|200:192,1,154,8|0,0:0|0:0,0:0:0:0:
259,239,16689,2,0,P|271:165|219:112,1,154,0|4,3:0|0:0,0:0:0:0:
219,112,17504,6,0,L|300:96,1,77,2|0,0:0|0:0,0:0:0:0:
151,68,17830,2,0,P|136:139|190:189,1,154,0|8,0:0|0:0,0:0:0:0:
268,184,18319,2,0,L|420:148,1,154,2|0,0:0|0:0,0:0:0:0:
464,212,18808,2,0,P|492:176|496:136,1,77,4|0,0:0|0:0,0:0:0:0:
392,228,19134,2,0,P|397:273|423:304,2,77,0|2|0,0:0|0:0|0:0,0:0:0:0:
316,248,19624,2,0,L|166:283,1,154,0|0,3:0|0:0,0:0:0:0:
166,282,20113,6,0,P|178:317|171:355,1,77,4|0,0:0|0:0,0:0:0:0:
100,324,20439,2,0,P|60:292|24:296,2,77,0|2|8,0:0|0:0|0:0,0:0:0:0:
240,372,20928,2,0,P|248:300|208:224,1,154,2|0,0:0|0:0,0:0:0:0:
208,152,21417,2,0,L|288:160,1,77,4|2,0:0|0:0,0:0:0:0:
243,61,21743,2,0,L|316:88,2,77,0|0|2,0:0|0:0|3:0,0:0:0:0:
243,61,22395,1,0,0:0:0:0:
243,61,22721,6,0,P|200:76|168:72,1,77,4|0,0:0|0:0,0:0:0:0:
132,140,23047,2,0,P|96:112|92:80,2,77,0|0|8,0:0|0:0|0:0,0:0:0:0:
208,160,23537,2,0,P|260:144|352:192,1,154,2|0,0:0|0:0,0:0:0:0:
424,192,24026,6,0,L|416:112,1,77,4|0,3:0|0:0,0:0:0:0:
380,252,24352,2,0,L|387:328,1,77,0|2,3:0|0:0,0:0:0:0:
387,328,24841,6,0,P|336:324|300:236,1,154,8|0,0:0|0:0,0:0:0:0:
364,108,25330,2,0,P|368:148|356:188,1,77,4|0,0:0|0:0,0:0:0:0:
200,24,25982,1,8,0:0:0:0:
200,24,26145,2,0,B|176:48|132:36|132:36|136:48|136:48|104:28|68:40,1,154,2|0,0:0|3:0,0:0:0:0:
92,120,26634,6,0,B|104:172|104:172|96:208,1,77,4|2,0:0|0:0,0:0:0:0:
40,244,26961,2,0,B|28:192|28:192|36:156,1,77,8|2,0:0|0:0,0:0:0:0:
108,264,27287,1,8,0:0:0:0:
128,268,27368,1,8,0:0:0:0:
148,272,27450,1,4,3:0:0:0:
168,276,27531,1,4,3:0:0:0:
188,280,27613,2,0,L|268:296,1,77,4|0,0:0|0:0,0:0:0:0:
303,227,27939,6,0,L|237:188,1,77,4|2,0:0|0:0,0:0:0:0:
340,296,28265,2,0,P|384:236|352:164,2,154,8|0|8,0:0|0:0|0:0,3:0:0:0:
388,356,29080,6,0,B|420:336|440:304|440:304|484:292|504:256,1,154,2|2,0:0|0:0,0:0:0:0:
502,258,29569,1,8,0:0:0:0:
449,154,29732,2,0,P|392:172|292:152,1,154
228,128,30221,2,0,L|216:212,1,77,8|0,0:0|0:0,0:0:0:0:
140,208,30547,6,0,L|160:56,1,154,2|8,0:0|0:0,0:0:0:0:
352,56,31200,2,0,L|372:208,1,154,2|8,0:0|0:0,0:0:0:0:
296,196,31689,6,0,P|316:152|412:136,1,154,8|4,3:0|3:0,0:0:0:0:
456,224,32178,2,0,P|436:268|340:284,1,154,8|0,0:0|0:0,0:0:0:0:
256,276,32667,1,2,0:0:0:0:
172,283,32830,2,0,P|98:284|56:224,2,154,8|4|8,0:0|0:0|0:0,0:0:0:0:
172,283,33808,6,8,P|172:244|200:212,2,77,2|2|8,0:0|0:0|0:0,0:0:0:0:
112,332,34297,2,0,P|92:284|120:184,1,154,8|4,3:0|3:0,0:0:0:0:
128,112,34787,2,0,P|200:120|256:68,2,154,8|2|8,0:0|0:0|0:0,0:0:0:0:
176,52,35602,6,0,P|192:124|272:148,1,154,2|2,3:0|0:0,0:0:0:0:
340,148,36091,2,0,P|368:136|416:144,2,77,8|8|0,0:0|3:0|0:0,0:0:0:0:
300,216,36580,1,0,0:0:0:0:
300,216,36743,1,8,0:0:0:0:
261,150,36906,6,0,P|283:82|359:69,1,154,4|0,0:0|0:0,0:0:0:0:
380,216,37395,2,0,L|360:368,1,154,8|8,0:0|0:0,0:0:0:0:
152,368,38047,2,0,L|132:216,1,154,8|6,0:0|3:0,0:0:0:0:
131,215,38537,1,0,0:0:0:0:
131,215,38700,1,12,0:0:0:0:
256,308,39026,6,0,L|256:232,2,77,2|0|8,0:0|0:0|0:0,0:0:0:0:
199,170,39515,2,0,L|180:96,2,77,8|0|2,0:0|0:0|0:0,0:0:0:0:
256,96,40004,1,8,0:0:0:0:
312,170,40167,2,0,L|332:96,2,77,2|0|2,0:0|0:0|0:0,0:0:0:0:
408,116,40656,2,4,B|384:204|384:204|404:276,2,154,8|8|4,0:0|3:0|0:0,0:0:0:0:
472,256,41634,6,0,P|432:192|348:204,1,154,2|8,0:0|0:0,0:0:0:0:
292,228,42124,2,0,L|292:152,1,77,2|0,0:0|0:0,0:0:0:0:
216,148,42450,2,0,L|216:316,2,154,2|0|0,0:0|0:0|0:0,0:0:0:0:
144,180,43265,1,8,0:0:0:0:
148,104,43428,1,0,0:0:0:0:
148,104,43509,1,0,0:0:0:0:
148,104,43591,6,0,P|108:108|80:136,2,77,4|0|0,0:0|0:0|0:0,0:0:0:0:
197,235,44080,2,0,P|126:257|72:208,2,154,8|2|0,0:0|0:0|0:0,0:0:0:0:
303,193,44895,6,0,L|336:344,1,154,12|0,0:0|0:0,0:0:0:0:
412,346,45384,2,0,L|380:196,1,154,8|0,3:0|0:0,0:0:0:0:
303,193,45874,1,4,3:0:0:0:
132,196,46200,6,0,L|96:364,1,154,12|2,0:0|0:0,0:0:0:0:
176,344,46689,2,0,L|208:193,1,154,8|2,0:0|0:0,0:0:0:0:
208,193,47179,1,12,0:0:0:0:
204,40,47504,1,8,0:0:0:0:
204,40,47667,6,0,B|196:96|320:96|312:40,1,154,4|0,0:0|0:0,0:0:0:0:
380,80,48156,2,0,B|360:152|256:184|152:152|136:80,1,308,8|2,3:0|0:0,0:0:0:0:
135,79,48971,1,0,0:0:0:0:
135,79,49134,6,0,P|160:144|152:232,1,154,12|0,0:0|0:0,0:0:0:0:
153,227,49624,1,2,0:0:0:0:
256,344,49950,6,0,P|296:340|324:308,2,77,8|0|2,0:0|0:0|0:0,0:0:0:0:
256,116,50602,2,0,B|240:192|272:192|256:272,2,154,0|2|0,0:0|0:0|0:0,0:0:0:0:
320,72,51417,6,0,P|256:36|192:72,2,154,8|4|0,3:0|0:0|0:0,0:0:0:0:
384,116,52232,2,0,P|400:80|392:40,1,77,2|8,0:0|0:0,0:0:0:0:
464,16,52558,6,0,P|476:92|440:168,1,154,8|8,0:0|3:0,0:0:0:0:
372,196,53047,1,8,0:0:0:0:
372,196,53211,2,0,P|328:184|236:244,2,154,4|4|0,3:0|3:0|0:0,0:0:0:0:
436,236,54026,6,0,L|444:324,2,77,6|0|8,3:0|0:0|0:0,0:0:0:0:
256,352,54678,2,0,L|256:276,2,77,6|2|8,3:0|0:0|0:0,0:0:0:0:
76,236,55330,2,0,L|68:324,2,77,4|2|8,0:0|0:0|0:0,0:0:0:0:
76,236,55982,6,0,P|120:248|184:176,1,154,2|8,0:0|0:0,0:0:0:0:
256,148,56471,1,0,3:0:0:0:
328,175,56634,2,0,P|362:239|436:236,1,154,4|8,0:0|0:0,0:0:0:0:
404,164,57124,2,0,L|324:304,1,154,0|4,0:0|0:0,0:0:0:0:
108,164,57776,2,0,L|188:304,1,154,4|8,0:0|3:0,0:0:0:0:
256,328,58265,6,0,L|256:172,2,154,0|8|8,0:0|0:0|0:0,0:0:0:0:
180,196,59243,6,0,P|176:148|156:124,2,77,4|2|8,0:0|0:0|0:0,0:0:0:0:
256,174,59732,2,0,L|256:92,2,77,0|0|2,0:0|3:0|0:0,0:0:0:0:
332,196,60221,2,0,P|336:148|356:124,2,77,8|2|2,0:0|0:0|0:0,0:0:0:0:
200,272,60711,1,0,0:0:0:0:
200,272,60874,2,8,B|256:324|256:324|313:272,2,154,8|2|8,0:0|0:0|0:0,0:0:0:0:
188,120,61852,6,0,L|169:45,2,77,4|2|8,3:0|0:0|0:0,0:0:0:0:
256,80,62341,2,0,L|256:156,2,77,2|0|2,0:0|3:0|0:0,0:0:0:0:
324,120,62830,2,0,L|342:45,2,77,8|0|8,0:0|0:0|3:0,0:0:0:0:
460,192,63319,1,0,0:0:0:0:
460,192,63482,6,0,P|360:232|480:336,1,308,4|6,3:0|3:0,0:0:0:0:
456,347,64461,1,4,0:0:0:0:
256,192,64624,12,0,66091,3:0:0:0:
360,136,66417,6,0,B|320:136|292:164|292:164|272:124|228:124,1,154,2|0,0:0|0:0,0:0:0:0:
88,192,67069,6,0,P|140:216|192:204,2,77,6|0|8,0:0|0:0|0:0,0:0:0:0:
192,304,67721,2,0,P|248:256|248:176,1,154,2|8,0:0|0:0,0:0:0:0:
212,112,68211,6,0,P|204:72|220:32,2,77,0|2|2,3:0|0:0|0:0,0:0:0:0:
284,80,68700,2,0,P|332:96|432:56,2,154,8|2|8,0:0|0:0|0:0,0:0:0:0:
132,48,69678,6,0,P|136:124|180:192,1,154,2|8,0:0|0:0,0:0:0:0:
380,336,70330,2,0,P|376:260|332:192,1,154,2|8,0:0|0:0,0:0:0:0:
335,195,70819,1,0,0:0:0:0:
264,228,70982,2,0,P|232:248|192:248,2,77,2|0|8,0:0|0:0|0:0,0:0:0:0:
144,308,71471,6,0,P|112:260|160:176,1,154,2|2,0:0|0:0,0:0:0:0:
168,100,71961,2,0,P|216:120|228:144,1,77,8|0,0:0|3:0,0:0:0:0:
304,124,72287,5,4,0:0:0:0:
304,124,72450,2,0,P|344:148|376:144,1,77,0|8,0:0|0:0,0:0:0:0:
440,184,72776,2,0,P|456:132|396:64,1,154,2|2,0:0|0:0,0:0:0:0:
304,124,73265,6,0,P|280:164|280:200,1,77,8|0,0:0|0:0,0:0:0:0:
268,268,73591,2,0,P|272:308|252:344,1,77,2|0,0:0|0:0,0:0:0:0:
340,240,73917,2,0,P|352:300|320:384,1,154,8|0,0:0|3:0,0:0:0:0:
184,252,74406,6,0,P|140:248|104:268,1,77,2|8,0:0|0:0,0:0:0:0:
88,336,74732,1,0,0:0:0:0:
52,212,74895,2,0,P|108:176|200:176,1,154,6|8,0:0|0:0,0:0:0:0:
318,173,75384,2,0,P|394:173|460:212,2,154,8|8|4,0:0|3:0|0:0,0:0:0:0:
336,20,76363,6,0,L|324:96,1,77,2|8,0:0|0:0,0:0:0:0:
176,20,76689,2,0,L|188:96,1,77,0|2,0:0|0:0,0:0:0:0:
256,132,77015,2,0,L|256:56,2,77,8|8|8,0:0|0:0|0:0,0:0:0:0:
256,208,77504,6,0,L|256:364,1,154,12|8,0:0|0:0,0:0:0:0:
188,328,77993,2,0,P|240:284|320:312,1,154,2|2,0:0|0:0,0:0:0:0:
392,288,78482,2,0,P|384:252|392:208,1,77,8|0,0:0|0:0,0:0:0:0:
464,192,78808,6,0,P|436:148|340:152,1,154,2|8,0:0|0:0,0:0:0:0:
169,149,79297,2,0,P|96:136|48:192,1,154,2|2,0:0|0:0,0:0:0:0:
124,208,79787,2,0,P|168:228|244:168,2,154,8|2|8,0:0|0:0|0:0,0:0:0:0:
84,272,80602,2,0,P|152:304|232:292,1,154,2|2,0:0|0:0,0:0:0:0:
288,244,81091,1,8,0:0:0:0:
324,176,81254,1,0,0:0:0:0:
324,176,81336,1,0,0:0:0:0:
324,176,81417,6,0,L|400:192,1,77,2|0,0:0|3:0,0:0:0:0:
367,89,81743,2,0,L|436:124,1,77,8|0,0:0|0:0,0:0:0:0:
437,17,82069,2,0,L|492:72,2,77,8|2|12,0:0|0:0|0:0,0:0:0:0:
292,64,82721,6,0,P|252:96|216:96,2,77,12|2|0,0:0|0:0|0:0,0:0:0:0:
152,80,83211,2,0,P|112:48|76:48,2,77,2|8|0,0:0|0:0|3:0,0:0:0:0:
52,188,83700,2,0,P|81:163|93:128,2,77,0|0|2,0:0|0:0|0:0,0:0:0:0:
64,264,84189,2,0,P|132:224|168:148,1,154,2|2,0:0|0:0,0:0:0:0:
228,204,84678,2,0,L|392:236,1,154,8|0,0:0|0:0,0:0:0:0:
376,156,85167,6,0,P|312:192|440:276,1,308,2|2,0:0|0:0,0:0:0:0:
444,204,85982,6,0,P|460:136|408:76,2,154,8|0|8,0:0|0:0|0:0,0:0:0:0:
376,156,86797,2,0,P|336:176|304:176,1,77,0|8,3:0|0:0,0:0:0:0:
256,116,87124,1,2,0:0:0:0:
207,176,87287,2,0,P|169:174|136:156,2,77,8|8|8,0:0|0:0|0:0,0:0:0:0:
256,192,87776,12,0,89406,0:0:0:0:
