osu file format v12

[General]
AudioFilename: angel.mp3
AudioLeadIn: 0
PreviewTime: 66906
Countdown: 0
SampleSet: Soft
StackLeniency: 0.9
Mode: 0
LetterboxInBreaks: 0
WidescreenStoryboard: 0

[Editor]
Bookmarks: 74907
DistanceSpacing: 1
BeatDivisor: 4
GridSize: 4

[Metadata]
Title:ANGEL
TitleUnicode:ANGEL
Artist:angela
ArtistUnicode:angela
Creator:TaMul
Version:Easy
Source:COPPELION
Tags:TKSalt Habiholic opening TV Size
BeatmapID:316771
BeatmapSetID:124033

[Difficulty]
HPDrainRate:2
CircleSize:3
OverallDifficulty:2
ApproachRate:2
SliderMultiplier:0.84
SliderTickRate:2

[Events]
//Background and Video events
0,0,"coppelion.jpg",0,0
Video,0,"COPPELION - OP.avi"
//Break Periods
//Storyboard Layer 0 (Background)
//Storyboard Layer 1 (Fail)
//Storyboard Layer 2 (Pass)
//Storyboard Layer 3 (Foreground)
//Storyboard Sound Samples
//Background Colour Transformations
3,100,163,162,255

[TimingPoints]
548,326.086956521739,4,2,1,50,1,0
4461,-100,4,2,1,70,0,0
10656,-100,4,1,4,70,0,0
10819,-100,4,2,1,70,0,0
10982,-100,4,1,2,70,0,0
11308,-100,4,2,1,70,0,0
12613,-100,4,2,3,70,0,0
12776,-100,4,2,1,70,0,0
13102,-100,4,2,4,70,0,0
13265,-100,4,2,3,70,0,0
13428,-100,4,2,1,70,0,0
14406,-100,4,2,4,70,0,0
14569,-100,4,2,1,70,0,0
15221,-100,4,2,3,70,0,0
15384,-100,4,2,1,70,0,0
22884,-100,4,2,4,40,0,0
23047,-100,4,2,1,40,0,0
23211,-100,4,2,4,40,0,0
23374,-100,4,2,1,70,0,0
24841,-100,4,2,3,70,0,0
25004,-100,4,2,1,70,0,0
26145,-100,4,2,4,70,0,0
26308,-100,4,2,1,70,0,0
27450,-100,4,2,4,70,0,0
27613,-100,4,1,1,70,0,0
27939,-100,4,2,1,70,0,0
28265,-100,4,2,3,70,0,0
28428,-100,4,2,1,70,0,0
29895,-100,4,2,4,70,0,0
30221,-100,4,2,1,70,0,0
30874,-100,4,2,3,70,0,0
31037,-100,4,2,1,70,0,0
32178,-100,4,2,3,70,0,0
32341,-100,4,2,1,70,0,0
32830,-100,4,2,3,70,0,0
32993,-100,4,2,1,70,0,0
34297,-100,4,2,4,70,0,0
34461,-100,4,2,1,70,0,0
36254,-100,4,2,4,70,0,0
36417,-100,4,2,1,70,0,0
38700,-100,4,1,2,70,0,0
39026,-100,4,2,1,70,0,0
39189,-100,4,2,4,70,0,0
39352,-100,4,2,1,70,0,0
39515,-100,4,2,3,70,0,0
39678,-100,4,2,1,70,0,0
40004,-100,4,2,3,70,0,0
40167,-100,4,2,1,70,0,0
41634,-100,4,2,4,70,0,0
41961,-100,4,2,1,70,0,0
42124,-100,4,2,4,70,0,0
42287,-100,4,2,1,70,0,0
42450,-100,4,2,4,70,0,0
42613,-100,4,2,1,70,0,0
43754,-100,4,1,1,70,0,0
48156,-100,4,2,1,70,0,0
49134,-100,4,1,2,70,0,0
49461,-100,4,2,4,70,0,0
49787,-100,4,2,1,70,0,0
50439,-100,4,2,3,70,0,0
50602,-100,4,2,1,70,0,0
50928,-100,4,2,4,70,0,0
51091,-100,4,2,3,70,0,0
51254,-100,4,2,1,70,0,0
52069,-100,4,2,4,70,0,0
52395,-100,4,2,1,70,0,0
52884,-100,4,2,4,70,0,0
53047,-100,4,2,1,70,0,0
53537,-100,4,2,4,70,0,0
53700,-100,4,2,1,70,0,0
54352,-100,4,2,3,70,0,0
54515,-100,4,2,1,70,0,0
55004,-100,4,2,3,70,0,0
55167,-100,4,2,1,70,0,0
56308,-100,4,2,3,70,0,0
56471,-100,4,2,1,70,0,0
56961,-100,4,2,3,70,0,0
57124,-100,4,2,1,70,0,0
59569,-100,4,2,3,70,0,0
59732,-100,4,2,1,70,0,0
59895,-100,4,2,4,70,0,0
60221,-100,4,2,1,70,0,0
60874,-100,4,2,3,70,0,0
61037,-100,4,2,1,70,0,0
62178,-100,4,2,3,70,0,0
62341,-100,4,2,1,70,0,0
66417,-100,4,2,0,70,0,0
67069,-100,4,2,1,70,0,1
67884,-100,4,2,4,70,0,1
68047,-100,4,2,1,70,0,1
69189,-100,4,2,4,70,0,1
69352,-100,4,2,1,70,0,1
70493,-100,4,2,4,70,0,1
70656,-100,4,2,3,70,0,1
70819,-100,4,2,1,70,0,1
71308,-100,4,2,3,70,0,1
71471,-100,4,2,4,70,0,1
71634,-100,4,2,1,70,0,1
72613,-100,4,2,3,70,0,1
72776,-100,4,2,1,70,0,1
73265,-100,4,2,3,70,0,1
73428,-100,4,2,1,70,0,1
74895,-100,4,1,1,70,0,0
77015,-100,4,2,1,70,0,0
77178,-100,4,2,3,70,0,0
77504,-100,4,1,2,70,0,1
77830,-100,4,2,1,70,0,1
78156,-100,4,2,4,70,0,1
78482,-100,4,2,1,70,0,1
78808,-100,4,2,4,70,0,1
78971,-100,4,2,1,70,0,1
80439,-100,4,2,3,70,0,1
80602,-100,4,2,1,70,0,1
82721,-100,4,2,1,70,0,0
85982,-100,4,2,3,70,0,0
86145,-100,4,2,1,70,0,0
89406,-100,4,2,1,10,0,0

[Colours]
Combo1 : 128,255,0
Combo2 : 128,255,128
Combo3 : 255,255,0
Combo4 : 0,255,128

[HitObjects]
100,116,548,6,0,L|92:204,1,84
176,196,1200,2,0,L|183:112,2,84
256,344,2504,1,0,0:0:0:0:
336,196,3156,6,0,L|328:112,1,84
412,116,3808,2,0,L|419:199,2,84
372,40,4787,6,0,P|304:24|244:96,1,168
248,176,5765,2,0,L|200:172,1,42,2|8,0:0|0:0,0:0:0:0:
48,312,6743,6,0,P|72:300|88:280,1,42,0|4,0:0|0:0,0:0:0:0:
208,284,7395,2,0,P|232:308|360:320,1,168,8|0,0:0|0:0,0:0:0:0:
436,288,8374,2,0,P|424:264|400:248,1,42,2|0,0:0|0:0,0:0:0:0:
340,208,8863,6,0,P|360:180|364:84,1,126,8|8,0:0|0:0,0:0:0:0:
432,40,9678,2,0,P|448:80|436:208,2,168,8|4|12,3:0|3:0|0:0,0:0:0:0:
352,8,11308,5,8,0:0:0:0:
256,144,11961,1,8,0:0:0:0:
184,100,12287,2,0,P|220:64|324:92,2,168,2|0|2,0:0|0:0|0:0,0:0:0:0:
168,184,13917,2,0,P|204:260|160:328,1,168,8|8,0:0|0:0,0:0:0:0:
116,256,14895,6,0,B|156:296|240:204|284:256,1,168,0|8,3:0|3:0,0:0:0:0:
356,228,15874,2,0,P|392:248|444:244,1,84,4|0,3:0|3:0,0:0:0:0:
100,264,17504,6,0,L|12:248,2,84,4|2|8,0:0|0:0|0:0,0:0:0:0:
256,196,18808,2,0,L|256:112,1,84,2|2,0:0|0:0,0:0:0:0:
336,84,19461,2,0,L|336:252,2,168,8|2|8,0:0|0:0|0:0,0:0:0:0:
464,192,21417,6,0,P|424:164|312:180,1,168,2|0,0:0|3:0,0:0:0:0:
256,244,22395,1,0,0:0:0:0:
200,180,22721,2,0,P|121:155|48:192,1,168,4|8,0:0|0:0,0:0:0:0:
184,292,24026,5,2,0:0:0:0:
256,244,24352,1,0,0:0:0:0:
328,292,24678,2,0,B|356:256|340:212|340:212|380:236|424:208,1,168,0|2,0:0|0:0,0:0:0:0:
476,52,25982,2,0,P|428:48|380:148,1,168,8|4,0:0|0:0,0:0:0:0:
296,120,26961,2,4,L|204:132,2,84,8|8|4,0:0|0:0|0:0,0:0:0:0:
296,204,27939,6,0,L|120:228,1,168,6|0,0:0|0:0,0:0:0:0:
52,192,28917,1,8,0:0:0:0:
64,276,29243,1,0,0:0:0:0:
128,226,29569,2,0,P|120:136|56:104,1,168,8|8,0:0|0:0,0:0:0:0:
52,192,30547,6,0,P|88:152|192:172,1,168,2|0,0:0|0:0,0:0:0:0:
256,224,31526,1,8,0:0:0:0:
321,170,31852,2,0,P|396:142|460:192,2,168,0|0|4,0:0|0:0|0:0,0:0:0:0:
256,224,33482,1,8,0:0:0:0:
379,326,34134,6,0,P|360:244|321:170,1,168,8|8,0:0|0:0,0:0:0:0:
256,120,35113,1,2,0:0:0:0:
190,170,35439,2,0,P|151:244|132:326,2,168,8|8|8,0:0|0:0|0:0,0:0:0:0:
256,120,37069,6,0,L|256:32,2,84,2|8|8,0:0|0:0|0:0,0:0:0:0:
256,204,38047,1,8,0:0:0:0:
328,164,38374,2,0,P|368:148|408:164,1,84,2|12,0:0|0:0,0:0:0:0:
368,236,39026,6,0,P|452:240|496:176,2,168,2|0|2,0:0|0:0|0:0,0:0:0:0:
296,280,40656,2,0,B|256:268|256:268|212:280,1,84,8|8,0:0|3:0,0:0:0:0:
144,236,41308,2,0,P|60:240|16:176,2,168,4|8|8,0:0|0:0|0:0,0:0:0:0:
105,158,42939,5,0,3:0:0:0:
136,80,43265,1,8,0:0:0:0:
220,68,43591,2,0,P|244:80|272:80,1,42,2|4,0:0|0:0,0:0:0:0:
332,124,44080,2,0,P|384:104|444:136,1,126,8|4,3:0|3:0,0:0:0:0:
380,196,44895,1,4,0:0:0:0:
332,312,45384,6,0,B|340:276|340:276|292:252|296:200,1,126,8|4,3:0|3:0,0:0:0:0:
216,240,46200,2,0,P|176:224|96:244,2,126,4|8|4,0:0|3:0|3:0,0:0:0:0:
238,160,47504,2,0,P|264:152|280:140,1,42,0|4,0:0|0:0,0:0:0:0:
144,60,48156,6,0,P|180:80|224:80,2,84,8|8|4,0:0|3:0|3:0,0:0:0:0:
84,116,49134,2,0,P|128:148|240:160,1,168,12|8,0:0|0:0,0:0:0:0:
304,108,50113,2,0,P|340:80|452:104,2,168,0|0|8,0:0|0:0|3:0,0:0:0:0:
320,192,51743,6,0,P|344:236|328:352,1,168,4|8,0:0|0:0,0:0:0:0:
256,308,52721,2,0,L|176:332,1,84,0|8,0:0|0:0,0:0:0:0:
132,260,53374,2,0,L|212:236,1,84,0|8,0:0|0:0,0:0:0:0:
172,160,54026,6,0,L|0:216,2,168,4|2|2,0:0|0:0|0:0,0:0:0:0:
256,136,55656,1,8,0:0:0:0:
340,160,55982,2,0,L|512:216,2,168,6|2|2,0:0|0:0|0:0,0:0:0:0:
256,136,57613,5,8,0:0:0:0:
272,220,57939,2,0,P|280:260|268:304,1,84,8|0,3:0|0:0,0:0:0:0:
192,264,58591,2,0,P|168:292|111:304,1,84,4|0,3:0|3:0,0:0:0:0:
120,224,59243,6,0,P|148:184|28:176,1,252,4|8,0:0|0:0,0:0:0:0:
40,256,60547,2,0,P|76:300|180:284,1,168,2|2,0:0|0:0,0:0:0:0:
256,256,61526,1,8,0:0:0:0:
334,286,61852,6,0,P|411:309|472:256,1,168,6|2,0:0|0:0,0:0:0:0:
416,192,62830,1,8,0:0:0:0:
471,127,63156,6,0,P|440:108|392:112,1,84,8|0,3:0|0:0,0:0:0:0:
320,148,63808,2,0,P|288:160|240:144,2,84,4|0|12,3:0|0:0|0:0,0:0:0:0:
256,192,64787,12,2,66417,0:0:0:0:
92,100,67069,6,0,L|100:184,1,84,4|8,0:0|0:0,0:0:0:0:
180,160,67721,2,0,L|172:76,1,84,2|8,0:0|0:0,0:0:0:0:
256,84,68374,1,2,0:0:0:0:
340,76,68700,2,0,L|332:160,2,84,8|2|8,0:0|0:0|0:0,0:0:0:0:
420,100,69678,2,0,L|412:184,1,84,2|8,0:0|0:0,0:0:0:0:
352,240,70330,6,0,P|436:264|488:212,2,168,2|2|2,0:0|0:0|0:0,0:0:0:0:
256,204,71961,1,8,0:0:0:0:
160,240,72287,2,0,P|76:264|20:212,2,168,4|2|2,0:0|0:0|0:0,0:0:0:0:
100,184,73917,1,8,0:0:0:0:
184,324,74569,6,0,P|232:320|272:336,1,84,8|8,0:0|3:0,0:0:0:0:
349,332,75221,2,0,L|340:292,1,42,4|0,3:0|0:0,0:0:0:0:
412,248,75711,2,0,L|431:329,1,84,4|4,3:0|0:0,0:0:0:0:
256,52,77015,6,0,B|244:84|260:116|260:116|252:116|252:116|272:152|256:184,1,126,8|12,0:0|0:0,0:0:0:0:
180,164,77830,2,0,P|136:144|32:196,2,168,8|8|8,0:0|0:0|0:0,0:0:0:0:
256,316,79787,1,8,0:0:0:0:
328,364,80113,6,0,P|344:284|284:232,1,168,2|2,0:0|0:0,0:0:0:0:
200,232,81091,2,0,P|160:260|124:260,1,84,8|2,0:0|0:0,0:0:0:0:
132,176,81743,2,0,P|172:148|208:148,1,84,8|8,0:0|0:0,0:0:0:0:
260,84,82395,1,8,0:0:0:0:
288,164,82721,6,0,P|340:112|320:24,1,168,6|8,0:0|0:0,0:0:0:0:
192,136,84026,2,0,P|152:168|36:164,1,168,2|8,0:0|0:0,0:0:0:0:
48,332,85330,6,0,P|128:356|80:260,1,252,4|2,0:0|0:0,0:0:0:0:
100,180,86634,2,0,P|164:196|224:276,1,168,8|8,0:0|0:0,0:0:0:0:
304,296,87613,2,0,P|324:280|356:272,1,42,8|4,0:0|0:0,0:0:0:0:
256,192,87939,12,0,89406,0:0:0:0:
