osu file format v14

[General]
AudioFilename: audio.mp3
AudioLeadIn: 0
PreviewTime: 6111
Countdown: 1
SampleSet: Soft
StackLeniency: 0.5
Mode: 0
LetterboxInBreaks: 0
WidescreenStoryboard: 1

[Editor]
Bookmarks: 7927,22927,37927,56795,79177,86677,101677
DistanceSpacing: 1
BeatDivisor: 4
GridSize: 16
TimelineZoom: 1.4

[Metadata]
Title:Platinum Groove
TitleUnicode:Platinum Groove
Artist:android52
ArtistUnicode:android52
Creator:Sinnoh
Version:Normal Normal Normal Normal
Source:偽物語
Tags:pishifat pishifat pishifat pishifat nisemonogatari nisemonogatari nisemonogatari nisemonogatari disco disco disco disco araragi araragi araragi araragi tsukihi tsukihi tsukihi tsukihi iguchi iguchi iguchi iguchi yuka yuka yuka yuka anime anime anime anime remix remix remix remix
BeatmapID:1778030
BeatmapSetID:848144

[Difficulty]
HPDrainRate:4
CircleSize:3
OverallDifficulty:5
ApproachRate:5
SliderMultiplier:1.6
SliderTickRate:1

[Events]
//Background and Video events
0,0,"XuMzz5a.png",0,0
//Break Periods
2,38245,44345
//Storyboard Layer 0 (Background)
//Storyboard Layer 1 (Fail)
//Storyboard Layer 2 (Pass)
//Storyboard Layer 3 (Foreground)
//Storyboard Sound Samples

[TimingPoints]
545,468.75,4,2,0,55,1,0
545,-125,4,2,0,55,0,0
6170,-100,4,2,0,55,0,0
38045,-100,4,2,0,35,0,0
45545,-133.333333333333,4,2,0,55,0,0
49295,-133.333333333333,4,2,0,55,0,0
49763,-100,4,2,0,55,0,0
56795,-100,4,2,0,90,0,1
71326,-100,4,2,0,90,0,0
71795,-100,4,2,0,90,0,1
86795,-100,4,2,0,75,0,0

[Colours]
Combo1 : 255,128,64
Combo2 : 255,128,255
Combo3 : 85,170,255
Combo4 : 0,255,128

[HitObjects]
67,74,545,6,0,L|218:58,1,128,4|2,0:0|0:3,0:0:0:0:
222,132,1248,1,0,0:0:0:0:
222,132,1482,2,0,L|373:148,1,128,4|2,0:0|0:3,0:0:0:0:
408,96,2185,5,0,0:0:0:0:
408,96,2420,2,0,L|424:247,1,128,4|2,0:0|1:3,0:0:0:0:
345,238,3123,1,0,0:0:0:0:
345,238,3357,2,0,L|329:389,1,128,4|2,0:0|1:3,0:0:0:0:
179,342,4295,6,0,L|92:332,1,64,4|0,0:0|0:0,0:0:0:0:
146,260,4763,2,0,L|67:220,1,64,4|0,0:0|0:0,0:0:0:0:
145,170,5232,2,0,L|84:106,1,64,4|0,0:0|0:0,0:0:0:0:
181,89,5701,2,0,L|146:8,1,64,4|0,0:0|0:0,0:0:0:0:
253,31,6170,5,4,0:0:0:0:
332,47,6404,1,2,0:0:0:0:
410,68,6638,2,0,P|428:131|422:170,1,80,4|2,0:0|0:3,0:0:0:0:
371,202,7107,2,0,P|353:265|359:304,1,80,4|2,0:0|0:0,0:0:0:0:
360,358,7576,1,2,1:3:0:0:
213,311,8045,6,0,L|120:299,1,80,4|2,0:1|0:0,0:0:0:0:
50,281,8513,2,0,L|138:254,1,80,2|2,1:3|0:0,0:0:0:0:
139,169,8982,2,0,L|133:76,1,80,4|2,0:3|0:0,0:0:0:0:
139,3,9450,2,0,L|180:85,1,80,2|2,1:3|0:0,0:0:0:0:
262,64,9920,6,0,P|310:58|346:63,1,80,4|2,0:3|0:0,0:0:0:0:
412,98,10388,2,0,P|446:132|464:163,1,80,2|2,1:3|0:0,0:0:0:0:
373,203,10857,2,0,P|324:208|291:222,1,80,4|2,0:3|0:0,0:0:0:0:
235,274,11325,2,0,P|209:315|199:350,1,80,2|2,1:3|0:0,0:0:0:0:
298,346,11795,5,4,0:3:0:0:
218,193,12263,1,2,1:3:0:0:
104,299,12732,1,4,0:3:0:0:
72,142,13201,1,2,1:3:0:0:
178,22,13670,6,0,P|253:34|286:48,1,80,4|2,0:3|0:0,0:0:0:0:
302,100,14138,2,0,P|392:117|472:111,2,160,2|4|2,1:3|0:3|1:3,0:0:0:0:
227,133,15310,1,2,0:3:0:0:
162,190,15545,6,0,L|158:295,1,80,4|2,0:1|0:0,0:0:0:0:
119,337,16013,2,0,L|173:278,1,80,2|2,1:3|0:0,0:0:0:0:
263,288,16482,2,0,L|364:315,1,80,4|2,0:3|0:0,0:0:0:0:
403,363,16950,2,0,L|357:297,1,80,2|2,1:3|0:0,0:0:0:0:
386,215,17420,6,0,P|399:178|406:113,1,80,4|2,0:3|0:0,0:0:0:0:
326,132,17888,2,0,P|312:95|275:41,1,80,2|0,1:3|0:0,0:0:0:0:
224,115,18357,2,0,P|192:92|131:69,1,80,4|2,0:3|0:0,0:0:0:0:
129,151,18825,2,0,P|90:153|28:175,1,80,2|2,1:3|0:0,0:0:0:0:
73,254,19295,5,4,0:3:0:0:
212,331,19763,1,2,1:3:0:0:
328,221,20232,1,4,0:3:0:0:
279,68,20701,1,2,1:3:0:0:
119,83,21170,6,0,P|119:146|201:194,1,160,4|2,0:3|1:3,0:0:0:0:
344,138,22107,2,0,P|396:147|433:164,1,80,4|2,0:3|0:0,0:0:0:0:
435,236,22576,1,2,1:3:0:0:
304,329,23045,6,0,P|214:318|133:291,1,160,6|0,0:0|1:0,0:0:0:0:
98,234,23748,1,2,0:0:0:0:
98,234,23982,2,0,P|103:142|146:65,1,160,4|0,0:3|1:3,0:0:0:0:
209,60,24685,1,2,0:0:0:0:
209,60,24920,2,0,P|286:83|376:74,1,160,4|0,0:3|1:0,0:0:0:0:
443,60,25623,1,2,0:0:0:0:
443,60,25857,2,0,L|434:246,1,160,4|0,0:3|1:0,0:0:0:0:
328,339,26795,6,0,L|229:315,1,80,4|2,0:3|0:0,0:0:0:0:
230,242,27263,2,0,L|144:253,1,80,0|2,1:0|0:0,0:0:0:0:
71,265,27732,2,0,L|57:166,1,80,4|0,0:3|0:0,0:0:0:0:
126,141,28201,2,0,L|140:42,1,80,0|2,1:0|0:0,0:0:0:0:
216,48,28670,6,0,P|299:43|380:104,1,160,4|0,0:3|1:0,0:0:0:0:
316,146,29372,1,2,0:0:0:0:
258,201,29607,2,0,P|256:248|271:289,1,80,4|2,0:3|3:2,0:0:0:0:
333,321,30076,1,0,1:0:0:0:
418,316,30310,5,2,0:0:0:0:
418,316,30545,2,0,L|428:129,1,160,4|0,0:0|1:0,0:0:0:0:
382,88,31248,1,2,0:0:0:0:
382,88,31482,2,0,P|289:63|214:78,1,160,4|0,0:3|1:0,0:0:0:0:
157,111,32185,1,2,0:0:0:0:
157,111,32420,2,0,P|169:182|119:274,1,160,4|0,0:3|1:0,0:0:0:0:
73,313,33123,1,2,0:0:0:0:
73,313,33357,2,0,P|168:291|241:308,1,160,4|0,0:3|1:0,0:0:0:0:
374,368,34295,6,0,P|455:367|520:293,2,160,4|0|4,0:3|1:0|0:3,0:0:0:0:
307,323,35466,1,2,0:0:0:0:
301,242,35701,1,0,1:0:0:0:
381,103,36170,2,0,P|477:102|492:103,2,80,4|2|0,0:3|0:0|1:0,0:0:0:0:
302,117,36872,1,2,0:0:0:0:
226,142,37107,2,0,P|201:231|202:302,1,160,4|0,0:3|3:0,0:0:0:0:
340,350,38045,1,0,3:0:0:0:
174,71,45545,6,0,P|304:92|317:93,1,120.000004577637,4|0,3:2|1:1,0:0:0:0:
412,87,46482,2,0,P|433:161|425:222,1,120.000004577637,0|0,1:0|1:0,0:0:0:0:
358,299,47419,2,0,P|272:299|227:294,1,120.000004577637,0|0,1:0|1:0,0:0:0:0:
219,176,48357,2,0,P|133:176|88:181,1,120.000004577637,0|0,1:0|1:0,0:0:0:0:
79,310,49295,5,0,1:0:0:0:
79,310,49763,2,0,L|182:303,1,80,4|0,0:0|0:0,0:0:0:0:
242,301,50232,1,0,1:0:0:0:
242,301,50701,2,0,L|237:203,1,80,4|0,0:0|0:0,0:0:0:0:
237,140,51170,2,0,P|300:116|402:113,1,160,0|0,1:0|1:0,0:0:0:0:
400,271,52107,2,0,P|320:275|243:256,1,160,0|0,1:0|1:0,0:0:0:0:
256,192,53045,12,0,54920,1:0:0:0:
161,42,56326,5,8,0:3:0:0:
161,42,56795,6,0,P|230:19|266:19,1,80,4|2,0:1|0:0,0:0:0:0:
242,98,57263,2,0,P|314:99|348:112,1,80,2|2,1:3|0:0,0:0:0:0:
292,176,57732,2,0,P|359:202|387:225,1,80,4|2,0:3|0:0,0:0:0:0:
307,262,58201,2,0,P|361:310|379:341,1,80,2|8,1:3|0:3,0:0:0:0:
303,366,58670,6,0,L|200:377,1,80,4|2,0:3|0:0,0:0:0:0:
192,300,59138,2,0,L|91:275,1,80,2|2,1:3|0:0,0:0:0:0:
122,200,59607,2,0,L|36:142,1,80,4|2,0:3|0:0,0:0:0:0:
93,84,60076,2,0,L|31:0,1,80,2|8,1:3|0:3,0:0:0:0:
136,0,60545,5,4,0:3:0:0:
289,29,61013,1,2,1:3:0:0:
225,175,61482,1,4,0:3:0:0:
383,194,61951,1,2,1:3:0:0:
326,343,62420,2,0,P|229:347|140:326,3,160,4|2|4|2,0:3|1:3|0:3|1:3,0:0:0:0:
99,190,64295,6,0,P|168:172|193:169,1,80,4|2,0:1|0:0,0:0:0:0:
185,95,64763,2,0,P|256:102|280:108,1,80,2|2,1:3|0:0,0:0:0:0:
308,41,65232,2,0,P|369:78|389:93,1,80,4|2,0:3|0:0,0:0:0:0:
441,41,65701,2,0,P|480:100|492:122,1,80,2|8,1:3|0:3,0:0:0:0:
413,153,66170,6,0,P|403:206|406:256,1,80,4|2,0:3|0:0,0:0:0:0:
318,183,66638,2,0,P|322:236|338:284,1,80,2|2,1:3|0:0,0:0:0:0:
238,244,67107,2,0,P|256:294|284:336,1,80,4|2,0:3|0:0,0:0:0:0:
175,321,67576,2,0,P|205:365|243:398,1,80,2|8,1:3|0:3,0:0:0:0:
116,384,68045,5,4,0:3:0:0:
58,231,68513,1,2,1:3:0:0:
209,186,68982,1,4,0:3:0:0:
157,29,69451,1,2,1:3:0:0:
316,15,69920,2,0,P|423:30|490:49,2,160,4|2|4,0:3|1:3|0:3,0:0:0:0:
157,39,71326,1,2,1:3:0:0:
137,116,71560,1,2,1:3:0:0:
124,195,71795,6,0,P|127:263|139:308,1,80,4|2,0:1|0:0,0:0:0:0:
208,226,72263,2,0,P|234:288|260:327,1,80,2|2,1:3|0:0,0:0:0:0:
300,234,72732,2,0,P|346:284|384:310,1,80,4|2,0:3|0:0,0:0:0:0:
397,220,73201,2,0,P|457:251|502:263,1,80,2|8,1:3|0:3,0:0:0:0:
435,147,73670,6,0,P|482:129|513:124,1,80,4|2,0:3|0:0,0:0:0:0:
369,100,74138,2,0,P|407:67|434:51,1,80,2|2,1:3|0:0,0:0:0:0:
290,77,74607,2,0,P|314:33|334:9,1,80,4|2,0:3|0:0,0:0:0:0:
205,80,75076,2,0,P|212:30|224:0,1,80,2|8,1:3|0:3,0:0:0:0:
123,96,75545,5,4,0:3:0:0:
81,246,76013,1,2,1:3:0:0:
234,289,76482,1,4,0:3:0:0:
275,134,76951,1,2,1:3:0:0:
431,165,77420,2,0,P|424:242|393:335,3,160,4|2|4|2,0:3|1:3|0:3|1:3,0:0:0:0:
248,267,79295,6,0,L|146:256,3,80,4|2|2|2,0:1|0:0|1:3|0:0,0:0:0:0:
134,330,80232,2,0,L|32:319,3,80,4|2|2|2,0:1|0:0|1:3|0:0,0:0:0:0:
39,242,81170,6,0,L|36:146,3,80,4|2|2|2,0:1|0:0|1:3|0:0,0:0:0:0:
113,142,82107,2,0,L|110:62,3,80,4|2|2|0,0:1|0:0|1:3|0:0,0:0:0:0:
184,33,83045,6,0,B|260:50|260:50|293:141,1,160,4|2,0:1|1:3,0:0:0:0:
227,177,83747,1,2,0:0:0:0:
227,177,83982,2,0,B|254:253|254:253|331:270,1,160,4|2,0:1|1:3,0:0:0:0:
400,230,84685,1,2,0:0:0:0:
400,230,84920,6,0,L|411:133,1,80,2|0,1:3|0:0,0:0:0:0:
332,128,85388,2,0,L|316:33,1,80,2|0,1:3|0:0,0:0:0:0:
240,33,85857,2,0,P|162:46|110:117,1,160,2|2,1:3|1:3,0:0:0:0:
130,184,86560,1,2,1:3:0:0:
159,258,86795,6,0,P|231:270|333:280,1,160,4|2,0:0|1:3,0:0:0:0:
344,121,87732,2,0,P|422:107|502:99,1,160,4|2,0:3|1:3,0:0:0:0:
508,259,88670,2,0,P|453:286|424:292,1,80,4|2,0:3|0:0,0:0:0:0:
369,244,89138,2,0,P|307:248|279:257,1,80,2|2,1:3|0:0,0:0:0:0:
229,304,89607,1,4,0:3:0:0:
163,257,89841,1,4,0:0:0:0:
83,243,90076,1,4,0:0:0:0:
160,100,90545,6,0,P|243:78|335:70,1,160,4|2,0:3|1:3,0:0:0:0:
438,174,91482,2,0,P|429:253|408:330,1,160,4|2,0:3|1:3,0:0:0:0:
251,296,92420,2,0,L|162:280,1,80,4|2,0:3|0:0,0:0:0:0:
125,217,92888,2,0,L|141:128,1,80,2|2,1:3|0:0,0:0:0:0:
155,59,93357,1,4,0:3:0:0:
233,71,93591,1,4,0:0:0:0:
273,139,93826,1,4,0:0:0:0:
417,107,94295,6,0,L|437:290,1,160,4|2,0:3|1:3,0:0:0:0:
292,339,95232,2,0,L|127:324,1,160,4|2,0:3|1:3,0:0:0:0:
37,195,96170,2,0,P|50:137|72:102,1,80,4|2,0:3|0:0,0:0:0:0:
133,148,96638,2,0,P|180:111|219:99,1,80,2|2,1:3|0:0,0:0:0:0:
264,151,97107,2,0,P|313:155|416:114,1,160,4|2,0:3|1:3,0:0:0:0:
401,36,97810,1,2,0:0:0:0:
323,16,98045,1,4,0:3:0:0:
164,36,98513,6,0,L|160:131,1,80,4|0,0:0|0:0,0:0:0:0:
156,196,98982,1,4,0:3:0:0:
315,201,99451,6,0,L|319:296,1,80,4|0,0:0|0:0,0:0:0:0:
323,361,99920,1,4,0:3:0:0:
163,361,100388,1,2,1:3:0:0:
239,220,100857,1,4,0:3:0:0:
256,192,101795,12,4,104607,0:3:0:0:
