osu file format v14

[General]
AudioFilename: audio.mp3
AudioLeadIn: 0
PreviewTime: 6111
Countdown: 1
SampleSet: Soft
StackLeniency: 0.2
Mode: 0
LetterboxInBreaks: 0
WidescreenStoryboard: 1

[Editor]
Bookmarks: 7927,22927,37927,56795,79177,86677,101677
DistanceSpacing: 2
BeatDivisor: 4
GridSize: 16
TimelineZoom: 1.4

[Metadata]
Title:Platinum Groove
TitleUnicode:Platinum Groove
Artist:android52
ArtistUnicode:android52
Creator:Sinnoh
Version:Insane Insane Insane Insane
Source:偽物語
Tags:pishifat pishifat pishifat pishifat nisemonogatari nisemonogatari nisemonogatari nisemonogatari disco disco disco disco araragi araragi araragi araragi tsukihi tsukihi tsukihi tsukihi iguchi iguchi iguchi iguchi yuka yuka yuka yuka anime anime anime anime remix remix remix remix
BeatmapID:1773631
BeatmapSetID:848144

[Difficulty]
HPDrainRate:6
CircleSize:4.5
OverallDifficulty:8
ApproachRate:8
SliderMultiplier:2
SliderTickRate:1

[Events]
//Background and Video events
0,0,"XuMzz5a.png",0,0
//Break Periods
//Storyboard Layer 0 (Background)
//Storyboard Layer 1 (Fail)
//Storyboard Layer 2 (Pass)
//Storyboard Layer 3 (Foreground)
//Storyboard Sound Samples

[TimingPoints]
545,468.75,4,2,0,55,1,0
545,-200,4,2,0,55,0,0
1482,-166.666666666667,4,2,0,55,0,0
2420,-142.857142857143,4,2,0,55,0,0
3357,-125,4,2,0,55,0,0
4295,-100,4,2,0,55,0,0
6873,-66.6666666666667,4,2,0,55,0,0
7107,-100,4,2,0,55,0,0
7341,-76.9230769230769,4,2,0,55,0,0
8045,-76.923076923077,4,2,0,55,0,0
21873,-133.333333333333,4,2,0,55,0,0
22107,-76.9230769230769,4,2,0,55,0,0
22341,-66.6666666666667,4,2,0,55,0,0
22576,-76.9230769230769,4,2,0,55,0,0
23045,-83.3333333333333,4,2,0,55,0,0
25857,-76.9230769230769,4,2,0,55,0,0
26209,-83.3333333333333,4,2,0,55,0,0
27263,-90.9090909090909,4,2,0,55,0,0
27732,-83.3333333333333,4,2,0,55,0,0
28201,-76.9230769230769,4,2,0,55,0,0
28670,-83.3333333333333,4,2,0,55,0,0
33357,-76.9230769230769,4,2,0,55,0,0
33826,-83.3333333333333,4,2,0,55,0,0
37341,-111.111111111111,4,2,0,55,0,0
37576,-142.857142857143,4,2,0,55,0,0
38045,-250,4,2,0,25,0,0
41795,-200,4,2,0,25,0,0
43670,-166.666666666667,4,2,0,25,0,0
45545,-142.857142857143,4,2,0,25,0,0
47420,-125,4,2,0,25,0,0
48357,-111.111111111111,4,2,0,35,0,0
49295,-99.9999999999999,4,2,0,45,0,0
50232,-90.9090909090909,4,2,0,55,0,0
51638,-83.3333333333333,4,2,0,55,0,0
52107,-76.9230769230769,4,2,0,55,0,0
52576,-71.4285714285714,4,2,0,55,0,0
53045,-83.3333333333333,4,2,0,55,0,0
53630,-76.9230769230769,4,2,0,55,0,0
54099,-71.4285714285714,4,2,0,55,0,0
54568,-66.6666666666667,4,2,0,55,0,0
56091,-83.3333333333333,4,2,0,55,0,0
56795,-58.8235294117647,4,2,0,90,0,1
60896,-58.8235294117647,4,2,0,40,0,1
61013,-58.8235294117647,4,2,0,90,0,1
61365,-58.8235294117647,4,2,0,40,0,1
61482,-58.8235294117647,4,2,0,90,0,1
61834,-58.8235294117647,4,2,0,40,0,1
61951,-58.8235294117647,4,2,0,90,0,1
62302,-58.8235294117647,4,2,0,40,0,1
62420,-58.8235294117647,4,2,0,90,0,1
68396,-58.8235294117647,4,2,0,40,0,1
68513,-58.8235294117647,4,2,0,90,0,1
68865,-58.8235294117647,4,2,0,40,0,1
68982,-58.8235294117647,4,2,0,90,0,1
69334,-58.8235294117647,4,2,0,40,0,1
69451,-58.8235294117647,4,2,0,90,0,1
69802,-58.8235294117647,4,2,0,40,0,1
69920,-58.8235294117647,4,2,0,90,0,1
71326,-58.8235294117647,4,2,0,90,0,0
71795,-58.8235294117647,4,2,0,90,0,1
75896,-58.8235294117647,4,2,0,40,0,1
76013,-58.8235294117647,4,2,0,90,0,1
76365,-58.8235294117647,4,2,0,40,0,1
76482,-58.8235294117647,4,2,0,90,0,1
76834,-58.8235294117647,4,2,0,40,0,1
76951,-58.8235294117647,4,2,0,90,0,1
77302,-58.8235294117647,4,2,0,40,0,1
77420,-58.8235294117647,4,2,0,90,0,1
86795,-76.9230769230769,4,2,0,75,0,0
89841,-58.8235294117647,4,2,0,75,0,0
90076,-58.8235294117647,4,2,0,75,0,0
90545,-76.923076923077,4,2,0,75,0,0
93591,-58.8235294117647,4,2,0,75,0,0
94295,-76.9230769230769,4,2,0,75,0,0
98513,-58.8235294117647,4,2,0,75,0,0
101091,-100,4,2,0,75,0,0

[Colours]
Combo1 : 255,128,64
Combo2 : 255,128,255
Combo3 : 85,170,255
Combo4 : 0,255,128

[HitObjects]
166,2,545,6,0,L|172:62,1,50,4|0,0:0|0:0,0:0:0:0:
246,85,1013,2,0,L|306:91,1,50,2|0,0:3|0:0,0:0:0:0:
176,133,1482,6,0,L|183:207,1,59.9999981689454,4|0,0:0|0:0,0:0:0:0:
256,216,1950,2,0,L|330:224,1,59.9999981689454,2|0,0:3|0:0,0:0:0:0:
190,274,2420,6,0,L|197:348,1,69.9999978637696,4|0,0:0|0:0,0:0:0:0:
270,357,2888,2,0,L|344:365,1,69.9999978637696,2|0,1:3|0:0,0:0:0:0:
429,283,3357,6,0,L|347:291,1,80,4|0,0:0|0:0,0:0:0:0:
291,204,3826,2,0,L|372:212,1,80,2|0,1:3|0:0,0:0:0:0:
431,119,4295,6,0,L|317:131,1,100,4|0,0:0|0:0,0:0:0:0:
442,105,4763,6,0,L|328:117,1,100,4|0,0:0|0:0,0:0:0:0:
453,91,5232,6,0,L|339:103,1,100,4|0,0:0|0:0,0:0:0:0:
464,77,5701,6,0,L|350:89,1,100,4|0,0:0|0:0,0:0:0:0:
473,67,6170,5,4,0:0:0:0:
327,23,6404,2,0,P|284:23|248:26,1,50,2|2,0:0|0:0,0:0:0:0:
218,140,6638,1,4,0:0:0:0:
77,59,6873,2,0,B|82:33|96:18|96:18|115:43|113:64,1,75.0000028610231,2|2,0:3|0:2,0:0:0:0:
104,170,7107,1,4,0:0:0:0:
194,261,7341,2,0,P|238:265|268:263,1,64.9999970245363,2|2,0:0|0:0,0:0:0:0:
350,225,7576,1,2,1:3:0:0:
445,51,8045,6,0,P|371:24|341:19,1,64.9999970245363,4|0,0:1|0:0,0:0:0:0:
290,4,8279,1,2,0:0:0:0:
426,139,8513,6,0,P|348:126|319:126,1,64.9999970245363,2|0,1:3|0:0,0:0:0:0:
266,125,8747,1,2,0:0:0:0:
415,227,8982,6,0,P|336:227|307:232,1,64.9999970245363,4|0,0:3|0:0,0:0:0:0:
256,236,9216,1,2,0:0:0:0:
425,316,9451,6,0,P|348:330|320:340,1,64.9999970245363,2|0,1:3|0:0,0:0:0:0:
272,358,9685,1,2,0:0:0:0:
114,311,9920,6,0,L|108:220,1,64.9999970245363,4|0,0:3|0:0,0:0:0:0:
104,164,10154,1,2,0:0:0:0:
238,230,10388,6,0,L|156:189,1,64.9999970245363,2|0,1:3|0:0,0:0:0:0:
104,164,10622,1,2,0:0:0:0:
229,81,10857,6,0,L|153:131,1,64.9999970245363,4|0,0:3|0:0,0:0:0:0:
104,164,11091,1,2,0:0:0:0:
95,15,11326,6,0,L|101:106,1,64.9999970245363,2|0,1:3|0:0,0:0:0:0:
104,164,11560,1,2,0:0:0:0:
238,230,11795,6,0,P|244:173|237:144,1,64.9999970245363,4|0,0:3|0:0,0:0:0:0:
221,92,12029,1,2,0:0:0:0:
104,164,12263,6,0,P|98:221|105:250,1,64.9999970245363,2|0,1:3|0:0,0:0:0:0:
121,302,12497,1,2,0:0:0:0:
238,230,12732,6,0,P|244:173|237:144,1,64.9999970245363,4|0,0:3|0:0,0:0:0:0:
221,92,12966,1,2,0:0:0:0:
104,164,13200,6,0,P|98:221|105:250,1,64.9999970245363,2|0,1:3|0:0,0:0:0:0:
121,302,13434,1,2,0:0:0:0:
261,348,13670,6,0,P|346:350|402:338,1,129.999994049073,4|2,0:3|0:0,0:0:0:0:
390,256,14021,1,2,0:0:0:0:
390,256,14138,2,0,P|407:172|390:97,1,129.999994049073,2|0,1:3|0:0,0:0:0:0:
367,51,14490,1,2,0:0:0:0:
367,51,14607,6,0,P|283:34|226:36,1,129.999994049073,4|2,0:3|0:0,0:0:0:0:
127,119,15076,2,0,P|80:124|49:123,1,64.9999970245363,2|0,1:3|0:0,0:0:0:0:
149,200,15310,2,0,P|110:227|83:242,1,64.9999970245363,2|0,0:3|0:0,0:0:0:0:
218,134,15545,6,0,P|267:128|303:127,1,64.9999970245363,4|0,0:1|0:0,0:0:0:0:
344,208,15779,1,2,0:0:0:0:
241,312,16013,6,0,P|247:263|256:228,1,64.9999970245363,2|0,1:3|0:0,0:0:0:0:
344,208,16247,1,2,0:0:0:0:
417,336,16482,6,0,P|371:316|339:299,1,64.9999970245363,4|0,0:3|0:0,0:0:0:0:
344,208,16716,1,2,0:0:0:0:
486,172,16951,6,0,P|455:210|430:237,1,64.9999970245363,2|0,1:3|0:0,0:0:0:0:
344,208,17185,1,2,0:0:0:0:
218,134,17420,6,0,P|172:119|126:131,1,64.9999970245363,4|0,0:3|0:0,0:0:0:0:
66,149,17654,1,2,0:0:0:0:
218,250,17888,6,0,P|172:264|126:252,1,64.9999970245363,2|0,1:3|0:0,0:0:0:0:
66,235,18122,1,2,0:0:0:0:
218,134,18357,6,0,P|172:119|126:131,1,64.9999970245363,4|0,0:3|0:0,0:0:0:0:
66,149,18591,1,2,0:0:0:0:
218,250,18826,6,0,P|172:264|126:252,1,64.9999970245363,2|0,1:3|0:0,0:0:0:0:
66,235,19060,1,2,0:0:0:0:
146,352,19295,6,0,P|181:358|232:345,1,64.9999970245363,4|0,0:3|0:0,0:0:0:0:
299,309,19529,1,2,0:0:0:0:
452,352,19763,6,0,P|417:358|366:345,1,64.9999970245363,2|0,1:3|0:0,0:0:0:0:
299,309,19997,1,2,0:0:0:0:
146,352,20232,6,0,P|181:358|232:345,1,64.9999970245363,4|0,0:3|0:0,0:0:0:0:
299,309,20466,1,2,0:0:0:0:
445,352,20701,2,0,P|402:339|385:253,1,129.999994049073,2|2,1:3|0:0,0:0:0:0:
485,207,21170,5,4,0:3:0:0:
504,154,21287,1,2,0:0:0:0:
500,99,21404,1,2,0:0:0:0:
469,53,21521,1,2,0:0:0:0:
438,76,21638,1,2,1:3:0:0:
401,89,21755,1,2,0:0:0:0:
361,85,21873,1,0,0:0:0:0:
334,60,21989,1,0,0:0:0:0:
309,35,22107,6,0,P|239:39|211:45,1,64.9999970245363,4|2,0:3|0:0,0:0:0:0:
175,52,22341,2,0,P|109:73|83:87,1,75.0000028610231,2|2,0:0|0:0,0:0:0:0:
49,135,22576,1,2,1:3:0:0:
161,219,22810,5,2,0:0:0:0:
161,219,22927,1,2,0:0:0:0:
254,168,23045,6,0,P|312:209|272:235,1,119.999996337891,6|2,0:0|0:0,0:0:0:0:
254,168,23396,1,2,0:0:0:0:
287,89,23513,1,0,1:0:0:0:
287,89,23748,2,0,P|316:95|340:112,1,59.9999981689454,2|0,0:0|0:0,0:0:0:0:
352,274,23982,6,0,P|288:301|232:261,1,119.999996337891,4|2,0:3|0:0,0:0:0:0:
352,274,24334,1,2,0:0:0:0:
381,341,24451,1,0,1:3:0:0:
381,341,24685,2,0,P|434:339|466:324,1,59.9999981689454,2|0,0:0|0:0,0:0:0:0:
451,208,24920,6,0,P|404:170|371:216,1,119.999996337891,4|2,0:3|0:0,0:0:0:0:
451,208,25271,1,2,0:0:0:0:
480,124,25388,1,0,1:0:0:0:
480,124,25623,2,0,P|432:99|401:98,1,59.9999981689454,2|0,0:0|0:0,0:0:0:0:
310,167,25857,6,0,P|258:115|336:66,1,129.999994049073,4|2,0:3|0:0,0:0:0:0:
310,167,26209,1,2,0:0:0:0:
249,223,26326,1,0,1:0:0:0:
249,223,26560,2,0,P|191:230|151:212,1,59.9999981689454,2|0,0:0|0:0,0:0:0:0:
160,126,26795,6,0,P|199:181|183:240,1,119.999996337891,4|2,0:3|0:0,0:0:0:0:
123,191,27146,1,2,0:0:0:0:
160,126,27263,6,0,P|227:119|270:163,1,110.000003356934,0|2,1:0|0:0,0:0:0:0:
199,197,27615,1,2,0:0:0:0:
160,126,27732,6,0,P|188:64|247:49,1,119.999996337891,4|0,0:3|0:0,0:0:0:0:
240,128,28084,1,2,0:0:0:0:
160,126,28201,6,0,P|120:71|136:12,1,129.999994049073,0|2,1:0|0:0,0:0:0:0:
201,57,28553,1,2,0:0:0:0:
199,197,28670,5,4,0:3:0:0:
199,197,28904,2,0,P|246:190|270:195,1,59.9999981689454,2|0,0:0|0:0,0:0:0:0:
249,321,29138,6,0,P|195:343|130:291,1,119.999996337891,0|2,1:0|0:0,0:0:0:0:
198,269,29490,1,0,0:0:0:0:
249,321,29607,1,4,0:3:0:0:
347,217,29841,1,2,3:2:0:0:
351,272,29958,1,2,3:2:0:0:
355,327,30075,1,0,1:0:0:0:
466,194,30310,5,2,0:0:0:0:
466,194,30427,1,2,0:0:0:0:
424,96,30545,6,0,P|349:129|355:192,1,119.999996337891,4|2,0:0|0:0,0:0:0:0:
424,96,30896,1,2,0:0:0:0:
380,18,31013,1,0,1:0:0:0:
380,18,31248,2,0,P|324:41|307:64,1,59.9999981689454,2|0,0:0|0:0,0:0:0:0:
343,157,31482,6,0,P|309:110|270:155,1,119.999996337891,4|2,0:3|0:0,0:0:0:0:
343,157,31834,1,2,0:0:0:0:
420,133,31951,1,0,1:0:0:0:
420,133,32185,2,0,P|421:170|411:208,1,59.9999981689454,2|0,0:0|0:0,0:0:0:0:
352,311,32420,6,0,P|314:263|379:244,1,119.999996337891,4|2,0:3|0:0,0:0:0:0:
352,311,32771,1,2,0:0:0:0:
294,370,32888,1,0,1:0:0:0:
294,370,33123,2,0,P|231:366|199:346,1,59.9999981689454,2|0,0:0|0:0,0:0:0:0:
207,257,33357,6,0,P|245:308|234:378,1,129.999994049073,4|2,0:3|0:0,0:0:0:0:
207,257,33709,1,2,0:0:0:0:
245,197,33826,1,0,1:0:0:0:
245,197,34060,2,0,P|300:180|326:180,1,59.9999981689454,2|0,0:0|0:0,0:0:0:0:
228,54,34295,6,0,P|173:36|120:60,1,119.999996337891,4|2,0:3|0:0,0:0:0:0:
89,139,34646,1,2,0:0:0:0:
120,61,34763,2,0,P|46:67|11:117,1,119.999996337891,0|2,1:0|0:0,0:0:0:0:
21,176,35115,1,2,0:0:0:0:
88,219,35232,1,4,0:3:0:0:
88,219,35466,6,0,P|125:198|170:199,1,59.9999981689454,2|0,0:0|0:0,0:0:0:0:
193,309,35701,2,0,P|156:286|134:247,1,59.9999981689454,0|0,1:0|0:0,0:0:0:0:
223,174,35935,2,0,P|221:216|199:255,1,59.9999981689454,2|0,0:0|0:0,0:0:0:0:
269,290,36170,5,4,0:3:0:0:
302,337,36287,1,2,0:0:0:0:
359,349,36404,1,2,0:0:0:0:
408,318,36521,1,2,0:0:0:0:
410,270,36638,1,0,1:0:0:0:
388,244,36755,1,2,0:0:0:0:
360,241,36872,1,2,0:0:0:0:
344,256,36989,1,2,0:0:0:0:
342,276,37107,5,4,0:3:0:0:
352,173,37341,2,0,P|337:133|327:117,1,44.999998626709,2|0,3:0|0:0,0:0:0:0:
264,119,37576,2,0,P|224:117|185:122,1,69.9999978637696,0|0,3:0|3:0,0:0:0:0:
119,198,38045,6,0,P|127:216|130:235,1,40,0|0,3:0|0:0,0:0:0:0:
202,263,38513,2,0,P|193:281|190:300,1,40,0|0,3:0|0:0,0:0:0:0:
115,306,38982,2,0,P|95:307|75:309,1,40,0|0,3:0|0:0,0:0:0:0:
15,242,39451,2,0,P|34:240|54:238,1,40,0|0,3:0|0:0,0:0:0:0:
124,195,39920,6,0,P|120:166|118:149,1,40,0|0,3:0|0:0,0:0:0:0:
202,120,40388,2,0,P|199:139|197:159,1,40,0|0,3:0|0:0,0:0:0:0:
263,207,40857,2,0,P|269:227|275:246,1,40,0|0,3:0|0:0,0:0:0:0:
197,263,41326,2,0,P|185:283|175:296,1,40,0|0,3:0|0:0,0:0:0:0:
254,326,41795,6,0,P|287:328|312:330,1,50,0|0,3:0|0:0,0:0:0:0:
363,267,42263,2,0,P|396:265|421:263,1,50,0|0,3:0|0:0,0:0:0:0:
463,330,42732,1,0,3:0:0:0:
463,330,42966,1,0,0:0:0:0:
496,260,43201,2,0,P|505:220|506:194,1,50,0|0,3:0|0:0,0:0:0:0:
453,130,43670,6,0,P|403:117|374:103,1,59.9999981689454,0|0,3:0|0:0,0:0:0:0:
368,189,44138,2,0,P|318:201|289:215,1,59.9999981689454,0|0,3:0|0:0,0:0:0:0:
292,100,44607,1,0,3:0:0:0:
292,100,44841,1,0,3:0:0:0:
212,160,45076,2,0,P|183:150|154:143,1,59.9999981689454,0|0,3:0|0:0,0:0:0:0:
192,31,45545,6,0,P|228:18|266:9,1,69.9999978637696,4|0,3:2|0:0,0:0:0:0:
292,100,46013,2,0,P|328:112|366:121,1,69.9999978637696,0|0,1:1|0:0,0:0:0:0:
428,31,46482,2,0,P|389:28|350:29,1,69.9999978637696,0|0,1:0|0:0,0:0:0:0:
292,100,46951,2,0,P|279:135|270:173,1,69.9999978637696,0|0,1:0|0:0,0:0:0:0:
375,209,47420,6,0,P|386:251|395:296,1,80,0|0,1:0|0:0,0:0:0:0:
307,357,47888,2,0,P|266:365|226:368,1,80,0|0,1:0|0:0,3:0:0:0:
142,270,48357,2,0,P|190:278|238:284,1,89.9999972534181,0|0,1:0|0:0,3:0:0:0:
304,178,48826,2,0,P|255:186|207:192,1,89.9999972534181,0|0,1:0|0:0,3:0:0:0:
201,52,49295,5,0,1:0:0:0:
344,32,49529,1,0,1:0:0:0:
304,178,49763,2,0,P|255:186|200:193,1,100,4|0,0:0|0:0,3:0:0:0:
186,35,50232,5,0,1:0:0:0:
349,11,50466,1,0,1:0:0:0:
304,178,50701,2,0,P|248:187|193:194,1,110.000003356934,4|0,0:0|0:0,3:0:0:0:
349,11,51170,6,0,P|398:45|397:117,1,110.000003356934,0|0,1:0|3:0,0:0:0:0:
333,85,51521,1,0,3:0:0:0:
406,92,51638,6,0,P|440:141|416:209,1,119.999996337891,0|0,1:0|3:0,0:0:0:0:
363,156,51990,1,0,3:0:0:0:
427,196,52107,6,0,P|441:254|379:298,1,129.999994049073,0|0,1:0|3:0,0:0:0:0:
356,229,52459,1,0,3:0:0:0:
393,297,52576,6,0,P|364:356|287:370,1,139.999995727539,0|0,1:0|3:0,0:0:0:0:
256,302,52928,1,0,3:0:0:0:
207,369,53045,5,0,1:0:0:0:
207,369,53162,2,0,L|121:382,2,59.9999981689454,0|0|0,1:0|1:0|1:0,0:0:0:0:
170,281,53513,5,0,1:0:0:0:
170,281,53630,2,0,L|84:300,2,64.9999970245363,0|0|0,1:0|1:0|1:0,0:0:0:0:
125,192,53982,5,0,1:0:0:0:
125,192,54099,2,0,L|42:219,2,69.9999978637696,0|0|0,1:0|1:0|1:0,0:0:0:0:
67,103,54451,5,0,1:0:0:0:
67,103,54568,2,0,L|-13:137,2,75.0000028610231,0|0|0,1:0|1:0|1:0,0:0:0:0:
169,62,54920,5,2,1:2:0:0:
266,184,55154,1,2,1:2:0:0:
384,79,55388,1,0,1:0:0:0:
266,184,55622,1,0,1:0:0:0:
282,2,55857,1,2,1:2:0:0:
282,2,56091,6,0,L|277:48,2,39.9999987792969,4|4|4,0:3|0:3|0:3,0:0:0:0:
275,72,56326,1,8,0:3:0:0:
109,249,56795,6,0,P|156:240|223:238,1,85.0000016212464,4|0,0:1|0:0,0:0:0:0:
277,240,57029,1,2,0:0:0:0:
301,160,57263,6,0,P|254:151|187:149,1,85.0000016212464,2|0,1:3|0:0,0:0:0:0:
132,151,57497,1,2,0:0:0:0:
109,249,57732,6,0,P|156:240|223:238,1,85.0000016212464,4|0,0:3|0:0,0:0:0:0:
277,240,57966,1,2,0:0:0:0:
301,160,58200,6,0,P|254:151|187:149,1,85.0000016212464,2|0,1:3|0:0,0:0:0:0:
132,151,58435,2,0,P|200:148|223:148,1,85.0000016212464,8|8,0:3|0:3,0:0:0:0:
323,83,58670,6,0,L|442:127,1,85.0000016212464,4|0,0:3|0:0,0:0:0:0:
483,142,58904,1,2,0:0:0:0:
352,250,59138,6,0,L|449:168,1,85.0000016212464,2|0,1:3|0:0,0:0:0:0:
483,142,59373,1,2,0:0:0:0:
323,83,59607,6,0,L|442:127,1,85.0000016212464,4|0,0:3|0:0,0:0:0:0:
483,142,59841,1,2,0:0:0:0:
352,250,60075,6,0,L|449:168,1,85.0000016212464,2|0,1:3|0:0,0:0:0:0:
483,142,60310,2,0,L|385:223,1,85.0000016212464,8|8,0:3|0:3,0:0:0:0:
262,201,60545,6,0,P|205:149|307:164,1,255.000004863739,4|0,0:3|0:0,0:0:0:0:
262,201,61013,6,0,P|205:149|307:164,1,255.000004863739,2|0,1:3|0:0,0:0:0:0:
262,201,61482,6,0,P|205:149|307:164,1,255.000004863739,4|0,0:3|0:0,0:0:0:0:
262,201,61951,6,0,P|205:149|307:164,1,255.000004863739,2|0,1:3|0:3,0:0:0:0:
315,323,62420,5,4,0:3:0:0:
255,320,62537,1,2,0:0:0:0:
196,317,62654,1,2,0:0:0:0:
202,198,62888,5,2,1:3:0:0:
262,201,63005,1,2,0:0:0:0:
321,204,63122,1,2,0:0:0:0:
315,323,63357,5,4,0:3:0:0:
255,320,63474,1,2,0:0:0:0:
196,317,63591,1,2,0:0:0:0:
202,198,63826,5,2,1:3:0:0:
261,201,63943,1,2,0:0:0:0:
321,204,64060,1,2,0:0:0:0:
504,333,64295,6,0,L|455:243,1,85.0000016212464,4|0,0:1|0:0,0:0:0:0:
424,183,64529,1,2,0:0:0:0:
428,13,64763,6,0,L|425:115,1,85.0000016212464,2|0,1:3|0:0,0:0:0:0:
424,183,64997,1,2,0:0:0:0:
504,333,65232,6,0,L|455:243,1,85.0000016212464,4|0,0:3|0:0,0:0:0:0:
424,183,65466,1,2,0:0:0:0:
428,13,65700,6,0,L|425:115,1,85.0000016212464,2|0,1:3|0:0,0:0:0:0:
424,183,65935,2,0,L|427:81,1,85.0000016212464,8|8,0:3|0:3,0:0:0:0:
327,47,66170,6,0,P|273:71|251:113,1,85.0000016212464,4|0,0:3|0:0,0:0:0:0:
261,171,66404,1,2,0:0:0:0:
187,53,66638,6,0,P|180:111|206:151,1,85.0000016212464,2|0,1:3|0:0,0:0:0:0:
261,171,66872,1,2,0:0:0:0:
121,177,67107,6,0,P|168:211|216:209,1,85.0000016212464,4|0,0:3|0:0,0:0:0:0:
261,171,67341,1,2,0:0:0:0:
196,296,67576,6,0,P|250:272|272:230,1,85.0000016212464,2|0,1:3|0:0,0:0:0:0:
261,171,67810,2,0,P|207:193|185:236,1,85.0000016212464,8|8,0:3|0:3,0:0:0:0:
339,241,68045,6,0,P|421:227|329:182,1,255.000004863739,4|0,0:3|0:0,0:0:0:0:
339,241,68513,6,0,P|421:227|329:182,1,255.000004863739,2|0,1:3|0:0,0:0:0:0:
339,241,68982,6,0,P|421:227|329:182,1,255.000004863739,4|0,0:3|0:0,0:0:0:0:
339,241,69451,6,0,P|421:227|329:182,1,255.000004863739,2|0,1:3|0:0,0:0:0:0:
189,220,69920,5,4,0:3:0:0:
192,279,70037,1,2,0:0:0:0:
195,339,70154,1,2,0:0:0:0:
308,214,70388,5,2,1:3:0:0:
305,155,70505,1,2,0:0:0:0:
302,95,70622,1,2,0:0:0:0:
189,220,70857,5,4,0:3:0:0:
192,279,70974,1,2,0:0:0:0:
195,339,71091,1,2,0:0:0:0:
308,214,71325,5,2,1:3:0:0:
189,220,71560,1,2,1:3:0:0:
302,95,71795,6,0,L|420:88,1,85.0000016212464,4|0,0:1|0:0,0:0:0:0:
471,84,72029,1,2,0:0:0:0:
477,194,72263,6,0,L|359:201,1,85.0000016212464,2|0,1:3|0:0,0:0:0:0:
308,205,72497,1,2,0:0:0:0:
302,95,72732,6,0,L|420:88,1,85.0000016212464,4|0,0:3|0:0,0:0:0:0:
471,84,72966,1,2,0:0:0:0:
477,194,73201,6,0,L|359:201,1,85.0000016212464,2|0,1:3|0:0,0:0:0:0:
307,204,73435,2,0,L|425:197,1,85.0000016212464,8|8,0:3|0:3,0:0:0:0:
427,302,73670,6,0,P|331:315|292:309,1,85.0000016212464,4|0,0:3|0:0,0:0:0:0:
259,302,73904,1,2,0:0:0:0:
188,151,74138,6,0,P|213:244|234:278,1,85.0000016212464,2|0,1:3|0:0,0:0:0:0:
259,302,74372,1,2,0:0:0:0:
427,302,74607,6,0,P|331:315|292:309,1,85.0000016212464,4|0,0:3|0:0,0:0:0:0:
259,302,74841,1,2,0:0:0:0:
188,151,75076,6,0,P|213:244|234:278,1,85.0000016212464,2|0,1:3|0:0,0:0:0:0:
259,302,75310,2,0,P|230:270|208:234,1,85.0000016212464,8|8,0:3|0:3,0:0:0:0:
200,83,75545,6,0,P|264:20|244:123,1,255.000004863739,4|0,0:3|0:0,0:0:0:0:
200,83,76013,6,0,P|264:20|244:123,1,255.000004863739,2|0,1:3|0:0,0:0:0:0:
200,83,76482,6,0,P|264:20|244:123,1,255.000004863739,4|0,0:3|0:0,0:0:0:0:
200,83,76951,6,0,P|264:20|244:123,1,255.000004863739,2|0,1:3|0:3,0:0:0:0:
158,177,77419,5,4,0:3:0:0:
98,180,77537,1,2,0:0:0:0:
39,183,77654,1,2,0:0:0:0:
45,302,77888,5,2,1:3:0:0:
104,299,78005,1,2,0:0:0:0:
164,296,78122,1,2,0:0:0:0:
158,177,78357,5,4,0:3:0:0:
98,180,78475,1,2,0:0:0:0:
39,183,78592,1,2,0:0:0:0:
164,296,78826,5,2,1:3:0:0:
39,183,79060,1,2,1:3:0:0:
236,200,79295,6,0,L|363:209,1,85.0000016212464,4|0,0:1|0:0,0:0:0:0:
357,229,79529,2,0,L|272:222,1,85.0000016212464,2|0,0:0|0:0,0:0:0:0:
236,200,79763,2,0,L|362:213,1,85.0000016212464,2|0,1:3|0:0,0:0:0:0:
357,229,79997,2,0,L|272:219,1,85.0000016212464,2|0,0:0|0:0,0:0:0:0:
236,200,80232,6,0,L|362:215,1,85.0000016212464,4|0,0:1|0:0,0:0:0:0:
357,229,80466,2,0,L|272:217,1,85.0000016212464,2|0,0:0|0:0,0:0:0:0:
236,200,80700,2,0,L|361:220,1,85.0000016212464,2|0,1:3|0:0,0:0:0:0:
357,229,80934,2,0,L|272:214,1,85.0000016212464,2|0,0:0|0:0,0:0:0:0:
170,195,81170,6,0,P|142:158|147:112,1,85.0000016212464,4|0,0:1|0:0,0:0:0:0:
180,66,81404,2,0,P|207:102|202:148,1,85.0000016212464,2|0,0:0|0:0,0:0:0:0:
170,195,81638,2,0,P|144:156|151:110,1,85.0000016212464,2|0,1:3|0:0,0:0:0:0:
180,66,81872,2,0,P|203:102|196:148,1,85.0000016212464,2|0,0:0|0:0,0:0:0:0:
170,195,82107,6,0,P|146:154|157:108,1,85.0000016212464,4|0,0:1|0:0,0:0:0:0:
180,65,82341,2,0,P|201:104|190:149,1,85.0000016212464,2|0,0:0|0:0,0:0:0:0:
170,195,82576,2,0,P|150:152|163:108,1,85.0000016212464,2|0,1:3|0:0,0:0:0:0:
180,66,82810,2,0,P|198:106|184:149,1,85.0000016212464
94,227,83045,6,0,L|74:316,1,85.0000016212464,4|0,0:1|0:0,0:0:0:0:
158,255,83279,2,0,L|148:345,1,85.0000016212464,2|0,0:0|0:0,0:0:0:0:
227,275,83513,2,0,L|226:366,1,85.0000016212464,2|0,1:3|0:0,0:0:0:0:
297,286,83748,2,0,L|306:376,1,85.0000016212464,2|0,0:0|0:0,0:0:0:0:
292,202,83982,6,0,L|282:111,1,85.0000016212464,4|0,0:1|0:0,0:0:0:0:
358,179,84216,2,0,L|357:87,1,85.0000016212464,2|0,0:0|0:0,0:0:0:0:
425,165,84450,2,0,L|434:74,1,85.0000016212464,2|0,1:3|0:0,0:0:0:0:
495,159,84685,2,0,L|513:69,1,85.0000016212464,2|0,0:0|0:0,0:0:0:0:
459,11,84920,5,2,1:3:0:0:
279,23,85154,2,0,L|200:28,2,42.5000008106232,0|0|0,0:0|0:0|0:0,0:0:0:0:
348,18,85388,5,2,1:3:0:0:
168,30,85622,2,0,L|89:35,2,42.5000008106232,0|0|0,0:0|0:0|0:0,0:0:0:0:
236,25,85857,5,2,1:3:0:0:
56,37,86091,2,0,L|-23:42,2,42.5000008106232,0|0|0,0:0|0:0|0:0,0:0:0:0:
125,32,86326,1,2,1:3:0:0:
125,32,86560,1,2,1:3:0:0:
133,195,86795,6,0,P|186:235|218:185,1,129.999994049073,4|0,0:0|0:0,0:0:0:0:
133,195,87146,1,2,0:0:0:0:
116,265,87263,1,2,1:3:0:0:
116,265,87498,1,2,0:0:0:0:
229,123,87732,6,0,P|286:152|286:219,1,129.999994049073,4|0,0:3|0:0,0:0:0:0:
229,123,88084,1,2,0:0:0:0:
274,69,88201,1,2,1:3:0:0:
274,69,88435,1,2,0:0:0:0:
290,212,88670,6,0,P|350:253|419:218,1,129.999994049073,4|2,0:3|0:0,0:0:0:0:
357,174,89021,1,2,0:0:0:0:
348,329,89138,2,0,P|400:303|395:231,1,129.999994049073,2|2,1:3|0:0,0:0:0:0:
225,246,89607,1,4,0:3:0:0:
257,384,89841,6,0,P|273:348|275:291,1,85.0000016212464,4|0,0:0|0:0,0:0:0:0:
221,153,90076,2,0,P|166:191|235:242,1,170.000003242493,4|2,0:0|0:0,0:0:0:0:
231,73,90545,6,0,P|139:98|107:132,1,129.999994049073,4|0,0:3|0:0,0:0:0:0:
231,73,90896,1,2,0:0:0:0:
178,8,91013,1,2,1:3:0:0:
178,8,91248,1,2,0:0:0:0:
292,124,91482,6,0,P|352:115|309:41,1,129.999994049073,4|0,0:3|0:0,0:0:0:0:
292,124,91834,1,2,0:0:0:0:
306,196,91951,1,2,1:3:0:0:
306,196,92185,1,2,0:0:0:0:
160,150,92420,6,0,P|137:185|171:266,1,129.999994049073,4|2,0:3|0:0,0:0:0:0:
160,150,92771,1,2,0:0:0:0:
110,93,92888,1,2,1:3:0:0:
110,93,93123,1,2,0:0:0:0:
165,262,93357,1,4,0:3:0:0:
264,83,93591,6,0,P|202:79|156:92,1,85.0000016212464,4|0,0:0|0:0,0:0:0:0:
270,176,93826,2,0,P|348:122|345:40,1,170.000003242493,4|2,0:0|0:0,0:0:0:0:
443,231,94295,6,0,P|462:179|391:202,1,129.999994049073,4|0,0:3|0:0,0:0:0:0:
374,228,94646,1,2,0:0:0:0:
404,290,94763,1,2,1:3:0:0:
404,290,94998,1,2,0:0:0:0:
248,268,95232,6,0,P|220:314|295:332,1,129.999994049073,4|0,0:3|0:0,0:0:0:0:
248,268,95584,1,2,0:0:0:0:
169,257,95701,1,2,1:3:0:0:
169,257,95935,1,2,0:0:0:0:
305,167,96170,6,0,P|281:251|235:269,1,129.999994049073,4|2,0:3|0:0,0:0:0:0:
228,190,96521,1,2,0:0:0:0:
305,167,96638,2,0,P|364:168|411:185,1,64.9999970245363,2|0,1:3|0:0,0:0:0:0:
409,241,96873,1,2,0:0:0:0:
325,87,97107,6,0,P|243:74|182:91,1,129.999994049073,4|2,0:3|0:0,0:0:0:0:
163,156,97459,1,2,0:0:0:0:
198,84,97576,2,0,P|139:50|108:94,1,129.999994049073,2|2,1:3|0:0,0:0:0:0:
173,232,98045,5,4,0:3:0:0:
173,232,98279,1,2,0:0:0:0:
173,232,98513,2,0,B|256:259|256:204|339:232,1,170.000003242493,4|0,0:0|0:0,0:0:0:0:
339,232,98982,5,4,0:3:0:0:
339,232,99216,1,2,0:0:0:0:
339,232,99450,2,0,B|255:259|255:204|172:232,1,170.000003242493,4|0,0:0|0:0,0:0:0:0:
314,115,99920,5,4,0:3:0:0:
339,232,100154,1,2,0:0:0:0:
198,115,100388,1,2,1:3:0:0:
173,232,100622,1,2,0:0:0:0:
256,48,100857,5,4,0:3:0:0:
256,48,101091,2,0,L|256:112,1,50,0|0,0:0|0:0,0:0:0:0:
256,174,101326,1,0,1:0:0:0:
256,174,101560,1,8,0:3:0:0:
304,258,101795,5,4,0:3:0:0:
304,258,102029,1,0,0:0:0:0:
304,258,102263,2,0,P|340:280|397:291,1,100,2|0,0:0|0:0,0:0:0:0:
208,258,102732,5,0,0:0:0:0:
208,258,102966,1,0,0:0:0:0:
208,258,103200,2,0,P|172:280|115:291,1,100,2|0,0:0|0:0,0:0:0:0:
208,125,103670,6,0,P|256:113|303:125,1,100,2|0,0:0|0:0,0:0:0:0:
303,258,104138,2,0,P|255:270|208:258,1,100,2|0,0:0|0:0,0:0:0:0:
256,192,104607,1,2,0:0:0:0:
