osu file format v14

[General]
AudioFilename: audio.mp3
AudioLeadIn: 0
PreviewTime: 6111
Countdown: 1
SampleSet: Soft
StackLeniency: 0.5
Mode: 0
LetterboxInBreaks: 0
WidescreenStoryboard: 1

[Editor]
Bookmarks: 7927,22927,37927,56795,79177,86677,101677
DistanceSpacing: 1
BeatDivisor: 4
GridSize: 16
TimelineZoom: 1.4

[Metadata]
Title:Platinum Groove
TitleUnicode:Platinum Groove
Artist:android52
ArtistUnicode:android52
Creator:Sinnoh
Version:Hard Hard Hard Hard
Source:偽物語
Tags:pishifat pishifat pishifat pishifat nisemonogatari nisemonogatari nisemonogatari nisemonogatari disco disco disco disco araragi araragi araragi araragi tsukihi tsukihi tsukihi tsukihi iguchi iguchi iguchi iguchi yuka yuka yuka yuka anime anime anime anime remix remix remix remix
BeatmapID:1773630
BeatmapSetID:848144

[Difficulty]
HPDrainRate:5
CircleSize:3.5
OverallDifficulty:7
ApproachRate:7
SliderMultiplier:2
SliderTickRate:1

[Events]
//Background and Video events
0,0,"XuMzz5a.png",0,0
//Break Periods
//Storyboard Layer 0 (Background)
//Storyboard Layer 1 (Fail)
//Storyboard Layer 2 (Pass)
//Storyboard Layer 3 (Foreground)
//Storyboard Sound Samples

[TimingPoints]
545,468.75,4,2,0,55,1,0
545,-200,4,2,0,55,0,0
1482,-166.666666666667,4,2,0,55,0,0
2420,-142.857142857143,4,2,0,55,0,0
3357,-125,4,2,0,55,0,0
4295,-100,4,2,0,55,0,0
6873,-76.9230769230769,4,2,0,55,0,0
7107,-76.9230769230769,4,2,0,55,0,0
7341,-100,4,2,0,55,0,0
8045,-76.9230769230769,4,2,0,55,0,0
21873,-76.9230769230769,4,2,0,55,0,0
22107,-76.9230769230769,4,2,0,55,0,0
22341,-76.9230769230769,4,2,0,55,0,0
22576,-76.9230769230769,4,2,0,55,0,0
23045,-83.3333333333333,4,2,0,55,0,0
27263,-83.3333333333333,4,2,0,55,0,0
27732,-83.3333333333333,4,2,0,55,0,0
28201,-83.3333333333333,4,2,0,55,0,0
28670,-83.3333333333333,4,2,0,55,0,0
33357,-76.9230769230769,4,2,0,55,0,0
33826,-83.3333333333333,4,2,0,55,0,0
37341,-111.111111111111,4,2,0,55,0,0
37576,-142.857142857143,4,2,0,55,0,0
38045,-250,4,2,0,25,0,0
45545,-153.846153846154,4,2,0,25,0,0
47420,-153.846153846154,4,2,0,25,0,0
48357,-153.846153846154,4,2,0,35,0,0
49295,-99.9999999999999,4,2,0,45,0,0
50232,-100,4,2,0,55,0,0
51638,-100,4,2,0,55,0,0
52107,-100,4,2,0,55,0,0
52576,-100,4,2,0,55,0,0
53045,-100,4,2,0,55,0,0
53513,-83.3333333333333,4,2,0,55,0,0
53982,-76.9230769230769,4,2,0,55,0,0
54451,-66.6666666666667,4,2,0,55,0,0
54920,-90.9090909090909,4,2,0,55,0,0
56091,-83.3333333333333,4,2,0,55,0,0
56795,-58.8235294117647,4,2,0,90,0,1
71326,-58.8235294117647,4,2,0,90,0,0
71795,-58.8235294117647,4,2,0,90,0,1
73670,-57.4712643678161,4,2,0,90,0,1
74138,-58.8235294117647,4,2,0,90,0,1
79295,-74.0740740740741,4,2,0,90,0,1
84920,-58.8235294117647,4,2,0,90,0,1
86795,-76.9230769230769,4,2,0,75,0,0
89841,-76.9230769230769,4,2,0,75,0,0
90076,-76.9230769230769,4,2,0,75,0,0
90545,-76.923076923077,4,2,0,75,0,0
93591,-76.9230769230769,4,2,0,75,0,0
94295,-76.9230769230769,4,2,0,75,0,0
98513,-76.9230769230769,4,2,0,75,0,0
101091,-100,4,2,0,75,0,0

[Colours]
Combo1 : 255,128,64
Combo2 : 255,128,255
Combo3 : 85,170,255
Combo4 : 0,255,128

[HitObjects]
60,68,545,6,0,L|69:172,1,100,4|2,0:0|0:3,0:0:0:0:
150,122,1247,1,0,0:0:0:0:
150,122,1482,2,0,L|161:247,1,119.999996337891,4|2,0:0|0:3,0:0:0:0:
243,183,2185,1,0,0:0:0:0:
243,183,2420,6,0,L|256:335,1,139.999995727539,4|2,0:0|1:3,0:0:0:0:
333,256,3122,1,0,0:0:0:0:
333,256,3357,2,0,L|341:361,1,80,4|0,0:0|0:0,0:0:0:0:
433,351,3826,2,0,L|441:246,1,80,2|0,1:3|0:0,0:0:0:0:
392,182,4295,6,0,L|253:165,1,100,4|0,0:0|0:0,0:0:0:0:
404,148,4763,2,0,L|265:131,1,100,4|0,0:0|0:0,0:0:0:0:
416,114,5232,2,0,L|277:97,1,100,4|0,0:0|0:0,0:0:0:0:
428,80,5701,2,0,L|289:63,1,100,4|0,0:0|0:0,0:0:0:0:
440,46,6170,5,4,0:0:0:0:
463,169,6404,2,0,L|474:240,1,50,2|2,0:0|0:0,0:0:0:0:
482,277,6638,1,4,0:0:0:0:
372,299,6873,2,0,P|348:313|344:275,1,64.9999970245363,2|2,0:3|0:2,0:0:0:0:
301,243,7107,1,4,0:0:0:0:
231,157,7341,2,0,P|169:161|120:178,1,100,2|2,0:0|1:3,0:0:0:0:
133,172,8045,6,0,P|181:159|265:161,1,129.999994049073,4|2,0:1|0:0,0:0:0:0:
132,149,8513,2,0,P|196:145|260:160,1,129.999994049073,2|2,1:3|0:0,0:0:0:0:
135,127,8982,2,0,P|184:131|262:161,1,129.999994049073,4|2,0:3|0:0,0:0:0:0:
143,106,9451,2,0,P|191:118|262:162,1,129.999994049073,2|2,1:3|0:0,0:0:0:0:
270,276,9920,6,0,P|318:289|401:287,1,129.999994049073,4|2,0:3|0:0,0:0:0:0:
270,299,10388,2,0,P|319:303|400:287,1,129.999994049073,2|2,1:3|0:0,0:0:0:0:
274,321,10857,2,0,P|323:316|400:286,1,129.999994049073,4|2,0:3|0:0,0:0:0:0:
281,341,11326,2,0,P|329:328|399:285,1,129.999994049073,2|2,1:3|0:0,0:0:0:0:
425,157,11795,6,0,P|377:99|289:75,1,129.999994049073,4|2,0:3|0:0,0:0:0:0:
438,140,12263,2,0,P|380:91|289:82,1,129.999994049073,2|2,1:3|0:0,0:0:0:0:
446,120,12732,2,0,P|381:81|290:89,1,129.999994049073,4|2,0:3|0:0,0:0:0:0:
452,98,13201,2,0,P|381:71|293:94,1,129.999994049073,2|2,1:3|0:0,0:0:0:0:
199,90,13670,5,4,0:3:0:0:
118,191,13904,2,0,L|113:260,2,64.9999970245363,2|2|2,0:0|0:0|1:3,0:0:0:0:
240,235,14373,2,0,L|235:304,2,64.9999970245363,2|2|4,0:0|0:0|0:3,0:0:0:0:
362,279,14842,2,0,L|357:348,2,64.9999970245363,2|2|2,0:0|0:0|1:3,0:0:0:0:
372,149,15310,1,2,0:3:0:0:
254,92,15545,6,0,P|185:80|98:79,1,129.999994049073,4|2,0:1|0:0,0:0:0:0:
254,69,16013,2,0,P|183:69|98:83,1,129.999994049073,2|2,1:3|0:0,0:0:0:0:
250,46,16482,2,0,P|181:58|98:87,1,129.999994049073,4|2,0:3|0:0,0:0:0:0:
243,25,16951,2,0,P|177:49|101:91,1,129.999994049073,2|2,1:3|0:0,0:0:0:0:
123,208,17420,6,0,P|135:308|159:364,1,129.999994049073,4|2,0:3|0:0,0:0:0:0:
101,213,17888,2,0,P|130:309|163:360,1,129.999994049073,2|2,1:3|0:0,0:0:0:0:
80,222,18357,2,0,P|125:311|167:356,1,129.999994049073,4|2,0:3|0:0,0:0:0:0:
62,235,18826,2,0,P|122:315|171:352,1,129.999994049073,2|2,1:3|0:0,0:0:0:0:
271,274,19295,6,0,P|350:313|397:374,1,129.999994049073,4|2,0:3|0:0,0:0:0:0:
260,293,19763,2,0,P|344:317|401:369,1,129.999994049073,2|2,1:3|0:0,0:0:0:0:
253,314,20232,2,0,P|340:323|405:364,1,129.999994049073,4|2,0:3|0:0,0:0:0:0:
250,336,20701,2,0,P|337:330|409:359,1,129.999994049073,2|2,1:3|0:0,0:0:0:0:
394,213,21170,5,4,0:3:0:0:
396,196,21287,1,2,0:0:0:0:
395,180,21404,1,2,0:0:0:0:
390,164,21521,1,2,0:0:0:0:
380,152,21638,2,0,P|312:130|244:127,1,129.999994049073,2|0,1:3|0:0,0:0:0:0:
151,207,22107,2,0,L|141:292,1,64.9999970245363,4|2,0:3|0:0,0:0:0:0:
108,129,22341,2,0,L|96:58,1,64.9999970245363,2|2,0:0|0:0,0:0:0:0:
60,199,22576,1,2,1:3:0:0:
60,199,23045,6,0,P|131:166|179:164,1,119.999996337891,6|2,0:0|0:0,0:0:0:0:
290,180,23513,1,0,1:0:0:0:
246,67,23748,1,2,0:0:0:0:
290,180,23982,6,0,P|358:205|447:202,1,119.999996337891,4|2,0:3|0:0,0:0:0:0:
507,144,24451,1,0,1:3:0:0:
423,58,24685,1,2,0:0:0:0:
507,144,24920,6,0,P|512:229|496:268,1,119.999996337891,4|2,0:3|0:0,0:0:0:0:
385,296,25388,1,0,1:0:0:0:
471,379,25623,1,2,0:0:0:0:
385,296,25857,6,0,P|325:274|265:273,1,119.999996337891,4|2,0:3|0:0,0:0:0:0:
149,291,26326,1,0,1:0:0:0:
71,383,26560,1,2,0:0:0:0:
149,291,26795,6,0,P|166:235|135:186,1,119.999996337891,4|2,0:3|0:0,0:0:0:0:
32,202,27263,2,0,P|87:219|136:187,1,119.999996337891,0|2,1:0|0:0,0:0:0:0:
123,83,27732,2,0,P|104:138|135:187,1,119.999996337891,4|0,0:3|0:0,0:0:0:0:
240,175,28201,2,0,P|185:157|136:188,1,119.999996337891,0|2,1:0|0:0,0:0:0:0:
175,300,28670,5,4,0:3:0:0:
294,320,28905,1,2,0:0:0:0:
371,228,29139,1,0,1:0:0:0:
330,116,29373,1,2,0:0:0:0:
213,96,29607,1,4,0:3:0:0:
134,186,29841,2,0,P|90:199|53:205,2,59.9999981689454,2|2|0,3:2|3:2|1:0,0:0:0:0:
251,211,30310,1,2,0:0:0:0:
251,211,30545,6,0,P|295:144|286:99,1,119.999996337891,4|2,0:0|0:0,0:0:0:0:
202,26,31013,1,0,1:0:0:0:
321,14,31247,1,2,0:0:0:0:
202,26,31482,6,0,P|150:71|113:133,1,119.999996337891,4|2,0:3|0:0,0:0:0:0:
113,233,31951,1,0,1:0:0:0:
14,164,32185,1,2,0:0:0:0:
113,233,32420,6,0,P|191:238|253:228,1,119.999996337891,4|2,0:3|0:0,0:0:0:0:
341,182,32888,1,0,1:0:0:0:
392,73,33123,1,2,0:0:0:0:
341,182,33357,6,0,P|352:258|389:304,1,129.999994049073,4|2,0:3|0:0,0:0:0:0:
483,225,33826,1,0,1:0:0:0:
494,105,34060,1,2,0:0:0:0:
483,225,34295,6,0,L|471:352,1,119.999996337891,4|2,0:3|0:0,0:0:0:0:
329,331,34763,2,0,L|193:319,1,119.999996337891,0|2,1:0|0:0,0:0:0:0:
223,177,35232,2,0,L|234:49,1,119.999996337891,4|2,0:3|0:0,0:0:0:0:
377,71,35701,2,0,L|512:82,1,119.999996337891,0|2,1:0|0:0,0:0:0:0:
467,198,36170,5,4,0:3:0:0:
457,212,36287,1,2,0:0:0:0:
446,223,36404,1,2,0:0:0:0:
432,232,36521,1,2,0:0:0:0:
417,235,36638,2,0,P|377:223|321:184,3,59.9999981689454,0|2|2|2,1:0|0:0|0:0|0:0,0:0:0:0:
314,176,37107,1,4,0:3:0:0:
218,93,37341,6,0,P|189:91|149:96,1,44.999998626709,2|0,3:0|0:0,0:0:0:0:
130,108,37576,2,0,P|84:110|34:105,1,69.9999978637696,0|0,3:0|3:0,0:0:0:0:
46,209,38045,6,0,L|55:300,1,80,0|0,3:0|3:0,0:0:0:0:
172,229,38982,2,0,L|173:320,1,80,0|0,3:0|3:0,0:0:0:0:
297,258,39920,2,0,L|290:349,1,80,0|0,3:0|3:0,0:0:0:0:
422,288,40857,2,0,L|407:378,1,80,0|0,3:0|3:0,0:0:0:0:
409,366,41795,6,0,L|422:288,1,80,0|0,3:0|3:0,0:0:0:0:
290,337,42732,2,0,L|297:258,1,80,0|0,3:0|3:0,0:0:0:0:
172,308,43669,2,0,L|172:229,1,80,0|0,3:0|3:0,0:0:0:0:
53,288,44607,2,0,L|46:209,1,80,0|0,3:0|3:0,0:0:0:0:
90,83,45545,6,0,L|236:74,1,129.999994049073,4|0,3:2|1:1,0:0:0:0:
189,163,46248,1,0,0:0:0:0:
189,163,46482,2,0,L|324:152,1,129.999994049073,0|0,1:0|1:0,0:0:0:0:
411,148,47185,1,0,0:0:0:0:
411,148,47420,6,0,L|400:283,1,129.999994049073,0|0,1:0|1:0,0:0:0:0:
312,309,48123,1,0,0:0:0:0:
312,309,48357,2,0,L|301:174,1,129.999994049073,0|0,1:0|1:0,0:0:0:0:
293,100,49060,1,0,0:0:0:0:
173,125,49295,5,0,1:0:0:0:
173,125,49529,1,0,1:0:0:0:
163,224,49763,2,0,L|155:324,1,100,4|0,0:0|0:0,0:0:0:0:
266,185,50232,5,0,1:0:0:0:
266,185,50466,1,0,1:0:0:0:
273,283,50700,2,0,L|282:383,1,100,4|0,0:0|0:0,0:0:0:0:
354,223,51170,6,0,P|414:213|465:221,1,100,0|0,1:0|3:0,0:0:0:0:
285,159,51638,2,0,P|337:129|388:119,1,100,0|0,1:0|3:0,0:0:0:0:
198,122,52107,2,0,P|237:75|281:49,1,100,0|0,1:0|3:0,0:0:0:0:
103,116,52576,2,0,P|124:59|156:18,1,100,0|0,1:0|3:0,0:0:0:0:
25,182,53045,6,0,L|16:238,2,50,0|0|0,1:0|1:0|1:0,0:0:0:0:
123,219,53513,6,0,L|138:297,2,59.9999981689454,0|0|0,1:0|1:0|1:0,0:0:0:0:
236,234,53982,6,0,L|276:302,2,64.9999970245363,0|0|0,1:0|1:0|1:0,0:0:0:0:
355,215,54451,6,0,L|416:265,2,75.0000028610231,0|0|0,1:0|1:0|1:0,0:0:0:0:
420,127,54920,5,2,1:2:0:0:
355,38,55155,1,2,1:2:0:0:
250,71,55389,1,0,1:0:0:0:
250,181,55623,1,0,1:0:0:0:
355,215,55857,1,2,1:2:0:0:
355,215,56326,1,8,0:3:0:0:
355,215,56795,6,0,P|297:292|209:311,1,170.000003242493,4|2,0:1|0:0,0:0:0:0:
229,312,57263,2,0,P|137:280|92:202,1,170.000003242493,2|2,1:3|0:0,0:0:0:0:
97,222,57732,2,0,P|98:125|158:58,1,170.000003242493,4|2,0:3|0:0,0:0:0:0:
141,69,58201,2,0,P|233:40|315:77,1,170.000003242493,2|8,1:3|0:3,0:0:0:0:
299,64,58670,6,0,L|194:229,1,170.000003242493,4|2,0:3|0:0,0:0:0:0:
207,207,59138,2,0,L|376:214,1,170.000003242493,2|2,1:3|0:0,0:0:0:0:
376,214,59607,2,0,L|284:357,1,170.000003242493,4|2,0:3|0:0,0:0:0:0:
284,357,60076,2,0,L|453:364,1,170.000003242493,2|8,1:3|0:3,0:0:0:0:
453,364,60545,6,0,P|505:215|350:179,3,340.000006484985,4|2|4|2,0:3|1:3|0:3|1:3,0:0:0:0:
365,169,62420,6,0,L|207:192,2,85.0000016212464,4|2|2,0:3|0:0|0:0,0:0:0:0:
295,97,62888,2,0,L|280:180,2,85.0000016212464,2|2|2,1:3|0:0|0:0,0:0:0:0:
205,141,63357,2,0,L|280:180,2,85.0000016212464,4|2|2,0:3|0:0|0:0,0:0:0:0:
220,240,63826,2,0,L|280:180,2,85.0000016212464,2|2|2,1:3|0:0|0:0,0:0:0:0:
312,282,64295,6,0,B|252:341|252:341|166:325,1,170.000003242493,4|2,0:1|0:0,0:0:0:0:
167,325,64763,2,0,B|84:309|84:309|48:230,1,170.000003242493,2|2,1:3|0:0,0:0:0:0:
48,231,65232,2,0,B|14:153|14:153|60:79,1,170.000003242493,4|2,0:3|0:0,0:0:0:0:
59,80,65701,2,0,B|101:7|101:7|188:0,1,170.000003242493,2|8,1:3|0:3,0:0:0:0:
187,0,66170,6,0,P|168:116|218:164,1,170.000003242493,4|2,0:3|0:0,0:0:0:0:
196,151,66638,2,0,P|311:131|359:181,1,170.000003242493,2|2,1:3|0:0,0:0:0:0:
346,160,67107,2,0,P|338:276|279:312,1,170.000003242493,4|2,0:3|0:0,0:0:0:0:
303,304,67576,2,0,P|225:274|152:313,1,170.000003242493,2|8,1:3|0:3,0:0:0:0:
152,311,68045,6,0,P|59:221|175:77,3,340.000006484985,4|2|4|2,0:3|1:3|0:3|1:3,0:0:0:0:
165,77,69920,6,0,L|276:89,2,85.0000016212464,4|2|2,0:3|0:0|0:0,0:0:0:0:
201,166,70388,2,0,L|312:178,2,85.0000016212464,2|2|2,1:3|0:0|0:0,0:0:0:0:
237,253,70857,2,0,L|348:265,2,85.0000016212464,4|2|2,0:3|0:0|0:0,0:0:0:0:
273,340,71326,1,2,1:3:0:0:
273,340,71560,1,2,1:3:0:0:
273,340,71795,6,0,P|371:344|413:277,1,170.000003242493,4|2,0:1|0:0,0:0:0:0:
410,292,72263,2,0,P|386:196|310:174,1,170.000003242493,2|2,1:3|0:0,0:0:0:0:
326,173,72732,2,0,P|240:221|240:300,1,170.000003242493,4|2,0:3|0:0,0:0:0:0:
234,285,73201,2,0,P|302:354|379:334,1,170.000003242493,2|8,1:3|0:3,0:0:0:0:
366,343,73670,6,0,L|326:173,1,174.000001460266,4|2,0:3|0:0,0:0:0:0:
326,173,74138,2,0,L|142:192,1,170.000003242493,2|2,1:3|0:0,0:0:0:0:
156,190,74607,2,0,L|116:20,1,170.000003242493,4|2,0:3|0:0,0:0:0:0:
117,24,75076,2,0,L|286:6,1,170.000003242493,2|8,1:3|0:3,0:0:0:0:
286,6,75545,6,0,P|389:101|249:231,3,340.000006484985,4|2|4|2,0:3|1:3|0:3|1:3,0:0:0:0:
285,233,77420,6,0,P|339:217|377:162,2,85.0000016212464,4|2|2,0:3|0:0|0:0,0:0:0:0:
371,279,77888,2,0,P|370:222|329:169,2,85.0000016212464,2|0|0,1:3|0:0|0:0,0:0:0:0:
439,212,78357,2,0,P|385:193|321:217,2,85.0000016212464,4|2|2,0:3|0:0|0:0,0:0:0:0:
396,124,78826,2,0,P|362:170|366:237,2,85.0000016212464,2|0|2,1:3|0:0|1:3,0:0:0:0:
272,105,79295,6,0,P|313:179|411:186,7,135.000000514984,4|2|2|2|4|2|2|2,0:1|0:0|1:3|0:0|0:1|0:0|1:3|0:0,0:0:0:0:
221,188,81170,6,0,P|137:199|104:290,7,135.000000514984,4|2|2|2|4|2|2|0,0:1|0:0|1:3|0:0|0:1|0:0|1:3|0:0,0:0:0:0:
204,289,83045,6,0,P|325:307|396:295,7,135.000000514984,4|2|2|2|4|2|2|2,0:1|0:0|1:3|0:0|0:1|0:0|1:3|0:0,0:0:0:0:
396,194,84920,5,2,1:3:0:0:
319,117,85154,2,0,P|253:144|228:177,2,85.0000016212464,0|0|2,0:0|0:0|1:3,0:0:0:0:
193,79,85622,2,0,P|159:142|161:183,2,85.0000016212464,0|0|2,0:0|0:0|1:3,0:0:0:0:
75,135,86091,2,0,P|90:204|118:235,2,85.0000016212464,0|0|2,0:0|0:0|1:3,0:0:0:0:
109,37,86560,1,2,1:3:0:0:
190,117,86795,6,0,P|261:138|327:126,1,129.999994049073,4|0,0:0|0:0,0:0:0:0:
430,94,87263,1,2,1:3:0:0:
342,26,87498,1,2,0:0:0:0:
430,94,87732,6,0,P|454:168|418:243,1,129.999994049073,4|0,0:3|0:0,0:0:0:0:
331,276,88201,1,2,1:3:0:0:
444,338,88435,1,2,0:0:0:0:
331,276,88670,6,0,P|244:269|190:281,1,129.999994049073,4|2,0:3|0:0,0:0:0:0:
80,320,89138,2,0,P|68:246|93:183,2,129.999994049073,2|2|4,1:3|0:0|0:3,0:0:0:0:
200,177,89841,2,0,L|177:8,1,129.999994049073,4|4,0:0|0:0,0:0:0:0:
60,93,90310,1,2,0:0:0:0:
146,248,90545,6,0,P|224:264|281:227,1,129.999994049073,4|0,0:3|0:0,0:0:0:0:
286,104,91013,1,2,1:3:0:0:
160,138,91248,1,2,0:0:0:0:
286,103,91482,6,0,P|350:96|408:124,1,129.999994049073,4|0,0:3|0:0,0:0:0:0:
396,253,91951,1,2,1:3:0:0:
512,195,92185,1,2,0:0:0:0:
396,253,92420,6,0,P|349:313|336:370,1,129.999994049073,4|2,0:3|0:0,0:0:0:0:
224,299,92888,2,0,P|138:289|74:299,2,129.999994049073,2|2|4,1:3|0:0|0:3,0:0:0:0:
328,168,93591,2,0,L|457:146,1,129.999994049073,4|4,0:0|0:0,0:0:0:0:
263,77,94060,1,2,0:0:0:0:
143,129,94295,6,0,P|61:134|11:130,1,129.999994049073,4|0,0:3|0:0,0:0:0:0:
97,254,94763,1,2,1:3:0:0:
26,363,94998,1,2,0:0:0:0:
97,254,95232,6,0,P|180:227|240:225,1,129.999994049073,4|0,0:3|0:0,0:0:0:0:
347,258,95701,1,2,1:3:0:0:
254,348,95935,1,2,0:0:0:0:
347,258,96170,2,0,P|357:187|329:118,1,129.999994049073,4|2,0:3|0:0,0:0:0:0:
240,48,96638,2,0,P|169:38|100:66,1,129.999994049073,2|2,1:3|0:0,0:0:0:0:
33,157,97107,2,0,P|23:228|51:297,1,129.999994049073,4|2,0:3|0:0,0:0:0:0:
139,367,97576,2,0,P|210:377|279:349,1,129.999994049073,2|2,1:3|0:0,0:0:0:0:
316,239,98045,5,4,0:3:0:0:
316,239,98279,1,2,0:0:0:0:
329,113,98513,2,0,L|318:274,1,129.999994049073,4|0,0:0|0:0,0:0:0:0:
186,235,98982,5,4,0:3:0:0:
186,235,99216,1,2,0:0:0:0:
181,109,99450,2,0,L|192:270,1,129.999994049073,4|0,0:0|0:0,0:0:0:0:
320,243,99920,6,0,P|340:334|308:368,1,129.999994049073,4|2,0:3|0:0,0:0:0:0:
187,353,100388,2,0,P|162:295|189:238,1,129.999994049073,2|2,1:3|0:0,0:0:0:0:
256,91,100857,1,4,0:3:0:0:
256,91,101326,2,0,L|256:203,1,100,0|8,1:0|0:3,0:0:0:0:
301,302,101795,5,4,0:3:0:0:
397,329,102263,2,0,L|301:302,1,100,2|0,0:0|0:0,0:0:0:0:
211,302,102732,5,0,0:0:0:0:
115,329,103200,2,0,L|211:302,1,100,2|0,0:0|0:0,0:0:0:0:
256,224,103670,6,0,L|256:117,1,100,2|0,0:0|0:0,0:0:0:0:
256,24,104138,2,0,L|256:124,1,100,2|0,0:0|0:0,0:0:0:0:
256,224,104607,1,2,0:0:0:0:
