osu file format v5

[General]
AudioFilename: Taishou A.mp3
AudioLeadIn: 0
PreviewTime: 55538
Countdown: 0
SampleSet: Soft
StackLeniency: 0.7
Mode: 0
LetterboxInBreaks: 1

[Editor]
Bookmarks: 5684,38814,67786
DistanceSpacing: 1.20000004768372
BeatDivisor: 3
GridSize: 8

[Metadata]
Title:Taishou A (TV Size)
Artist:anNina
Creator:HarryOrunitia
Version:Normal
Source:Higurashi no Naku Koro ni Kai
Tags:Higurashi no Naku Koro ni anime jpop anNina

[Difficulty]
HPDrainRate:5
CircleSize:3
OverallDifficulty:3
SliderMultiplier:1.2
SliderTickRate:1

[Events]
//Background and Video events
0,0,"Taishou A Background.jpg"
Video,0,"Taishou A vid.avi"
//Break Periods
//Storyboard Layer 0 (Background)
//Storyboard Layer 1 (Fail)
//Storyboard Layer 2 (Pass)
//Storyboard Layer 3 (Foreground)
//Storyboard Sound Samples
//Background Colour Transformations
3,100,163,162,255

[TimingPoints]
6067,517.241379310345,4,2,0,70,1,0

[Colours]
Combo1 : 118,120,224
Combo2 : 10,38,140
Combo3 : 212,66,78

[HitObjects]
256,40,6067,1,0
256,136,6411,1,0
256,232,6756,1,0
48,104,7618,5,2
48,152,7791,1,0
48,200,7963,1,0
136,152,8308,2,0,B|128:216|184:232,1,100
224,232,8911,1,2
216,88,11239,5,0
168,168,11584,1,2
264,168,11929,2,0,B|368:160|376:280,1,160
328,264,12791,1,0
280,264,12963,1,0
32,120,13998,2,0,B|120:176|144:24|256:112,1,240
344,72,15377,5,0
408,136,15722,1,2
320,168,16066,1,0
384,232,16411,1,2
296,264,16756,1,0
224,328,17101,2,0,B|160:256|216:176,1,160,0|2
152,104,18135,2,2,B|192:72|256:88,1,80
448,72,19515,5,0
360,104,19860,1,0
440,160,20204,1,2
352,200,20549,1,0
264,224,20894,2,0,B|256:288|312:320,1,80,2|0
360,56,22963,6,0,B|240:56,1,80
184,56,23653,1,0
184,104,23825,2,0,B|176:184|248:216,1,120,2|0
328,200,24687,1,0
392,272,25032,5,2
320,336,25377,1,0
200,256,25894,2,0,B|176:312|88:312,1,120
96,216,26756,2,0,B|0:152|80:48,1,160
144,120,27791,6,0,B|160:64|240:72,3,80,2|0|0|0
256,144,29170,1,0
312,64,29515,2,2,B|480:104|456:264,2,240
296,160,31929,6,0,B|312:200|272:224,1,40,0|2
240,272,32446,2,0,B|216:288|176:288,1,40
112,240,32963,1,0
152,152,33308,1,2
80,80,33653,2,0,B|192:16|320:80,1,240,0|2
408,240,35377,6,0,B|352:256|312:216,1,80,0|2
384,96,36239,1,0
144,64,37101,5,2
208,128,37446,1,2
112,152,37791,2,0,B|120:224|208:240,1,120
280,128,38825,1,0
432,312,39687,6,0,B|360:352|264:304,1,160,0|2
48,56,41584,6,0,B|104:72|152:48,1,80,0|2
216,168,42446,2,0,B|312:200|320:112|424:176,1,200,0|2
256,296,43998,5,2
152,192,44515,1,0
256,96,45032,1,2
360,192,45549,1,0
256,296,46067,1,2
256,192,46411,12,0,47618
104,216,47963,6,0,B|96:184|120:168,1,40,0|2
200,200,48480,2,0,B|264:152|296:240|376:192,1,160,2|0
368,104,49515,5,0
288,48,49860,1,2
192,56,50204,1,2
136,248,51584,6,0,B|96:200|144:168,1,80,2|0
224,200,52273,1,0
256,192,52618,12,0,54342
160,128,54687,5,0
256,128,55032,1,0
352,128,55377,1,0
256,192,55722,12,4,57446
376,112,57963,5,2
384,256,58480,2,2,B|280:168|272:312|144:208,1,240,2|6
144,128,59860,6,0,B|80:128|80:208,1,80
104,264,60549,1,0
232,328,61067,2,0,B|296:360|352:320,1,120,0|4
368,232,61929,5,0
432,160,62273,1,2
336,136,62618,2,0,B|224:56|224:184|96:96,1,240,0|4
136,296,64342,6,0,B|192:288|208:240,1,80
160,232,64860,2,0,B|104:200|136:136,1,80
264,184,65722,1,4
352,144,66067,5,0
440,120,66411,1,0
424,216,66756,2,0,B|416:296|328:296,2,120,0|0|4
384,128,68135,5,0
304,72,68480,1,2
280,168,68825,2,0,B|248:288|88:296,1,240,0|4
128,200,70204,1,0
64,128,70549,1,0
160,112,70894,1,0
208,32,71239,5,0
304,32,71584,1,0
344,120,71929,2,0,B|392:120|400:56,1,80,4|0
440,152,72618,1,0
408,240,72963,6,0,B|360:256|328:208,2,80
352,320,73998,1,6
256,296,74342,2,0,B|224:336|160:312,2,80
184,232,75377,5,0
216,200,75549,1,2
312,200,75894,1,2
344,232,76067,1,4
416,168,76411,5,0
488,104,76756,1,0
416,40,77101,1,0
344,104,77446,2,0,B|288:80|264:144|192:80,1,160,0|4
104,104,78480,6,0,B|48:136|112:200,2,80
208,208,79687,1,0
88,288,80204,1,6
184,312,80549,6,0,B|248:352|296:320,1,80
352,320,81239,2,0,B|408:280|392:200,1,120
360,72,82273,1,4
264,64,82618,6,0,B|224:16|160:48,1,80
96,56,83308,2,0,B|40:104|96:168,1,120
232,168,84342,1,4
168,240,84687,6,0,B|208:280|264:256,2,80
312,232,85894,1,0
424,144,86411,1,4
472,224,86756,1,0
424,304,87101,5,0
328,328,87446,1,0
312,184,87963,2,0,B|184:184,1,120
