osu file format v5

[General]
AudioFilename: Taishou A.mp3
AudioLeadIn: 0
PreviewTime: 55538
Countdown: 0
SampleSet: Soft
StackLeniency: 0.7
Mode: 0
LetterboxInBreaks: 1
EditorBookmarks: 5684,38814,67786
EditorDistanceSpacing: 1.20000004768372

[Metadata]
Title:Taishou A (TV Size)
Artist:anNina
Creator:HarryOrunitia
Version:Hard
Source:Higurashi no Naku Koro ni Kai
Tags:Higurashi no Naku Koro ni anime jpop anNina

[Difficulty]
HPDrainRate:7
CircleSize:4
OverallDifficulty:6
SliderMultiplier:1.2
SliderTickRate:1

[Events]
//Background and Video events
0,0,"Taishou A Background.jpg"
Video,0,"Taishou A vid.avi"
//Break Periods
//Storyboard Layer 0 (Background)
//Storyboard Layer 1 (Fail)
//Storyboard Layer 2 (Pass)
//Storyboard Layer 3 (Foreground)
//Storyboard Sound Samples
//Background Colour Transformations
3,100,163,162,255

[TimingPoints]
6067,517.241379310345,4,2,0,70,1,0

[Colours]
Combo1 : 118,120,224
Combo2 : 10,38,140
Combo3 : 212,66,78

[HitObjects]
160,184,6066,1,0
240,128,6411,1,0
248,224,6756,1,0
480,264,7618,5,2
448,296,7791,1,0
400,296,7963,1,2
344,216,8308,2,0,B|304:176|248:216,1,100
224,240,8911,1,2
64,112,10722,6,0,B|80:80|128:80,1,40,0|2
128,176,11239,1,0
208,216,11584,1,2
296,176,11929,2,0,B|280:280|408:288,1,160
424,264,12791,1,2
456,232,12963,1,0
472,136,13308,1,0
288,96,13998,6,0,B|224:96,1,40
344,96,14515,2,0,B|352:160|264:184,1,120,0|2
192,136,15377,6,0,B|168:160|176:184,1,40,0|2
200,264,15894,2,0,B|224:288|216:312,1,40,0|2
128,344,16411,1,0
80,264,16756,1,0
160,208,17101,2,0,B|72:184|88:64,1,160,0|2
176,120,18135,1,2
208,32,18480,2,0,B|312:72|272:184,1,160
208,216,19515,5,0
160,224,19687,1,2
152,272,19860,2,0,B|176:328|240:312,1,80
256,320,20377,1,2
304,320,20549,2,0,B|360:328|367:268,1,80
320,200,21239,2,0,B|312:136|384:136,1,80
56,48,22273,6,0,B|128:32|120:112,1,80,0|2
88,168,22963,5,0
88,216,23135,1,2
136,232,23308,1,0
192,152,23653,1,0
192,152,23825,2,0,B|224:216|296:200,1,120
376,160,24687,1,0
352,64,25032,5,2
448,40,25377,1,0
376,160,25894,2,0,B|384:208|320:224,1,80
336,220,26411,1,2
264,152,26756,2,0,B|168:216|248:320,1,160
312,328,27791,5,0
392,280,28135,1,0
424,240,28308,1,2
432,192,28480,1,0
416,96,28825,1,0
336,152,29170,1,0
336,56,29515,1,2
248,104,29860,2,0,B|216:192|296:248,1,160
336,152,30894,5,0
424,176,31239,1,0
360,248,31584,1,0
280,304,31929,5,0
232,312,32101,1,2
144,272,32446,1,0
128,224,32618,1,2
96,136,32963,1,0
192,160,33308,1,0
168,64,33653,2,0,B|256:136|272:32|408:88,1,240,0|2
384,176,35032,1,0
416,264,35377,6,0,B|360:280|320:240,1,80
256,208,36067,1,2
256,208,36239,1,0
136,64,37101,5,0
80,144,37446,1,2
136,224,37791,2,0,B|144:296|232:312,2,120,0|0|2
352,128,39687,5,0
312,104,39860,2,0,B|248:72|192:104,1,120,0|2
160,240,40894,1,0
256,240,41239,1,0
312,312,41584,5,0
408,312,41929,1,2
440,168,42446,2,0,B|344:200|336:112|232:176,1,200,0|2
256,352,43998,5,2
96,192,44515,1,0
256,32,45032,1,2
416,192,45549,1,0
256,352,46067,1,2
256,192,46411,12,0,47618
352,280,47963,6,0,B|384:280|392:240,1,40,0|2
424,176,48480,2,0,B|448:152|440:120,1,40,0|2
200,104,49515,5,0
112,152,49860,1,2
40,208,50204,1,0
40,208,50377,1,2
112,272,50722,1,0
408,312,51584,6,0,B|448:272|416:232,1,80,2|0
328,216,52273,1,2
328,216,52446,2,0,B|288:176|328:112,1,80
424,48,53308,1,0
328,48,53653,1,0
232,48,53998,1,0
184,128,54342,5,0
280,128,54687,1,0
376,128,55032,1,0
472,128,55377,1,0
480,176,55549,1,2
464,224,55722,1,0
432,256,55894,1,2
384,264,56067,1,4
256,192,56411,12,4,57446
392,88,57963,5,2
392,232,58480,2,2,B|288:144|280:288|152:184,1,240,2|6
128,112,59860,6,0,B|64:112|64:192,1,80
104,248,60549,1,0
104,248,60722,1,2
184,304,61067,2,0,B|248:336|304:296,1,120,0|4
376,248,61929,5,0
448,192,62273,1,2
352,160,62618,2,0,B|312:48|136:56,1,240,0|4
88,232,64342,6,0,B|104:280|160:288,1,80,0|2
193,285,64860,2,0,B|241:277|257:213,1,80
216,96,65722,1,4
464,128,66067,5,0
424,96,66239,1,2
376,104,66411,1,0
408,192,66756,2,0,B|400:272|312:272,2,120,0|0|4
376,104,68135,5,0
296,48,68480,1,2
200,40,68825,2,0,B|72:32|32:176,1,200
45,140,69860,1,4
136,144,70204,1,0
88,224,70549,1,0
184,224,70894,1,0
232,304,71239,5,0
280,320,71411,1,2
328,304,71584,1,0
312,208,71929,2,0,B|360:208|368:144,1,80,4|0
320,136,72446,1,2
360,104,72618,1,0
280,56,72963,6,0,B|232:72|200:24,1,80
208,35,73480,1,0
128,88,73825,1,0
168,112,73998,1,6
96,176,74342,2,0,B|48:224|112:272,2,80
176,224,75377,5,0
216,248,75549,1,2
256,224,75722,1,0
296,248,75894,1,2
336,224,76067,1,4
416,168,76411,5,0
488,104,76756,1,0
416,40,77101,1,0
344,104,77446,1,2
344,104,77618,2,0,B|288:80|264:144|216:96,1,120,0|4
184,88,78308,1,2
136,104,78480,6,0,B|80:136|144:200,3,80
160,200,79687,1,0
88,264,80032,1,0
128,288,80204,1,6
216,312,80549,6,0,B|280:352|328:320,1,80
384,304,81239,2,0,B|424:280|416:232,1,80
417,237,81756,1,2
408,144,82101,1,0
408,144,82273,1,4
248,56,82618,6,0,B|184:16|136:48,1,80
80,64,83308,2,0,B|40:88|48:136,1,80
47,131,83825,1,2
56,224,84170,1,0
56,224,84342,1,4
120,296,84687,6,0,B|160:336|216:312,3,80
216,272,85894,1,2
240,176,86239,2,0,B|264:144|296:144,1,40,0|4
328,224,86756,1,0
320,320,87101,5,0
408,288,87446,1,0
448,200,87791,2,0,B|400:200,1,40,0|2
352,120,88308,2,0,B|400:120,1,40
