osu file format v14

[General]
AudioFilename: Amazarashi.mp3
AudioLeadIn: 2000
PreviewTime: 52694
Countdown: 0
SampleSet: Soft
StackLeniency: 0.7
Mode: 0
LetterboxInBreaks: 0
WidescreenStoryboard: 0

[Editor]
DistanceSpacing: 1
BeatDivisor: 4
GridSize: 4
TimelineZoom: 1.6

[Metadata]
Title:Kisetsu wa Tsugitsugi Shindeiku -Tokyo Ghoul Root A Edit-
TitleUnicode:季節は次々死んでいく -東京喰種トーキョーグール√A Edit-
Artist:amazarashi
ArtistUnicode:amazarashi
Creator:NewIpas
Version:Normal
Source:東京喰種 トーキョーグール√A
Tags:tokyo ghoul root a season 2 ending Seasons die one after another
BeatmapID:618525
BeatmapSetID:271339

[Difficulty]
HPDrainRate:4
CircleSize:3.2
OverallDifficulty:4
ApproachRate:5
SliderMultiplier:1
SliderTickRate:1

[Events]
//Background and Video events
0,0,"BG.jpg",0,0
Video,410,"video.avi"
//Break Periods
//Storyboard Layer 0 (Background)
//Storyboard Layer 1 (Fail)
//Storyboard Layer 2 (Pass)
//Storyboard Layer 3 (Foreground)
//Storyboard Sound Samples

[TimingPoints]
319,331.491712707182,4,2,1,40,1,0
9600,-100,4,2,1,50,0,0
30484,-100,4,2,1,45,0,0
31479,-100,4,2,1,40,0,0
32142,-100,4,2,1,35,0,0
42749,-100,4,2,1,40,0,0
44075,-100,4,2,1,45,0,0
45401,-100,4,2,1,50,0,0
46727,-100,4,2,1,55,0,0
48053,-100,4,2,1,60,0,0
49379,-100,4,2,1,65,0,0
50705,-100,4,2,1,70,0,0
52031,-100,4,2,1,45,0,0
52694,-100,4,2,1,50,0,0
53357,-100,4,2,1,70,0,1
74573,-100,4,2,1,70,0,0
80539,-100,4,2,1,65,0,0
81202,-100,4,2,1,60,0,0
82197,-100,4,2,1,65,0,0
82528,-100,4,2,1,70,0,0
83191,-100,4,2,1,65,0,0
83854,-100,4,2,1,60,0,0
87832,-100,4,2,1,40,0,0

[Colours]
Combo1 : 108,196,217
Combo2 : 202,84,222
Combo3 : 95,218,88
Combo4 : 200,100,100

[HitObjects]
184,120,319,6,0,L|156:220,1,100,0|0,3:0|3:0,0:0:0:0:
220,292,981,2,0,P|268:312|316:312,1,100,0|0,3:0|3:0,0:0:0:0:
412,292,1644,2,0,L|440:192,1,100,0|0,3:0|3:0,0:0:0:0:
364,128,2307,2,0,P|316:108|268:108,1,100,0|0,3:0|3:0,0:0:0:0:
168,112,2970,6,0,L|60:84,1,100,0|0,3:0|3:0,0:0:0:0:
84,188,3633,2,0,P|68:236|76:284,1,100,0|0,3:0|3:0,0:0:0:0:
172,316,4296,1,0,3:0:0:0:
268,284,4628,2,0,L|368:256,2,100,0|0|0,3:0|3:0|3:0,0:0:0:0:
256,192,5622,12,0,9600,3:0:0:0:
152,80,10926,6,0,P|132:128|128:184,1,100,0|8,3:0|3:2,0:0:0:0:
156,216,11423,1,0,0:0:0:0:
200,240,11589,2,0,L|304:240,1,100,0|8,3:0|3:2,0:0:0:0:
384,184,12252,6,0,P|384:136|356:92,1,100,0|8,3:0|3:2,0:0:0:0:
320,56,12749,1,0,0:0:0:0:
276,36,12915,2,0,P|228:56|188:92,1,100,0|8,3:0|3:2,0:0:0:0:
188,188,13578,6,0,L|188:288,1,100,0|8,3:0|3:2,0:0:0:0:
156,328,14075,1,0,0:0:0:0:
108,340,14241,2,0,P|72:300|56:256,1,100,0|8,3:0|3:2,0:0:0:0:
28,164,14904,5,0,3:0:0:0:
104,100,15236,1,8,3:2:0:0:
196,64,15567,2,0,L|296:64,1,100,0|8,3:0|3:2,0:0:0:0:
340,92,16064,1,0,0:0:0:0:
372,132,16230,6,0,P|400:180|400:228,1,100,0|8,3:0|3:2,0:0:0:0:
340,304,16893,2,0,L|236:304,1,100,0|8,3:0|3:2,0:0:0:0:
188,304,17390,1,0,0:0:0:0:
136,304,17556,6,0,P|84:272|60:228,1,100,0|8,3:0|3:2,0:0:0:0:
160,204,18219,1,0,3:0:0:0:
104,120,18551,1,8,3:2:0:0:
156,36,18882,6,0,L|260:32,1,100,0|8,3:0|3:2,0:0:0:0:
356,24,19545,2,0,P|408:36|448:80,1,100,0|8,3:0|3:2,0:0:0:0:
444,168,20208,1,0,3:0:0:0:
344,156,20539,2,0,L|364:260,1,100,8|0,3:2|3:0,0:0:0:0:
320,344,21202,1,8,3:2:0:0:
220,360,21534,6,0,P|168:344|136:312,1,100,0|8,3:0|3:2,0:0:0:0:
60,248,22197,1,0,3:0:0:0:
132,180,22528,2,0,B|180:168|228:184|284:200|332:180,1,200,0|8,0:0|3:2,0:0:0:0:
368,88,23523,2,0,L|268:88,1,100,0|8,3:0|3:2,0:0:0:0:
172,56,24185,5,0,3:0:0:0:
80,96,24517,2,0,B|56:140|56:140|56:192,1,100,8|0,3:2|3:0,0:0:0:0:
96,280,25180,2,0,B|144:292|188:324|188:324|228:296|276:280,1,200,0|8,0:0|3:2,0:0:0:0:
372,248,26175,1,0,3:0:0:0:
428,168,26506,1,8,3:2:0:0:
352,104,26838,6,0,L|252:104,1,100,0|8,3:0|3:2,0:0:0:0:
204,100,27335,1,0,0:0:0:0:
156,104,27501,2,0,P|108:112|64:144,1,100,0|8,3:0|3:2,0:0:0:0:
68,240,28164,6,0,P|108:268|157:276,1,100,0|8,3:0|3:2,0:0:0:0:
208,268,28661,1,0,0:0:0:0:
260,268,28827,2,0,P|300:292|324:340,1,100,0|8,3:0|3:2,0:0:0:0:
420,308,29490,6,0,L|420:204,1,100,0|8,3:0|3:2,0:0:0:0:
344,140,30153,2,0,P|292:132|244:140,1,100,0|8,3:0|3:2,0:0:0:0:
294,224,30816,2,0,L|294:328,1,100,0|8,3:0|3:2,0:0:0:0:
196,320,31479,2,0,P|184:272|192:220,1,100,0|8,3:0|3:2,0:0:0:0:
245,139,32142,6,0,L|144:140,1,100,0|0,3:0|0:0,0:0:0:0:
44,144,32805,2,0,B|44:176|44:176|24:216|24:216|24:240,1,100,2|0,0:0|0:0,0:0:0:0:
48,336,33468,2,0,P|96:312|148:308,1,100,0|0,0:0|0:0,0:0:0:0:
240,300,34131,2,0,B|288:284|340:308|388:332|436:304,1,200,2|0,0:0|0:0,0:0:0:0:
424,204,35125,5,0,0:0:0:0:
420,104,35457,2,0,P|401:58|360:30,1,100,2|0,0:0|0:0,0:0:0:0:
316,56,35954,1,0,0:0:0:0:
272,80,36120,2,0,B|168:80|168:80|140:120|148:192,1,200,0|2,0:0|0:0,0:0:0:0:
284,316,37446,6,0,P|336:304|368:272,1,100,4|0,0:1|0:0,0:0:0:0:
412,184,38109,2,0,P|412:132|384:92,1,100,2|0,0:0|0:0,0:0:0:0:
288,68,38772,2,0,L|188:68,1,100,0|0,0:0|0:0,0:0:0:0:
164,112,39269,1,0,0:0:0:0:
148,160,39435,2,0,P|132:212|144:260,1,100,2|0,0:0|0:0,0:0:0:0:
224,316,40098,6,0,L|324:316,1,100,0|0,0:0|0:0,0:0:0:0:
368,224,40760,2,0,L|268:224,1,100,2|0,0:0|0:0,0:0:0:0:
176,188,41423,2,0,P|128:200|96:236,1,100,0|0,0:0|0:0,0:0:0:0:
84,336,42086,1,2,0:0:0:0:
284,336,42749,6,0,P|244:304|228:260,1,100,4|0,3:1|3:0,0:0:0:0:
276,172,43412,2,0,P|360:116|356:20,1,200,0|0,3:0|3:0,0:0:0:0:
272,72,44407,1,0,3:0:0:0:
172,72,44738,2,0,B|172:152|172:152|152:192|152:192|152:272,1,200,0|0,3:0|3:0,0:0:0:0:
248,236,45733,6,0,L|352:236,1,100,0|0,3:0|3:0,0:0:0:0:
444,208,46396,1,0,3:0:0:0:
384,128,46727,1,0,3:0:0:0:
284,120,47059,2,0,L|284:56,2,50,0|0|0,3:0|0:0|3:0,0:0:0:0:
152,268,48053,6,0,B|224:268|224:268|268:304|268:304|344:304,1,200,4|0,3:1|3:0,0:0:0:0:
428,256,49048,1,0,3:0:0:0:
392,164,49379,2,0,B|320:164|320:164|276:128|276:128|200:128,1,200,0|0,3:0|3:0,0:0:0:0:
108,304,50705,6,0,B|192:304|192:304|208:308,1,100,4|4,3:1|3:1,0:0:0:0:
256,320,51202,1,0,0:0:0:0:
304,332,51368,2,0,P|340:300|356:252,1,100,4|4,3:1|3:1,0:0:0:0:
340,152,52031,6,0,B|344:112|372:80|372:80|308:100|248:56,1,200,0|0,3:0|0:0,0:0:0:0:
56,88,53357,6,0,P|52:184|120:256,1,200,4|0,3:1|3:0,0:0:0:0:
320,248,54683,2,0,B|348:248|368:240|368:240|388:248|420:248,2,100,0|0|0,3:0|3:0|3:0,0:0:0:0:
300,148,55678,1,0,3:0:0:0:
216,96,56009,6,0,P|300:48|384:96,1,200,0|0,3:0|3:0,0:0:0:0:
304,276,57335,2,0,P|252:276|208:252,1,100,0|0,3:0|3:0,0:0:0:0:
144,180,57998,2,0,P|100:208|72:248,2,100,0|0|4,3:0|3:0|3:1,0:0:0:0:
272,336,59324,6,0,B|336:336|336:336|368:320,1,100,0|0,3:0|3:0,0:0:0:0:
316,232,59987,2,0,B|348:216|348:216|412:216,1,100,0|0,3:0|3:0,0:0:0:0:
452,124,60650,1,0,3:0:0:0:
452,124,60981,1,0,3:0:0:0:
368,72,61313,6,0,B|260:72|260:72|212:72|184:120,1,200,0|0,3:0|3:0,0:0:0:0:
300,280,62639,2,0,P|360:324|428:296,2,150,0|0|4,0:0|0:0|0:0,0:0:0:0:
256,192,63965,6,0,L|152:192,1,100,4|8,3:1|3:2,0:0:0:0:
64,148,64628,2,0,P|56:204|72:248,1,100,8|0,3:2|3:0,0:0:0:0:
148,308,65291,2,0,B|184:324|216:304|216:304|252:284|292:308,2,150,8|8|8,3:2|3:2|3:2,0:0:0:0:
140,208,66617,6,0,L|140:104,1,100,4|8,3:1|3:2,0:0:0:0:
236,144,67280,2,0,P|288:144|332:164,1,100,8|0,3:2|3:0,0:0:0:0:
384,248,67943,2,0,P|432:164|416:108,2,150,8|8|8,3:2|3:2|3:2,0:0:0:0:
288,268,69269,6,0,B|264:264|264:264|240:272|240:272|216:264|216:264|192:268,2,100,4|8|8,3:1|3:2|3:2,0:0:0:0:
376,320,70263,1,0,3:0:0:0:
464,268,70595,2,0,B|472:220|472:220|464:168,1,100,8|0,3:2|3:0,0:0:0:0:
432,128,71092,1,8,3:2:0:0:
388,104,71258,2,0,L|288:104,1,100,0|8,3:0|3:2,0:0:0:0:
208,164,71921,6,0,P|176:204|160:252,1,100,4|8,3:1|3:2,0:0:0:0:
120,344,72584,2,0,P|176:348|228:324,1,100,8|0,3:2|3:0,0:0:0:0:
316,336,73247,2,0,L|316:236,1,100,0|8,3:0|3:2,0:0:0:0:
316,184,73744,1,0,0:0:0:0:
316,132,73910,2,0,P|280:100|220:88,1,100,0|8,3:0|3:2,0:0:0:0:
256,192,74573,12,4,77225,3:1:0:0:
292,196,78551,6,0,P|248:216|216:256,1,100,0|0,3:0|3:0,0:0:0:0:
312,296,79214,2,0,L|412:296,1,100,0|0,3:0|3:0,0:0:0:0:
440,252,79711,1,0,0:0:0:0:
460,204,79877,6,0,B|460:152|460:152|432:112,1,100,4|0,3:1|3:0,0:0:0:0:
336,92,80539,2,0,B|296:84|276:64|276:64|244:72,1,100,0|0,3:0|3:0,0:0:0:0:
224,168,81202,2,0,L|124:168,1,100,0|0,3:0|3:0,0:0:0:0:
108,268,81865,2,0,P|124:288|148:300,1,50,0|0,3:0|3:2,0:0:0:0:
196,296,82197,2,0,L|248:296,1,50,0|8,3:0|3:2,0:0:0:0:
296,308,82528,6,0,B|396:308|396:308|444:216,2,200,4|0|0,3:1|3:0|3:0,0:0:0:0:
96,312,84517,1,0,3:0:0:0:
156,120,85180,6,0,B|204:120|204:120|224:140|256:140,1,100,0|8,3:0|3:2,0:0:0:0:
284,176,85678,1,0,0:0:0:0:
316,216,85843,2,0,B|368:216|368:216|420:192,1,100,0|8,3:0|3:2,0:0:0:0:
432,152,86341,1,8,0:0:0:0:
440,100,86506,6,0,P|416:56|368:40,1,100,0|8,3:0|3:2,0:0:0:0:
320,36,87004,1,8,0:0:0:0:
272,36,87169,2,0,L|168:36,1,100,0|8,3:0|0:0,0:0:0:0:
132,68,87667,2,0,P|124:100|128:120,1,50,8|0,0:0|0:0,0:0:0:0:
