osu file format v14

[General]
AudioFilename: Amazarashi.mp3
AudioLeadIn: 2000
PreviewTime: 52694
Countdown: 0
SampleSet: Soft
StackLeniency: 0.7
Mode: 0
LetterboxInBreaks: 0
WidescreenStoryboard: 0

[Editor]
DistanceSpacing: 1.2
BeatDivisor: 4
GridSize: 4
TimelineZoom: 1.6

[Metadata]
Title:Kisetsu wa Tsugitsugi Shindeiku -Tokyo Ghoul Root A Edit-
TitleUnicode:季節は次々死んでいく -東京喰種トーキョーグール√A Edit-
Artist:amazarashi
ArtistUnicode:amazarashi
Creator:NewIpas
Version:Hard
Source:東京喰種 トーキョーグール√A
Tags:tokyo ghoul root a season 2 ending Seasons die one after another
BeatmapID:616927
BeatmapSetID:271339

[Difficulty]
HPDrainRate:5.5
CircleSize:4
OverallDifficulty:6
ApproachRate:7.5
SliderMultiplier:1.4
SliderTickRate:1

[Events]
//Background and Video events
0,0,"BG.jpg",0,0
Video,410,"video.avi"
//Break Periods
//Storyboard Layer 0 (Background)
//Storyboard Layer 1 (Fail)
//Storyboard Layer 2 (Pass)
//Storyboard Layer 3 (Foreground)
//Storyboard Sound Samples

[TimingPoints]
319,331.491712707182,4,2,1,40,1,0
8274,-100,4,2,1,45,0,0
9600,-100,4,2,1,50,0,0
9932,-100,4,2,1,55,0,0
10429,-100,4,2,1,60,0,0
10926,-100,4,2,1,50,0,0
30484,-100,4,2,1,45,0,0
31479,-100,4,2,1,40,0,0
32142,-100,4,2,1,35,0,0
37114,-100,4,2,1,20,0,0
37446,-100,4,2,1,35,0,0
41423,-100,4,2,1,40,0,0
42418,-100,4,2,1,25,0,0
42584,-100,4,2,1,40,0,0
44075,-100,4,2,1,45,0,0
45401,-100,4,2,1,50,0,0
46727,-100,4,2,1,55,0,0
48053,-100,4,2,1,60,0,0
49379,-100,4,2,1,65,0,0
50705,-100,4,2,1,70,0,0
52031,-100,4,2,1,45,0,0
52694,-100,4,2,1,50,0,0
52860,-100,4,2,1,55,0,0
53026,-100,4,2,1,60,0,0
53191,-100,4,2,1,65,0,0
53357,-90.9090909090909,4,2,1,70,0,1
74075,-90.9090909090909,4,2,1,50,0,1
74241,-90.9090909090909,4,2,1,60,0,1
74407,-90.9090909090909,4,2,1,70,0,1
74573,-100,4,2,1,70,0,0
80539,-100,4,2,1,65,0,0
81202,-100,4,2,1,60,0,0
82197,-100,4,2,1,65,0,0
82528,-100,4,2,1,70,0,0
83191,-100,4,2,1,65,0,0
83854,-100,4,2,1,60,0,0
87832,-100,4,2,1,40,0,0

[Colours]
Combo1 : 108,196,217
Combo2 : 202,84,222
Combo3 : 95,218,88
Combo4 : 200,100,100

[HitObjects]
112,84,319,6,0,P|148:136|224:144,1,140,0|0,3:0|3:0,0:0:0:0:
388,168,981,2,0,P|360:232|296:256,1,140,0|0,3:0|3:0,0:0:0:0:
132,220,1644,2,0,B|108:288|108:288|128:352,1,140,0|0,3:0|3:0,0:0:0:0:
292,312,2307,2,0,L|364:312,1,70,0|0,3:0|3:0,0:0:0:0:
388,232,2639,2,0,L|460:232,1,70,0|0,3:0|0:0,0:0:0:0:
448,148,2970,6,0,P|412:84|348:76,1,140,0|0,3:0|3:0,0:0:0:0:
200,152,3633,2,0,P|132:176|76:136,1,140,0|0,3:0|3:0,0:0:0:0:
236,80,4296,2,0,P|276:128|264:200,1,140,0|0,3:0|3:0,0:0:0:0:
204,264,4794,1,0,3:0:0:0:
276,312,4959,2,0,L|348:340,1,70,0|0,3:0|3:0,0:0:0:0:
196,344,5291,2,0,L|124:316,1,70,0|0,3:0|0:0,0:0:0:0:
68,264,5622,6,0,B|48:228|73:195|96:164|76:128,1,140,4|0,3:1|3:0,0:0:0:0:
236,80,6285,2,0,B|292:80|292:80|320:96|320:96|372:96,1,140,0|0,3:0|3:0,0:0:0:0:
220,164,6948,2,0,B|164:164|164:164|136:180|136:180|84:180,1,140,0|0,3:0|3:0,0:0:0:0:
96,348,7611,1,0,3:0:0:0:
264,340,7943,1,0,3:0:0:0:
264,340,8274,6,0,B|300:340|300:340|364:316|364:316|400:316,1,140,0|0,3:0|3:0,0:0:0:0:
436,152,8937,2,0,B|380:164|328:152|328:152|304:176,1,140,0|0,3:0|3:0,0:0:0:0:
256,104,9435,1,0,0:0:0:0:
206,174,9600,2,0,B|184:152|184:152|132:164|76:152,1,140,0|0,3:0|3:0,0:0:0:0:
192,268,10263,2,0,P|228:248|256:240,2,70,0|0|0,3:0|0:0|3:0,0:0:0:0:
140,332,10760,1,0,0:0:0:0:
256,324,10926,6,0,P|308:352|388:320,1,140,0|8,3:0|3:2,0:0:0:0:
400,244,11423,1,0,0:0:0:0:
320,268,11589,2,0,P|328:196|320:128,1,140,0|8,3:0|3:2,0:0:0:0:
272,60,12086,1,0,0:0:0:0:
196,96,12252,6,0,P|188:168|196:236,1,140,0|8,3:0|3:2,0:0:0:0:
144,300,12749,1,0,0:0:0:0:
80,248,12915,2,0,P|40:260|12:280,1,70,0|0,3:0|0:0,0:0:0:0:
112,168,13247,2,0,P|72:168|40:172,1,70,8|0,3:2|0:0,0:0:0:0:
56,88,13578,6,0,P|128:84|196:96,1,140,0|8,3:0|3:2,0:0:0:0:
332,180,14241,2,0,P|260:184|192:172,1,140,0|8,3:0|3:2,0:0:0:0:
188,256,14738,1,0,0:0:0:0:
248,316,14904,2,0,P|284:336|328:336,1,70,0|0,3:0|0:0,0:0:0:0:
308,256,15236,1,8,3:2:0:0:
356,188,15401,6,0,L|392:188,2,35,0|8|0,0:0|0:0|3:0,0:0:0:0:
312,116,15733,1,0,0:0:0:0:
244,68,15899,1,8,3:2:0:0:
180,120,16064,1,0,0:0:0:0:
140,48,16230,6,0,P|96:104|76:172,1,140,0|8,3:0|3:2,0:0:0:0:
40,244,16727,1,0,0:0:0:0:
40,244,16810,1,8,0:0:0:0:
40,244,16893,2,0,P|112:256|180:232,1,140,0|8,3:0|3:2,0:0:0:0:
252,200,17390,1,0,0:0:0:0:
244,284,17556,6,0,B|276:291|308:276|308:276|335:292|380:284,1,140,0|8,3:0|3:2,0:0:0:0:
400,200,18053,2,0,L|400:128,1,70,0|0,0:0|3:0,0:0:0:0:
344,64,18385,1,0,0:0:0:0:
292,128,18551,2,0,P|280:136|224:140,1,70,8|0,3:2|0:0,0:0:0:0:
160,88,18882,6,0,B|96:112|96:112|64:176,1,140,0|8,3:0|3:2,0:0:0:0:
56,344,19545,2,0,L|196:344,1,140,0|8,3:0|3:2,0:0:0:0:
244,276,20042,1,0,0:0:0:0:
320,312,20208,5,0,3:0:0:0:
320,312,20374,1,0,0:0:0:0:
400,332,20539,2,0,P|440:272|440:200,1,140,8|0,3:2|3:0,0:0:0:0:
388,140,21037,1,0,0:0:0:0:
368,60,21202,1,8,3:2:0:0:
208,116,21534,6,0,L|68:116,2,140,0|8|0,3:0|3:2|3:0,0:0:0:0:
104,248,22528,2,0,P|140:256|176:248,1,70,0|8,0:0|3:2,0:0:0:0:
332,312,23026,1,0,0:0:0:0:
380,244,23191,2,0,B|376:208|376:208|384:176|384:176|376:140|376:140|384:108,1,140,8|0,3:2|3:0,0:0:0:0:
304,76,23689,1,0,0:0:0:0:
220,68,23854,1,8,3:2:0:0:
144,104,24020,1,0,0:0:0:0:
92,168,24186,6,0,P|68:236|80:304,2,140,0|8|0,3:0|3:2|3:0,0:0:0:0:
248,228,25180,2,0,L|320:228,1,70,0|8,0:0|3:2,0:0:0:0:
380,168,25512,2,0,P|412:180|436:208,1,70,0|0,0:0|0:0,0:0:0:0:
440,292,25843,2,0,P|384:324|304:324,1,140,8|0,3:2|3:0,0:0:0:0:
224,320,26341,1,0,0:0:0:0:
148,288,26506,1,8,3:2:0:0:
140,120,26838,6,0,P|200:84|256:116,1,140,0|8,3:0|3:2,0:0:0:0:
256,200,27335,1,0,0:0:0:0:
256,284,27501,2,0,P|315:315|371:279,1,140,0|8,3:0|3:2,0:0:0:0:
424,212,27998,2,0,P|432:180|436:140,1,70,0|0,0:0|3:0,0:0:0:0:
376,84,28330,1,0,0:0:0:0:
300,48,28495,2,0,P|263:38|230:36,1,70,8|0,3:2|0:0,0:0:0:0:
152,64,28827,2,0,P|124:140|124:204,1,140,0|8,3:0|3:2,0:0:0:0:
180,264,29324,1,0,0:0:0:0:
124,324,29490,6,0,P|200:344|248:308,2,140,0|8|0,3:0|3:2|3:0,0:0:0:0:
260,224,30484,2,0,P|320:264|328:340,1,140,8|0,3:2|3:0,0:0:0:0:
416,312,30981,1,0,0:0:0:0:
448,232,31147,2,0,L|432:92,1,140,8|0,3:2|3:0,0:0:0:0:
352,72,31644,1,0,0:0:0:0:
288,128,31810,1,8,3:2:0:0:
288,128,32142,6,4,L|216:128,1,70,0|0,3:0|0:0,0:0:0:0:
140,160,32473,2,0,B|68:160|68:160|16:112,1,140,0|2,0:0|0:0,0:0:0:0:
184,76,33136,1,2,0:0:0:0:
352,72,33468,2,0,P|384:84|412:108,1,70
404,192,33799,2,0,B|372:180|344:156|344:156|328:228,2,140,0|2|0,0:0|0:0|0:0,0:0:0:0:
288,312,34794,5,0,0:0:0:0:
128,260,35125,2,0,L|124:116,1,140,0|2,0:0|0:0,0:0:0:0:
248,236,35788,1,0,0:0:0:0:
248,236,35954,1,0,0:0:0:0:
248,236,36120,2,0,P|284:176|260:108,1,140,0|0,0:0|0:0,0:0:0:0:
132,216,36783,2,0,P|96:276|120:344,1,140,2|2,0:0|0:0,0:0:0:0:
284,332,37446,6,0,B|356:332|356:332|380:308|379:270,1,140,4|0,0:1|0:0,0:0:0:0:
404,104,38109,2,0,B|332:104|332:104|308:128|308:165,1,140,2|0,0:0|0:0,0:0:0:0:
284,332,38772,2,0,B|232:332|232:332|192:312|192:312|148:312,1,140,0|0,0:0|0:0,0:0:0:0:
96,248,39269,1,0,0:0:0:0:
84,164,39435,2,0,B|164:164|164:164|188:184|224:184,1,140,2|0,0:0|0:0,0:0:0:0:
384,224,40098,6,0,L|448:196,1,70,0|0,0:0|0:0,0:0:0:0:
412,120,40429,2,0,L|348:148,1,70,0|0,0:0|0:0,0:0:0:0:
288,208,40760,2,0,P|252:216|216:208,1,70,2|0,0:0|0:0,0:0:0:0:
172,140,41092,2,0,P|137:133|103:141,1,70,0|0,0:0|0:0,0:0:0:0:
140,216,41423,2,0,L|168:356,1,140,0|0,0:0|0:0,0:0:0:0:
336,352,42086,2,0,L|363:214,1,140,2|2,0:0|0:0,0:0:0:0:
380,132,42584,1,0,0:0:0:0:
256,188,42749,6,0,L|176:188,1,70,4|0,3:1|0:0,0:0:0:0:
160,108,43081,2,0,L|232:108,1,70,0|0,3:0|0:0,0:0:0:0:
312,84,43412,2,0,B|300:36|256:28|256:28|196:28,1,140,0|0,3:0|3:0,0:0:0:0:
116,172,44075,6,0,L|196:172,1,70,0|0,3:0|0:0,0:0:0:0:
212,252,44407,2,0,L|140:252,1,70,0|0,3:0|0:0,0:0:0:0:
60,276,44738,2,0,B|72:324|116:332|116:332|176:332,1,140,0|0,3:0|3:0,0:0:0:0:
256,324,45236,1,0,0:0:0:0:
340,332,45401,6,0,B|396:332|396:332|440:324|452:276,1,140,0|0,3:0|3:0,0:0:0:0:
372,252,45899,1,0,0:0:0:0:
396,172,46064,2,0,L|324:172,1,70,0|0,3:0|0:0,0:0:0:0:
280,244,46396,2,0,P|240:244|208:228,1,70,0|0,3:0|0:0,0:0:0:0:
170,160,46727,6,0,L|100:160,2,70,0|0|0,3:0|0:0|3:0,0:0:0:0:
208,84,47225,1,0,0:0:0:0:
208,84,47390,2,0,B|236:68|256:32|256:32|272:68|300:84,1,140,0|0,3:0|3:0,0:0:0:0:
304,168,47888,1,0,3:0:0:0:
372,224,48053,6,0,P|360:292|308:340,2,140,4|0|0,3:1|3:0|3:0,0:0:0:0:
304,168,48882,1,0,0:0:0:0:
304,168,49048,2,0,P|272:188|240:200,1,70,0|0,3:0|0:0,0:0:0:0:
113,179,49379,2,0,P|143:160|176:148,1,70,0|0,3:0|0:0,0:0:0:0:
192,64,49711,6,0,P|256:36|320:64,1,140,0|0,3:0|3:0,0:0:0:0:
388,116,50208,1,0,0:0:0:0:
468,128,50374,1,0,3:0:0:0:
448,208,50539,1,0,0:0:0:0:
368,196,50705,6,0,L|348:264,1,70,4|0,3:1|0:0,0:0:0:0:
276,308,51037,2,0,P|232:316|200:316,1,70,4|0,3:1|0:0,0:0:0:0:
140,264,51368,2,0,P|132:224|132:188,1,70,4|0,3:1|0:0,0:0:0:0:
160,116,51700,2,0,P|200:108|236:108,1,70,4|0,3:1|0:0,0:0:0:0:
312,112,52031,6,0,P|348:176|416:200,2,140,0|0|0,3:0|0:0|0:0,0:0:0:0:
352,40,52860,1,0,0:0:0:0:
268,36,53026,1,0,0:0:0:0:
224,108,53191,1,0,0:0:0:0:
256,196,53357,6,0,P|232:228|216:272,1,77.0000023498536,4|0,3:1|0:0,0:0:0:0:
312,264,53689,2,0,P|336:232|352:188,1,77.0000023498536,0|0,3:0|0:0,0:0:0:0:
312,112,54020,2,0,L|232:112,1,77.0000023498536,0|0,3:0|0:0,0:0:0:0:
144,120,54352,2,0,P|132:160|140:196,1,77.0000023498536,0|0,3:0|0:0,0:0:0:0:
149,276,54683,6,0,L|72:276,1,77.0000023498536,0|0,3:0|0:0,0:0:0:0:
200,356,55015,2,0,L|116:356,1,77.0000023498536,0|0,3:0|0:0,0:0:0:0:
228,276,55346,2,0,L|308:276,1,77.0000023498536,0|0,3:0|0:0,0:0:0:0:
368,208,55678,2,0,P|396:252|396:292,1,77.0000023498536,0|0,3:0|0:0,0:0:0:0:
268,195,56009,6,0,P|284:160|292:120,2,77.0000023498536,0|0|0,3:0|0:0|3:0,0:0:0:0:
176,200,56506,2,0,L|176:248,2,38.5000011749268,0|0|0,0:0|0:0|3:0,0:0:0:0:
180,108,56838,1,0,0:0:0:0:
100,60,57004,1,0,3:0:0:0:
92,152,57169,1,0,0:0:0:0:
96,244,57335,6,0,P|84:288|88:324,2,77.0000023498536,0|0|0,3:0|0:0|3:0,0:0:0:0:
176,200,57832,1,0,0:0:0:0:
236,272,57998,2,0,P|264:308|304:328,1,77.0000023498536,0|0,3:0|0:0,0:0:0:0:
320,236,58330,2,0,P|384:248|460:208,1,154.000004699707,0|4,3:0|3:1,0:0:0:0:
432,24,58993,1,0,3:0:0:0:
256,72,59324,6,0,P|224:96|184:108,1,77.0000023498536,0|0,3:0|0:0,0:0:0:0:
120,44,59656,2,0,P|152:20|192:8,1,77.0000023498536,0|0,3:0|0:0,0:0:0:0:
256,72,59987,2,0,L|256:228,1,154.000004699707,0|0,3:0|3:0,0:0:0:0:
324,288,60484,1,0,0:0:0:0:
324,288,60650,2,0,P|292:312|256:328,1,77.0000023498536,0|0,3:0|0:0,0:0:0:0:
176,284,60981,2,0,P|140:308|104:316,1,77.0000023498536,0|0,3:0|0:0,0:0:0:0:
72,228,61313,6,0,L|72:72,1,154.000004699707,0|0,3:0|3:0,0:0:0:0:
164,64,61810,2,0,P|204:60|240:64,1,77.0000023498536,0|0,0:0|3:0,0:0:0:0:
284,147,62142,2,0,P|245:152|207:147,1,77.0000023498536,0|0,0:0|3:0,0:0:0:0:
332,68,62473,1,0,0:0:0:0:
392,136,62639,2,0,P|400:216|396:292,1,154.000004699707,0|0,3:0|3:0,0:0:0:0:
312,252,63136,2,0,B|248:252|248:252|224:272|224:272|160:272,1,154.000004699707,0|0,0:0|0:0,0:0:0:0:
104,204,63633,1,4,3:1:0:0:
104,204,63965,6,0,P|88:168|84:128,1,77.0000023498536,4|0,3:1|0:0,0:0:0:0:
128,52,64296,1,8,3:2:0:0:
192,120,64462,1,0,0:0:0:0:
260,56,64628,2,0,B|296:56|336:76|336:76|376:56|416:56,1,154.000004699707,8|0,3:2|3:0,0:0:0:0:
420,148,65125,1,0,0:0:0:0:
340,192,65291,6,0,P|260:192|196:228,1,154.000004699707,8|0,3:2|3:0,0:0:0:0:
128,288,65788,2,0,B|92:296|72:336|72:336|72:292|56:256,1,154.000004699707,8|0,3:2|0:0,0:0:0:0:
76,168,66285,1,8,3:2:0:0:
140,100,66451,1,0,0:0:0:0:
72,40,66617,5,4,3:1:0:0:
204,200,66948,2,0,L|360:200,1,154.000004699707,8|8,3:2|3:2,0:0:0:0:
408,124,67446,1,0,0:0:0:0:
324,88,67611,1,0,3:0:0:0:
324,88,67943,6,0,B|232:76|232:76|220:104|184:116,1,154.000004699707,8|0,3:2|3:0,0:0:0:0:
128,44,68440,2,0,P|96:104|136:192,1,154.000004699707,8|0,3:2|0:0,0:0:0:0:
148,272,68937,2,0,L|128:348,1,77.0000023498536,8|0,3:2|0:0,0:0:0:0:
228,340,69269,6,0,L|248:264,1,77.0000023498536,4|0,3:1|0:0,0:0:0:0:
300,188,69600,2,0,B|340:188|340:188|372:260|420:260,2,154.000004699707,8|8|0,3:2|3:2|3:0,0:0:0:0:
256,108,70429,1,0,3:0:0:0:
188,172,70595,2,0,B|148:172|148:172|116:100|68:100,2,154.000004699707,8|0|0,3:2|3:0|3:0,0:0:0:0:
256,108,71423,1,0,0:0:0:0:
256,108,71589,1,8,3:2:0:0:
328,168,71755,1,0,0:0:0:0:
256,228,71921,6,0,P|288:252|324:260,1,77.0000023498536,4|0,3:1|0:0,0:0:0:0:
328,168,72252,2,0,P|348:136|348:96,1,77.0000023498536,8|0,3:2|0:0,0:0:0:0:
256,108,72584,2,0,P|224:84|188:76,1,77.0000023498536,8|0,3:2|0:0,0:0:0:0:
188,172,72915,1,0,3:0:0:0:
72,316,73247,1,0,3:0:0:0:
256,344,73578,1,8,3:2:0:0:
256,344,73910,6,0,L|336:344,1,77.0000023498536,0|8,3:0|3:2,0:0:0:0:
256,256,74241,2,0,L|176:256,1,77.0000023498536,8|8,3:2|3:2,0:0:0:0:
256,192,74573,12,4,77225,3:1:0:0:
256,188,77888,6,0,B|256:152|256:152|224:136|200:104|200:64,2,140,0|0|0,3:0|3:0|3:0,0:0:0:0:
424,192,78882,1,0,3:0:0:0:
256,188,79214,2,0,B|256:224|256:224|288:240|312:272|312:312,2,140,0|0|4,3:0|3:0|3:1,0:0:0:0:
200,28,80208,1,0,3:0:0:0:
92,156,80539,6,0,P|68:180|56:228,1,70,0|0,3:0|0:0,0:0:0:0:
148,232,80871,2,0,P|124:292|140:368,1,140,0|0,3:0|3:0,0:0:0:0:
296,308,81534,1,0,3:0:0:0:
448,232,81865,5,0,3:0:0:0:
432,148,82031,1,0,3:2:0:0:
364,200,82197,1,0,3:0:0:0:
432,148,82363,1,8,3:2:0:0:
384,80,82528,6,0,B|348:72|348:72|316:84|316:84|284:72|284:72|248:80,1,140,4|0,3:1|3:0,0:0:0:0:
100,160,83191,2,0,B|136:168|136:168|168:156|168:156|200:168|200:168|236:160,1,140,0|0,3:0|3:0,0:0:0:0:
304,312,83854,2,0,L|374:312,1,70,0|0,3:0|0:0,0:0:0:0:
240,260,84186,2,0,L|168:260,1,70,0|0,3:0|0:0,0:0:0:0:
100,304,84517,1,0,3:0:0:0:
24,212,84849,2,0,P|60:208|100:196,1,70,0|8,3:0|3:2,0:0:0:0:
116,120,85180,6,0,L|188:120,1,70,0|0,3:0|0:0,0:0:0:0:
260,164,85512,2,0,P|240:188|196:208,1,70,8|0,3:2|0:0,0:0:0:0:
152,272,85843,2,0,L|188:332,1,70,0|0,3:0|0:0,0:0:0:0:
272,332,86175,2,0,P|308:340|340:336,1,70,8|8,3:2|0:0,0:0:0:0:
408,288,86506,6,0,B|408:216|408:216|360:168,1,140,0|8,3:0|3:2,0:0:0:0:
292,116,87004,1,8,0:0:0:0:
208,108,87169,2,0,L|136:108,1,70,0|8,3:0|0:0,0:0:0:0:
72,160,87501,2,0,P|64:196|68:240,1,70,8|8,0:0|0:0,0:0:0:0:
112,300,87832,1,0,0:0:0:0:
