osu file format v14

[General]
AudioFilename: the lost eden.mp3
AudioLeadIn: 0
PreviewTime: 53345
Countdown: 1
SampleSet: None
StackLeniency: 0.7
Mode: 0
LetterboxInBreaks: 1
WidescreenStoryboard: 1

[Editor]
DistanceSpacing: 1
BeatDivisor: 4
GridSize: 4
TimelineZoom: 1

[Metadata]
Title:The lost eden
TitleUnicode:The lost eden
Artist:alan
ArtistUnicode:阿兰
Creator:-shuko
Version:Hard
Source:chufeng
Tags:youyaoqi chufeng alan
BeatmapID:782361
BeatmapSetID:355351

[Difficulty]
HPDrainRate:6
CircleSize:4
OverallDifficulty:6
ApproachRate:7
SliderMultiplier:1.9
SliderTickRate:1

[Events]
//Background and Video events
//Break Periods
//Storyboard Layer 0 (Background)
//Storyboard Layer 1 (Fail)
//Storyboard Layer 2 (Pass)
//Storyboard Layer 3 (Foreground)
//Storyboard Sound Samples

[TimingPoints]
443,322.58064516129,4,2,0,88,1,0
10120,322.58064516129,4,2,0,88,1,0
36893,322.58064516129,4,2,0,88,1,0
53345,-100,4,2,0,88,0,1
72055,-100,4,2,0,88,0,0

[HitObjects]
136,172,10120,6,0,L|200:128,7,47.5
204,132,10765,2,0,P|252:82|308:74,1,95
208,192,11087,6,0,L|308:244,1,95
288,140,11410,1,0,0:0:0:0:
372,112,11571,1,0,0:0:0:0:
404,200,11732,1,0,0:0:0:0:
380,292,11894,2,0,P|316:316|256:316,1,95
196,300,12216,5,0,0:0:0:0:
112,252,12378,2,0,L|68:160,1,95
116,84,12700,1,0,0:0:0:0:
204,48,12861,1,0,0:0:0:0:
292,88,13023,2,0,L|368:144,1,95
344,236,13345,1,0,0:0:0:0:
284,308,13507,1,0,0:0:0:0:
192,292,13668,2,0,P|144:252|116:204,1,95
124,132,13990,5,0,0:0:0:0:
204,76,14152,1,0,0:0:0:0:
296,100,14313,1,0,0:0:0:0:
332,188,14474,2,0,L|440:240,1,95
492,252,14797,1,0,0:0:0:0:
464,160,14958,1,0,0:0:0:0:
400,92,15119,2,0,L|320:24,1,95
220,44,15442,5,0,0:0:0:0:
160,180,15603,2,0,P|140:104|232:44,1,190
288,108,16087,1,0,0:0:0:0:
336,192,16249,2,0,L|272:88,1,95
132,64,16571,1,0,0:0:0:0:
224,76,16732,1,0,0:0:0:0:
288,148,16894,5,0,0:0:0:0:
332,232,17055,2,0,L|392:320,1,95
332,232,17378,1,0,0:0:0:0:
244,192,17539,2,0,L|144:160,1,95
244,192,17861,2,0,L|296:280,2,95
396,288,18507,1,0,0:0:0:0:
288,148,18668,1,0,0:0:0:0:
240,228,18829,6,0,L|128:284,1,95
68,228,19152,1,0,0:0:0:0:
32,140,19313,1,0,0:0:0:0:
72,56,19474,1,0,0:0:0:0:
148,112,19636,2,0,L|208:192,2,95
208,40,20119,5,0,0:0:0:0:
296,76,20281,1,0,0:0:0:0:
360,148,20442,2,0,P|408:196|416:260,1,95
380,308,20765,2,0,L|320:320,4,47.5
284,300,21249,2,0,P|172:272|136:204,1,190
196,172,21894,1,0,0:0:0:0:
268,108,22055,2,0,P|316:96|452:160,1,190
292,264,22700,6,0,L|220:352,1,95
128,128,23023,2,0,P|136:236|224:260,1,190
276,204,23507,1,0,0:0:0:0:
348,268,23668,2,0,L|452:228,1,95
472,144,23990,2,0,P|408:60|304:64,1,190
256,112,24474,6,0,L|136:160,1,95
112,224,24797,1,0,0:0:0:0:
180,292,24958,1,0,0:0:0:0:
272,312,25119,2,0,L|320:220,2,95
184,352,25603,2,0,L|84:288,1,95
88,208,25926,1,0,0:0:0:0:
72,116,26087,2,0,P|92:56|152:48,1,95
208,72,26410,1,0,0:0:0:0:
264,152,26571,2,0,L|344:96,1,95
416,156,26894,6,0,P|388:264|292:308,1,190
152,228,27539,1,0,0:0:0:0:
92,152,27700,1,0,0:0:0:0:
124,64,27861,2,0,P|256:40|332:64,2,190
92,152,28668,1,8,0:0:0:0:
84,248,28829,1,8,0:0:0:0:
148,316,28990,1,8,0:0:0:0:
224,256,29152,6,0,P|304:200|396:244,1,190
444,168,29636,2,0,L|400:56,1,95
328,36,29958,1,0,0:0:0:0:
252,92,30119,1,0,0:0:0:0:
204,176,30281,1,0,0:0:0:0:
120,224,30442,2,0,P|200:284|296:272,1,190
372,240,30926,1,0,0:0:0:0:
404,152,31087,1,0,0:0:0:0:
336,12,31249,6,0,L|220:72,1,95
204,136,31571,1,0,0:0:0:0:
112,164,31732,1,0,0:0:0:0:
68,248,31894,1,0,0:0:0:0:
136,316,32055,6,0,L|224:264,1,95
264,184,32378,2,0,P|320:128|320:84,1,95
264,40,32700,2,0,P|212:16|144:32,1,95
116,92,33023,1,0,0:0:0:0:
140,132,33345,1,0,0:0:0:0:
268,272,33668,1,0,0:0:0:0:
352,172,33990,1,0,0:0:0:0:
264,88,34313,2,0,P|152:124|96:192,1,190
96,176,34958,1,0,0:0:0:0:
160,244,35281,1,0,0:0:0:0:
244,284,35603,2,0,L|340:316,2,95
408,252,36248,5,0,0:0:0:0:
460,172,36571,1,0,0:0:0:0:
396,100,36893,2,0,L|276:56,1,95
220,104,37215,1,0,0:0:0:0:
148,164,37376,1,0,0:0:0:0:
120,256,37538,2,0,L|168:368,1,95
264,316,37860,2,0,P|332:292|376:184,1,190
344,100,38344,1,0,0:0:0:0:
260,60,38505,1,0,0:0:0:0:
164,72,38667,1,0,0:0:0:0:
116,156,38828,6,0,P|112:220|148:276,1,95
252,276,39151,1,0,0:0:0:0:
340,240,39312,2,0,P|416:176|420:168,2,95
256,196,39796,1,0,0:0:0:0:
208,116,39957,1,0,0:0:0:0:
264,40,40118,2,0,P|360:64|440:144,2,190
112,156,41086,5,0,0:0:0:0:
140,248,41247,1,0,0:0:0:0:
176,280,41328,1,0,0:0:0:0:
212,312,41409,1,0,0:0:0:0:
304,328,41570,2,0,P|376:252|368:156,1,190
316,96,42054,1,0,0:0:0:0:
240,152,42215,1,0,0:0:0:0:
216,244,42376,1,0,0:0:0:0:
308,224,42538,6,0,P|280:324|184:352,1,190
128,300,43022,1,0,0:0:0:0:
116,264,43183,1,0,0:0:0:0:
304,264,43505,6,0,L|376:188,1,95
216,80,43989,1,0,0:0:0:0:
136,132,44151,2,0,P|80:212|84:312,1,190
160,356,44634,1,0,0:0:0:0:
236,296,44796,2,0,L|188:200,1,95
304,144,45118,6,0,L|256:56,2,95
248,224,45602,1,0,0:0:0:0:
156,244,45763,2,0,L|56:172,1,95
88,92,46086,1,0,0:0:0:0:
180,112,46247,2,0,L|296:80,1,95
364,112,46570,1,0,0:0:0:0:
432,180,46731,2,0,P|428:256|392:288,1,95
332,304,47054,5,0,0:0:0:0:
284,312,47134,1,0,0:0:0:0:
236,324,47215,1,0,0:0:0:0:
152,276,47376,2,0,L|104:232,6,47.5
244,244,48022,2,0,L|336:208,1,95
236,120,48344,6,0,L|124:80,1,95
324,84,48667,1,0,0:0:0:0:
324,84,48828,2,0,P|308:160|212:224,1,190
136,176,49312,1,0,0:0:0:0:
92,260,49473,1,0,0:0:0:0:
140,340,49634,2,0,L|248:340,1,95
300,272,49957,2,0,P|264:208|256:160,1,95
356,120,50280,5,0,0:0:0:0:
280,64,50441,2,0,L|160:80,1,95
112,136,50763,1,0,0:0:0:0:
72,224,50925,2,0,L|136:304,2,95
112,136,51409,2,0,L|212:64,1,95
280,100,51731,1,0,0:0:0:0:
324,120,51812,1,0,0:0:0:0:
368,140,51892,1,0,0:0:0:0:
156,144,53344,6,0,L|56:200,1,95
44,280,53667,2,0,P|132:344|240:328,1,190
384,268,54312,2,0,L|372:164,1,95
300,112,54634,1,0,0:0:0:0:
224,168,54796,2,0,L|132:204,2,95
320,168,55280,5,0,0:0:0:0:
388,232,55441,1,0,0:0:0:0:
380,328,55602,1,0,0:0:0:0:
288,356,55763,2,0,P|196:316|156:220,1,190
212,160,56247,2,0,L|300:100,1,95
384,120,56570,1,0,0:0:0:0:
448,188,56731,1,0,0:0:0:0:
456,284,56892,1,0,0:0:0:0:
368,320,57054,2,0,P|264:284|200:220,1,190
300,208,57538,6,0,P|200:136|128:168,1,190
92,232,58022,1,0,0:0:0:0:
64,268,58102,1,0,0:0:0:0:
36,304,58183,1,0,0:0:0:0:
116,352,58344,2,0,L|184:320,2,47.5
244,200,58667,5,0,0:0:0:0:
248,104,58828,2,0,L|336:32,1,95
400,100,59151,2,0,P|460:192|432:288,1,190
364,308,59634,1,0,0:0:0:0:
280,268,59796,2,0,P|184:248|164:232,1,95
128,320,60118,2,0,P|104:200|156:160,1,190
228,116,60602,1,0,0:0:0:0:
320,96,60763,1,0,0:0:0:0:
388,164,60925,6,0,L|468:236,1,95
428,316,61247,1,0,0:0:0:0:
340,356,61409,1,0,0:0:0:0:
264,300,61570,1,0,0:0:0:0:
228,268,61651,1,0,0:0:0:0:
196,236,61731,1,0,0:0:0:0:
104,208,61892,5,0,0:0:0:0:
72,120,62054,1,0,0:0:0:0:
140,56,62215,2,0,P|216:40|252:56,1,95
312,96,62538,1,0,0:0:0:0:
360,176,62699,1,0,0:0:0:0:
304,252,62860,2,0,L|248:312,2,47.5
116,280,63183,2,0,P|92:164|148:100,1,190
212,164,63667,2,0,P|208:88|164:48,1,95
328,320,63989,5,0,0:0:0:0:
240,356,64151,1,0,0:0:0:0:
152,324,64312,2,0,P|88:260|124:148,1,190
184,120,64796,1,0,0:0:0:0:
280,120,64957,1,0,0:0:0:0:
352,184,65118,2,0,L|452:228,2,95
268,228,65602,5,0,0:0:0:0:
172,240,65763,1,0,0:0:0:0:
96,180,65925,1,0,0:0:0:0:
64,92,66086,2,0,P|148:32|252:56,1,190
268,128,66570,2,0,L|364:192,1,95
356,276,66892,1,0,0:0:0:0:
292,344,67054,1,0,0:0:0:0:
196,344,67215,1,0,0:0:0:0:
120,288,67376,6,0,P|72:228|72:184,1,95
120,132,67699,1,0,0:0:0:0:
212,108,67860,1,0,0:0:0:0:
296,152,68022,1,0,0:0:0:0:
364,220,68183,2,0,L|456:244,1,95
356,320,68505,2,0,L|260:360,1,95
184,312,68828,2,0,P|176:240|184:216,1,95
304,108,69151,1,0,0:0:0:0:
400,100,69312,1,0,0:0:0:0:
304,108,69473,2,0,L|208:124,1,95
144,192,69796,5,0,0:0:0:0:
104,276,69957,2,0,L|160:352,2,95
92,180,70441,1,0,0:0:0:0:
140,100,70602,1,0,0:0:0:0:
220,152,70763,2,0,L|288:184,8,47.5
476,192,71570,6,0,L|416:72,1,95
348,64,71892,1,0,0:0:0:0:
348,64,71973,1,0,0:0:0:0:
348,64,72054,1,0,0:0:0:0:
280,128,72215,2,0,L|156:172,1,95
132,236,72538,2,0,L|80:324,1,95
132,236,72860,2,0,L|248:208,1,95
156,144,73183,1,0,0:0:0:0:
220,76,73344,1,0,0:0:0:0:
308,108,73505,1,0,0:0:0:0:
368,180,73667,6,0,L|440:264,1,95
400,340,73989,1,0,0:0:0:0:
304,348,74151,6,0,L|204:308,1,95
148,132,74473,1,0,0:0:0:0:
180,96,74554,1,0,0:0:0:0:
208,60,74634,2,0,P|256:32|316:40,1,95
364,96,74957,1,0,0:0:0:0:
460,96,75118,2,0,P|456:152|408:160,1,95
336,200,75441,6,0,P|312:280|292:300,1,95
212,308,75763,1,0,0:0:0:0:
128,264,75925,1,0,0:0:0:0:
96,176,76086,2,0,P|152:148|192:180,2,95
44,256,76570,1,0,0:0:0:0:
260,352,76731,6,0,L|168:280,1,95
220,204,77054,1,0,0:0:0:0:
204,152,77134,1,0,0:0:0:0:
228,112,77215,2,0,P|280:68|332:56,1,95
388,104,77538,1,0,0:0:0:0:
452,176,77699,2,0,L|480:288,1,95
408,336,78022,2,0,L|280:296,1,95
256,236,78344,2,0,P|260:176|296:128,1,95
256,236,78667,2,0,P|252:300|204:348,1,95
148,364,78989,1,0,0:0:0:0:
68,316,79151,5,0,0:0:0:0:
92,224,79312,2,0,L|192:168,1,95
244,88,79634,1,0,0:0:0:0:
288,68,79715,1,0,0:0:0:0:
336,60,79796,2,0,P|400:80|432:104,1,95
444,188,80118,1,0,0:0:0:0:
256,192,80280,12,0,80925,0:0:0:0:
176,120,81086,5,8,0:0:0:0:
168,216,81247,1,8,0:0:0:0:
236,284,81409,1,8,0:0:0:0:
