osu file format v10

[General]
AudioFilename: Over the clouds.mp3
AudioLeadIn: 0
PreviewTime: 58060
Countdown: 0
SampleSet: Soft
StackLeniency: 0.7
Mode: 0
LetterboxInBreaks: 1

[Editor]
Bookmarks: 46060,253291
DistanceSpacing: 1.8
BeatDivisor: 4
GridSize: 4

[Metadata]
Title:Over the clouds
TitleUnicode:Over the clouds
Artist:alan
ArtistUnicode:alan
Creator:HelloSCV
Version:Insane
Source:GOD EATER
Tags:W_h_i_t_e Ra-s CoroQuetz j-pop lolcubes
BeatmapID:157725
BeatmapSetID:51458

[Difficulty]
HPDrainRate:7
CircleSize:4
OverallDifficulty:8
ApproachRate:8
SliderMultiplier:2.1
SliderTickRate:2

[Events]
//Background and Video events
0,0,"bg.jpg"
//Break Periods
2,87599,94240
2,157960,171548
//Storyboard Layer 0 (Background)
//Storyboard Layer 1 (Fail)
//Storyboard Layer 2 (Pass)
//Storyboard Layer 3 (Foreground)
//Storyboard Sound Samples
//Background Colour Transformations
3,100,0,0,0

[TimingPoints]
837,461.538461538462,4,2,1,75,1,0
46529,-100,4,2,2,55,0,0
46644,-100,4,2,1,65,0,0
50221,-100,4,2,2,65,0,0
50337,-100,4,2,1,65,0,0
58067,-100,4,2,1,65,0,1
80683,-100,4,2,2,65,0,1
80798,-100,4,2,1,65,0,1
81606,-100,4,2,2,65,0,1
81721,-100,4,2,1,65,0,1
82529,-100,4,2,2,65,0,1
82644,-100,4,2,1,65,0,1
87606,-100,4,2,1,65,0,0
98221,-100,4,2,2,65,0,0
98337,-100,4,2,1,65,0,0
105606,-100,4,2,2,65,0,0
105721,-100,4,2,1,65,0,0
106529,-100,4,2,2,65,0,0
106644,-100,4,2,1,65,0,0
111144,-100,4,2,2,65,0,0
111260,-100,4,2,1,65,0,0
112990,-100,4,2,2,65,0,0
113106,-100,4,2,1,65,0,0
116683,-100,4,2,2,65,0,0
116798,-100,4,2,1,65,0,0
120375,-100,4,2,2,65,0,0
120490,-100,4,2,1,65,0,0
128221,-100,4,2,1,65,0,1
132375,-100,4,2,2,65,0,1
132490,-100,4,2,1,65,0,1
153606,-100,4,2,2,65,0,1
153721,-100,4,2,1,65,0,1
157760,-100,4,2,1,65,0,0
194221,-100,4,2,2,65,0,0
194337,-100,4,2,1,65,0,0
202067,-100,4,2,1,65,0,1
239452,-100,4,2,2,65,0,1
239567,-100,4,2,1,65,0,1
241298,-100,4,2,2,65,0,1
241413,-100,4,2,1,65,0,1
246375,-100,4,2,1,65,0,0

[Colours]
Combo1 : 255,128,255
Combo2 : 255,255,128

[HitObjects]
80,120,24606,2,0,B|120:80|176:80,1,105,0|4,0:0|0:0,0:0:0
256,176,25067,1,0,0:0:0
432,120,25298,2,0,B|392:80|336:80,1,105,8|4,0:0|0:0,0:0:0
256,176,25759,2,0,B|256:272|192:328,1,157.5
179,341,26221,1,8,0:0:0
80,256,26452,1,0,0:0:0
80,120,26682,6,0,B|80:63|119:23,1,105,4|0,0:0|0:0,0:0:0
208,112,27144,2,0,B|208:168|168:208,1,105,8|4,0:0|0:0,0:0:0
432,120,27605,2,0,B|432:63|392:23,1,105
304,112,28067,2,0,B|304:168|343:208,1,105,8|0,0:0|0:0,0:0:0
342,206,28413,1,0,0:0:0
342,206,28528,1,4,0:0:0
167,96,28759,5,0,0:0:0
167,96,28990,2,0,B|208:32|304:32|344:96,1,210,8|0,0:0|0:0,0:0:0
256,192,29682,1,0,0:0:0
344,287,29913,2,0,B|304:352|208:352|168:288,1,210,8|4,0:0|0:0,0:0:0
168,288,30490,1,0,0:0:0
168,288,30605,2,0,B|121:241|65:241,2,105,0|8|4,0:0|0:0|0:0,0:0:0
128,168,31298,6,0,B|176:128|176:80,1,105
335,78,31759,2,0,B|336:128|384:168,1,105,8|0,0:0|0:0,0:0:0
320,280,32221,2,0,B|256:232|256:200|256:200|256:232|192:280,1,210,4|8,0:0|0:0,0:0:0
66,279,32913,1,4,0:0:0
144,40,33375,1,0,0:0:0
256,96,33605,1,8,0:0:0
368,40,33836,1,0,0:0:0
192,280,34067,6,0,B|256:232|256:200|256:200|256:232|320:280,1,210,4|8,0:0|0:0,0:0:0
446,279,34759,1,4,0:0:0
368,40,35221,1,4,0:0:0
256,96,35452,1,8,0:0:0
144,40,35682,1,0,0:0:0
144,165,35913,6,0,B|100:209|112:264,1,105,4|0,0:0|0:0,0:0:0
133,282,36259,1,0,0:0:0
160,304,36375,2,0,B|256:224|352:304,1,210,8|0,0:0|0:0,0:0:0
464,240,37067,2,0,B|417:203|417:203|417:155,1,105,0|8,0:0|0:0,0:0:0
304,96,37528,2,0,B|256:120|256:120|208:96,1,105,0|4,0:0|0:0,0:0:0
88,136,37990,2,0,B|181:191,1,105,0|8,0:0|0:0,0:0:0
178,316,38452,5,4,0:0:0
178,316,38567,1,0,0:0:0
178,316,38682,2,0,B|87:262,2,105,0|0|8,0:0|0:0|0:0,0:0:0
256,216,39375,1,0,0:0:0
334,316,39605,2,0,B|424:262,2,105,4|0|8,0:0|0:0|0:0,0:0:0
256,72,40298,1,4,0:0:0
88,264,40759,1,0,0:0:0
256,352,40990,1,8,0:0:0
424,264,41221,1,0,0:0:0
256,72,41452,6,0,B|256:192,2,105,4|0|8,0:0|0:0|0:0,0:0:0
256,352,42144,1,4,0:0:0
88,160,42605,1,4,0:0:0
256,72,42836,1,8,0:0:0
424,160,43067,1,0,0:0:0
256,72,43298,1,4,0:1:0
424,160,43528,6,0,B|392:208|336:208,1,105,0|8,0:0|0:0,0:0:0
256,304,43990,1,4,0:0:0
88,160,44221,2,0,B|120:208|176:208,1,105
256,304,44682,2,0,B|256:196,1,105,8|0,0:0|0:0,0:0:0
256,72,45144,1,4,0:0:0
256,72,45375,2,0,B|256:192,1,105,0|8,0:0|0:0,0:0:0
256,304,45836,1,4,0:0:0
176,208,46067,2,0,B|136:280|48:304,2,157.5
256,304,46990,5,4,0:0:0
256,304,47221,1,0,0:0:0
360,232,47452,1,8,0:0:0
408,120,47682,1,4,0:0:0
360,232,47913,2,0,B|304:216|280:168,1,105
256,144,48259,1,0,0:0:0
232,168,48375,2,0,B|208:216|152:232,1,105,8|0,0:0|0:0,0:0:0
84,124,48836,6,0,B|73:71|107:24,1,105,4|0,0:0|0:0,0:0:0
207,104,49298,2,0,B|256:80|308:104,1,105,8|4,0:0|0:0,0:0:0
327,82,49644,1,0,0:0:0
348,60,49759,2,0,B|420:80|448:172,2,157.5
256,148,50682,5,4,0:0:0
164,232,50913,1,0,0:0:0
256,268,51144,1,8,0:0:0
348,232,51375,1,4,0:0:0
408,100,51605,5,0,0:0:0
256,44,51952,1,0,0:0:0
104,100,52298,1,0,0:0:0
256,236,52528,5,4,0:0:0
164,152,52759,1,0,0:0:0
256,116,52990,1,8,0:0:0
348,152,53221,1,4,0:0:0
408,284,53452,5,0,0:0:0
256,340,53798,1,0,0:0:0
104,284,54144,1,0,0:0:0
256,192,54375,12,4,56221,0:0:0
100,144,56913,5,0,0:0:0
192,60,57144,1,0,0:0:0
320,60,57375,1,0,0:0:0
412,144,57605,1,0,0:0:0
432,164,57721,1,0,0:0:0
452,184,57836,1,0,0:0:0
472,204,57952,1,0,0:0:0
492,220,58067,6,0,B|471:275|471:323,1,105,4|0,0:1|0:0,0:0:0
382,237,58528,2,0,B|352:288|296:304,1,105,8|4,0:0|0:0,0:0:0
130,237,58990,2,0,B|160:288|216:304,1,105
336,184,59452,2,0,B|304:248|256:256|208:248|176:184,1,210,8|4,0:0|0:0,0:0:0
256,84,60144,1,0,0:0:0
176,184,60375,1,8,0:0:0
96,84,60605,1,4,0:0:0
20,184,60836,2,0,B|48:228|48:300,1,105
136,373,61298,2,0,B|147:322|198:271,2,105,8|0|4,0:0|0:0|0:0,0:0:0
256,336,61990,1,0,0:0:0
376,373,62221,6,0,B|364:322|313:271,1,105,8|4,0:0|0:0,0:0:0
414,193,62682,1,0,0:0:0
502,104,62913,2,0,B|458:76|386:76,1,105,0|8,0:0|0:0,0:0:0
379,98,63259,1,0,0:0:0
356,120,63375,2,0,B|312:148|255:147,1,105,0|4,0:0|0:0,0:0:0
148,336,63952,1,4,0:0:0
364,336,64298,1,4,0:0:0
364,336,64759,1,4,0:0:0
364,336,65221,1,0,0:0:0
336,212,65452,6,0,B|284:236|248:276,1,105,4|0,0:0|0:0,0:0:0
228,295,65798,1,0,0:0:0
202,312,65913,2,0,B|144:288|128:220,1,105,8|4,0:0|0:0,0:0:0
124,112,66375,2,0,B|182:136|198:204,1,105
66,186,66836,2,0,B|19:228|27:297,1,105,8|0,0:0|0:0,0:0:0
132,236,67298,6,0,B|181:260|233:236,1,105,4|0,0:0|0:0,0:0:0
255,218,67644,1,0,0:0:0
277,195,67759,2,0,B|334:200|364:246,1,105,8|4,0:0|0:0,0:0:0
412,128,68221,1,0,0:0:0
320,44,68452,1,0,0:0:0
192,44,68682,1,8,0:0:0
100,128,68913,1,0,0:0:0
256,192,69144,12,8,70529,0:0:0
256,72,70990,5,4,0:0:0
359,252,71336,1,4,0:0:0
152,252,71682,1,4,0:0:0
256,192,72144,5,4,0:0:0
152,252,72375,1,8,0:0:0
48,192,72605,1,0,0:0:0
152,252,72836,6,0,B|168:312|232:324,1,105,4|0,0:1|0:0,0:0:0
256,328,73182,1,0,0:0:0
289,321,73298,2,0,B|344:312|359:252,2,105,8|4|0,0:0|0:0|0:0,0:0:0
256,192,73990,1,0,0:0:0
345,102,74221,1,8,0:0:0
471,102,74452,1,0,0:0:0
471,236,74682,6,0,B|452:284|376:296,1,105,4|0,0:0|0:0,0:0:0
366,271,75028,1,0,0:0:0
343,248,75144,2,0,B|279:257|260:305,1,105,8|4,0:0|0:0,0:0:0
41,236,75605,2,0,B|60:284|136:296,1,105
212,204,76067,2,0,B|193:156|117:144,1,105,8|0,0:0|0:0,0:0:0
471,236,76528,6,0,B|452:284|376:296,1,105,4|0,0:0|0:0,0:0:0
300,204,76990,1,8,0:0:0
464,122,77221,2,0,B|471:173|411:222,1,105,4|0,0:0|0:0,0:0:0
300,180,77682,1,0,0:0:0
401,27,77913,2,0,B|433:68|406:140,1,105,8|0,0:0|0:0,0:0:0
288,159,78375,1,4,0:0:0
154,293,78721,2,0,B|112:333,1,52.5,4|8,0:0|0:0,0:0:0
358,293,79067,2,0,B|399:333,1,52.5,4|0,0:0|0:0,0:0:0
464,152,79528,6,0,B|444:212|384:220,1,105,4|8,0:0|0:0,0:0:0
390,218,79875,1,0,0:0:0
390,218,79990,1,0,0:0:0
388,92,80221,2,0,B|344:160|256:196|168:160|124:92,1,315,4|4,0:0|0:0,0:0:0
256,44,81144,1,0,0:0:0
256,44,81375,2,0,B|256:260,1,210
124,280,82067,6,0,B|168:348|256:384|344:348|388:280,1,315,4|4,0:0|0:0,0:0:0
172,228,82990,2,0,B|200:280|256:304|312:280|340:228,1,210,0|8,0:0|0:0,0:0:0
256,192,83682,1,0,0:0:0
340,156,83913,2,0,B|312:104|256:80|200:104|172:156,1,210,4|8,0:0|0:0,0:0:0
388,103,84605,2,0,B|344:35|256:0|168:35|124:104,1,315,4|8,0:0|0:0,0:0:0
34,193,85528,5,0,0:0:0
148,344,85759,2,0,B|204:344,1,52.5,4|0,0:0|0:0,0:0:0
364,344,86105,2,0,B|308:344,1,52.5,4|8,0:0|0:0,0:0:0
256,232,86452,2,0,B|304:160|208:104|256:32,1,210,4|4,0:0|0:0,0:0:0
256,31,87144,1,8,0:0:0
256,192,94990,5,4,0:0:0
256,192,95452,1,8,0:0:0
166,281,95682,2,0,B|112:212|28:212,1,157.5,4|0,0:0|0:0,0:0:0
30,212,96144,1,0,0:0:0
56,336,96375,1,8,0:0:0
166,281,96605,2,0,B|200:324|256:328,1,105,0|4,0:0|0:0,0:0:0
346,281,97067,2,0,B|312:324|255:328,1,105,0|8,0:0|0:0,0:0:0
256,192,97528,2,0,B|349:137,1,105,4|0,0:0|0:0,0:0:0
284,28,97990,2,0,B|184:84|184:84|84:84,1,210
24,192,98682,6,0,B|129:192,1,105,4|0,0:0|0:0,0:0:0
88,300,99144,2,0,B|184:300|184:300|284:356,1,210,8|0,0:0|0:0,0:0:0
373,266,99836,1,0,0:0:0
461,354,100067,1,8,0:0:0
373,266,100298,2,0,B|416:232|416:232|472:232,1,105,0|4,0:0|0:0,0:0:0
373,118,100759,2,0,B|416:152|416:152|466:152,1,105,0|8,0:0|0:0,0:0:0
256,192,101221,2,0,B|203:192,2,52.5,4|0|0,0:0|0:0|0:0,0:0:0
373,118,101682,5,0,0:0:0
256,56,101913,1,8,0:0:0
139,118,102144,1,0,0:0:0
256,192,102375,2,0,B|256:244|208:288,1,105,4|0,0:0|0:0,0:0:0
85,284,102836,1,8,0:0:0
256,192,103067,2,0,B|256:244|304:288,1,105,4|0,0:0|0:0,0:0:0
427,284,103528,1,0,0:0:0
256,192,103759,2,0,B|256:84,1,105,8|0,0:0|0:0,0:0:0
64,72,104221,6,0,B|84:128|144:140,1,105,4|0,0:0|0:0,0:0:0
256,192,104682,1,8,0:0:0
448,72,104913,2,0,B|428:128|368:140,1,105,4|0,0:0|0:0,0:0:0
324,256,105375,2,0,B|224:288|212:324|256:352|256:352|300:324|288:288|188:256,1,315,4|4,0:0|0:0,0:0:0
80,196,106298,6,0,B|113:124|179:95|179:95|180:24,1,210,0|4,0:0|0:0,0:0:0
256,128,106990,2,0,B|256:240,2,105,0|0|8,0:0|0:0|0:0,0:0:0
332,28,107682,2,0,B|332:94|332:94|398:123|432:195,1,210,0|0,0:0|0:0,0:0:0
376,308,108375,1,8,0:0:0
256,376,108605,5,4,0:0:0
256,344,108721,1,0,0:0:0
256,312,108836,1,0,0:0:0
167,223,109067,2,0,B|128:256|72:264,2,105,0|8|0,0:0|0:0|0:0,0:0:0
136,100,109759,5,4,0:0:0
256,132,109990,2,0,B|360:132,1,105,0|8,0:0|0:0,0:0:0
449,224,110452,2,0,B|344:224,1,105,4|0,0:0|0:0,0:0:0
256,312,110913,2,0,B|344:348|344:348|468:348,1,210
449,224,111605,6,0,B|344:224,1,105,4|0,0:0|0:0,0:0:0
63,224,112067,2,0,B|168:224,1,105,8|4,0:0|0:0,0:0:0
256,132,112528,1,0,0:0:0
256,132,112759,2,0,B|304:204|208:260|256:332,1,210,4|0,0:0|0:0,0:0:0
256,332,113452,1,4,0:1:0
144,276,113682,5,0,0:0:0
48,192,113913,2,0,B|56:132|100:100,1,105,8|4,0:0|0:0,0:0:0
184,192,114375,1,0,0:0:0
328,192,114605,1,0,0:0:0
464,192,114836,2,0,B|456:132|412:100,1,105,8|0,0:0|0:0,0:0:0
328,192,115298,1,4,0:0:0
256,296,115528,1,0,0:0:0
184,192,115759,1,8,0:0:0
256,88,115990,1,4,0:0:0
328,192,116221,2,0,B|380:260|452:284,2,157.5
256,88,117144,5,4,0:0:0
184,192,117375,1,0,0:0:0
96,102,117605,2,0,B|56:132|48:192,1,105,8|4,0:0|0:0,0:0:0
112,304,118067,2,0,B|152:274|160:214,1,105
183,192,118413,1,0,0:0:0
205,169,118528,2,0,B|256:180|308:168,1,105,8|0,0:0|0:0,0:0:0
435,167,118990,2,0,B|427:227|386:256,1,105,4|0,0:0|0:0,0:0:0
256,256,119452,2,0,B|264:316|304:345,1,105,8|4,0:0|0:0,0:0:0
386,256,119913,2,0,B|324:188|324:100,2,157.5,0|0|0,0:0|0:0|0:0,0:0:0
475,167,120836,5,4,0:0:0
385,77,121067,1,0,0:0:0
260,76,121298,2,0,B|152:76,1,105,8|4,0:0|0:0,0:0:0
65,165,121759,2,0,B|173:165,1,105
259,254,122221,2,0,B|151:254,1,105,8|0,0:0|0:0,0:0:0
64,343,122682,2,0,B|172:343,1,105,4|0,0:0|0:0,0:0:0
260,256,123144,1,8,0:0:0
448,343,123375,2,0,B|340:343,1,105,4|0,0:0|0:0,0:0:0
256,176,123952,1,0,0:0:0
256,176,124298,1,0,0:0:0
256,192,124528,12,4,126374,0:0:0
190,236,127067,5,0,0:0:0
364,112,127298,1,0,0:0:0
148,112,127528,1,0,0:0:0
322,236,127759,1,0,0:0:0
344,258,127875,1,0,0:0:0
366,280,127990,1,0,0:0:0
388,302,128105,1,0,0:0:0
410,324,128221,6,0,B|444:277|444:221,1,105,4|0,0:1|0:0,0:0:0
410,60,128682,2,0,B|444:107|444:163,1,105,8|4,0:0|0:0,0:0:0
324,192,129144,2,0,B|220:192,1,105
164,308,129605,2,0,B|268:308,1,105,8|0,0:0|0:0,0:0:0
219,192,130067,2,0,B|172:88|52:76,1,210,4|8,0:0|0:0,0:0:0
104,192,130759,1,4,0:0:0
56,307,130990,2,0,B|172:296|219:192,1,210,0|8,0:0|0:0,0:0:0
256,24,131682,6,0,B|256:132,1,105,0|4,0:0|0:0,0:0:0
455,307,132144,2,0,B|340:296|293:192,2,210,0|4|0,0:0|0:0|0:0,0:0:0
384,204,133298,2,0,B|424:240|480:240,1,105,8|0,0:0|0:0,0:0:0
480,112,133759,2,0,B|441:71,1,52.5,4|0,0:0|0:0,0:0:0
317,75,134105,2,8,B|353:112,1,52.5,4|8,0:0|0:0,0:0:0
256,192,134452,1,4,0:0:0
166,281,134682,1,0,0:0:0
132,312,134798,1,0,0:0:0
100,344,134913,1,4,0:0:0
244,344,135144,1,0,0:0:0
100,344,135375,1,0,0:0:0
16,250,135605,6,0,B|52:208|112:208,1,105,4|0,0:0|0:0,0:0:0
131,185,135952,1,0,0:0:0
153,162,136067,2,0,B|208:157|248:197,1,105,8|4,0:0|0:0,0:0:0
337,287,136528,2,0,B|379:251|378:194,2,105,0|0|8,0:0|0:0|0:0,0:0:0
378,194,137221,1,0,0:0:0
468,105,137452,6,0,B|432:63|372:63,1,105,4|0,0:0|0:0,0:0:0
352,85,137798,1,0,0:0:0
329,107,137913,2,0,B|272:107|236:65,1,105,8|4,0:0|0:0,0:0:0
156,160,138375,2,0,B|156:276,1,105
256,344,138836,2,0,B|256:228,1,105,8|0,0:0|0:0,0:0:0
256,192,139298,12,8,140683,0:0:0
256,280,141144,6,0,B|256:332,1,52.5,4|0,0:0|0:0,0:0:0
179,148,141490,2,0,B|134:121,1,52.5,4|8,0:0|0:0,0:0:0
332,148,141836,2,0,B|377:121,1,52.5,4|0,0:0|0:0,0:0:0
256,280,142298,5,4,0:0:0
179,148,142528,1,8,0:0:0
48,228,142759,1,0,0:0:0
132,324,142990,6,0,B|172:368|224:367,1,105,4|0,0:1|0:0,0:0:0
256,368,143336,1,0,0:0:0
287,367,143452,2,0,B|340:368|384:320,1,105,8|4,0:0|0:0,0:0:0
473,281,143913,2,0,B|420:284|376:328,1,105
337,232,144375,2,0,B|336:284|384:328,1,105,8|0,0:0|0:0,0:0:0
428,208,144836,5,4,0:0:0
352,108,145067,1,0,0:0:0
256,192,145298,1,8,0:0:0
160,276,145528,1,4,0:0:0
256,192,145990,5,0,0:0:0
160,108,146221,1,8,0:0:0
68,196,146452,1,0,0:0:0
160,276,146682,2,0,B|264:276,1,105,4|0,0:0|0:0,0:0:0
354,186,147144,1,8,0:0:0
214,312,147375,2,0,B|304:260,1,105,4|0,0:0|0:0,0:0:0
337,137,147836,1,0,0:0:0
280,317,148067,2,0,B|332:227,1,105,8|0,0:0|0:0,0:0:0
299,104,148528,1,4,0:0:0
172,104,148759,6,0,B|129:146,1,52.5,0|4,0:0|0:0,0:0:0
173,280,149105,2,0,B|135:242,1,52.5,0|4,0:0|0:0,0:0:0
20,192,149452,2,0,B|56:152|56:92,1,105,0|4,0:0|0:0,0:0:0
204,48,149913,2,0,B|256:68|308:48,1,105,8|0,0:0|0:0,0:0:0
456,95,150375,2,0,B|456:152|492:192,1,105,4|0,0:0|0:0,0:0:0
402,281,150836,5,8,0:0:0
256,192,151067,1,4,0:0:0
256,364,151298,1,0,0:0:0
256,192,151528,1,0,0:0:0
110,281,151759,1,8,0:0:0
256,192,151990,1,0,0:0:0
184,32,152221,6,0,B|162:82|104:104,1,105,4|0,0:0|0:0,0:0:0
328,32,152682,2,0,B|350:82|408:104,1,105,8|4,0:0|0:0,0:0:0
104,180,153144,2,0,B|216:148|256:44|256:44|296:148|408:180,1,420,0|4,0:0|0:0,0:0:0
256,192,154298,12,2,157760,0:0:0
256,48,172298,5,0,0:0:0
256,48,172528,1,4,0:0:0
256,296,172990,2,0,B|256:193,1,105,8|4,0:0|0:0,0:0:0
166,104,173452,1,0,0:0:0
76,193,173682,2,0,B|64:248|16:284,1,105,0|8,0:0|0:0,0:0:0
256,192,174375,5,4,0:0:0
434,370,174836,2,0,B|476:337|488:282,1,105,8|4,0:0|0:0,0:0:0
404,192,175298,2,0,B|361:224|349:279,1,105
256,364,175759,1,8,0:0:0
256,112,176221,5,4,0:0:0
160,344,176682,2,0,B|203:302|203:246,1,105,8|4,0:0|0:0,0:0:0
309,251,177144,2,0,B|309:302|352:344,1,105
441,254,177605,1,8,0:0:0
256,76,178067,5,4,0:0:0
169,168,178298,2,0,B|150:230,1,52.5,0|4,0:0|0:0,0:0:0
342,168,178644,2,0,B|361:230,1,52.5,0|4,0:0|0:0,0:0:0
256,308,178990,2,0,B|256:192,1,105,0|4,0:0|0:0,0:0:0
256,76,179452,1,8,0:0:0
32,192,179913,5,4,0:0:0
120,280,180144,1,0,0:0:0
208,192,180375,1,8,0:0:0
120,104,180605,1,4,0:0:0
208,192,181067,5,0,0:0:0
304,192,181298,1,8,0:0:0
480,192,181759,5,4,0:0:0
392,280,181990,1,0,0:0:0
304,192,182221,1,8,0:0:0
392,104,182452,1,4,0:0:0
304,192,182913,5,0,0:0:0
208,192,183144,1,8,0:0:0
100,268,183605,5,4,0:0:0
192,356,183836,1,0,0:0:0
320,356,184067,1,8,0:0:0
412,268,184298,1,4,0:0:0
256,88,184759,6,0,B|256:204,1,105,0|8,0:0|0:0,0:0:0
412,116,185452,5,4,0:0:0
320,28,185682,1,0,0:0:0
192,28,185913,1,8,0:0:0
100,116,186144,1,4,0:0:0
256,296,186605,6,0,B|256:180,1,105,4|8,0:0|0:0,0:0:0
256,296,187298,5,4,0:0:0
194,107,187528,1,0,0:0:0
354,224,187759,1,0,0:0:0
157,224,187990,1,0,0:0:0
317,107,188221,1,0,0:0:0
256,297,188452,2,0,B|256:192,1,105,0|0,0:0|0:0,0:0:0
256,192,188913,1,0,0:0:0
156,224,189375,5,0,0:0:0
29,224,189605,2,0,B|36:104|140:60,1,210
208,127,190413,1,0,0:0:0
304,128,190759,1,0,0:0:0
370,60,190990,6,0,B|445:135,1,105,4|0,0:0|0:0,0:0:0
370,323,191452,2,0,B|445:249,1,105,8|4,0:0|0:0,0:0:0
332,192,191913,2,0,B|228:192,1,105
195,192,192259,1,0,0:0:0
163,192,192375,2,0,B|132:232|68:232,1,105,8|0,0:0|0:0,0:0:0
92,332,192836,6,8,B|169:318|198:261,1,105,4|0,0:0|0:0,0:0:0
420,332,193298,2,0,B|342:318|313:261,1,105,8|4,0:0|0:0,0:0:0
256,180,193759,2,0,B|256:20,2,157.5,0|0|0,0:0|0:0|0:0,0:0:0
191,289,194682,6,0,B|148:254|139:198,1,105,4|0,0:0|0:0,0:0:0
204,88,195144,2,0,B|256:68|308:88,1,105,8|4,0:0|0:0,0:0:0
372,198,195605,2,0,B|363:254|320:289,1,105
298,310,195952,1,0,0:0:0
275,332,196067,2,0,B|320:364|375:358,1,105,8|0,0:0|0:0,0:0:0
472,276,196528,5,4,0:0:0
372,200,196759,1,0,0:0:0
316,88,196990,2,0,B|276:120|256:176|256:176|236:120|196:88,1,210,8|0,0:0|0:0,0:0:0
40,192,197798,1,0,0:0:0
40,192,198144,1,0,0:0:0
256,192,198375,12,4,200221,0:0:0
60,68,200913,5,0,0:0:0
46,193,201144,1,0,0:0:0
107,303,201375,1,0,0:0:0
220,359,201605,1,0,0:0:0
251,359,201721,1,0,0:0:0
282,359,201836,1,0,0:0:0
313,359,201952,1,0,0:0:0
344,359,202067,6,0,B|429:274,1,105,4|0,0:1|0:0,0:0:0
292,285,202528,2,0,B|366:211,1,105,8|4,0:0|0:0,0:0:0
240,211,202990,2,0,B|325:126,1,105
346,137,203336,1,0,0:0:0
377,137,203452,2,0,B|404:192|464:192,2,105,8|0|4,0:0|0:0|0:0,0:0:0
287,47,204144,2,0,B|260:102|200:102,1,105,0|8,0:0|0:0,0:0:0
88,152,204605,1,4,0:0:0
48,252,204836,1,0,0:0:0
133,314,205067,1,0,0:0:0
208,212,205298,6,0,B|176:144|216:52|292:48,1,210,8|4,0:0|0:0,0:0:0
336,164,205990,1,0,0:0:0
452,112,206221,2,0,B|484:180|444:272|368:276,1,210,8|0,0:0|0:0,0:0:0
336,164,206913,1,0,0:0:0
380,72,207144,5,8,0:0:0
380,72,207375,1,0,0:0:0
468,164,207605,2,0,B|468:221,1,52.5,4|0,0:0|0:0,0:0:0
364,284,207952,2,0,B|322:328,1,52.5,4|8,0:0|0:0,0:0:0
148,284,208298,2,0,B|190:328,1,52.5,4|0,0:0|0:0,0:0:0
256,96,208759,2,0,B|256:204,1,105,4|8,0:0|0:0,0:0:0
256,201,209221,1,0,0:0:0
180,100,209452,6,0,B|150:153|98:177,1,105,4|0,0:0|0:0,0:0:0
74,172,209798,1,0,0:0:0
44,176,209913,2,0,B|74:229|126:253,1,105,8|4,0:0|0:0,0:0:0
192,328,210375,2,0,B|256:284|256:248|256:248|256:284|320:328,1,210,0|8,0:0|0:0,0:0:0
407,237,211067,1,0,0:0:0
384,112,211298,6,0,B|340:148|284:148,1,105,4|0,0:0|0:0,0:0:0
255,147,211644,1,0,0:0:0
224,147,211759,2,0,B|172:148|128:112,1,105,8|4,0:0|0:0,0:0:0
92,256,212221,1,0,0:0:0
256,336,212452,1,0,0:0:0
420,256,212682,1,8,0:0:0
256,192,212913,12,8,214529,0:0:0
256,272,214990,5,4,0:0:0
256,272,215105,1,0,0:0:0
186,152,215336,1,4,0:0:0
186,152,215452,1,8,0:0:0
50,152,215682,1,4,0:0:0
50,152,215798,1,0,0:0:0
50,152,215913,2,0,B|72:200|72:256,1,105
256,241,216375,2,0,B|256:136,1,105,8|0,0:0|0:0,0:0:0
182,241,216836,6,0,B|183:295|161:343,1,105,4|0,0:1|0:0,0:0:0
351,343,217298,2,0,B|329:295|329:241,1,105,8|4,0:0|0:0,0:0:0
351,218,217644,1,0,0:0:0
373,195,217759,2,0,B|354:145|316:107,1,105
428,48,218221,2,0,B|380:26|326:26,1,105,8|0,0:0|0:0,0:0:0
84,48,218682,2,0,B|132:26|185:26,1,105,4|0,0:0|0:0,0:0:0
139,195,219144,2,0,B|157:145|195:107,1,105,8|4,0:0|0:0,0:0:0
256,220,219605,6,0,B|256:328,1,105
233,347,219952,1,0,0:0:0
201,347,220067,2,0,B|152:304|96:300,1,105,8|0,0:0|0:0,0:0:0
18,211,220528,2,0,B|67:168|123:164,1,105,4|0,0:0|0:0,0:0:0
200,76,220990,2,0,B|151:33|95:29,2,105,8|4|0,0:0|0:0|0:0,0:0:0
256,192,221682,1,0,0:0:0
359,88,221913,1,8,0:0:0
463,192,222144,1,0,0:0:0
358,296,222375,5,4,0:0:0
358,296,222490,1,0,0:0:0
256,192,222721,1,4,0:0:0
256,192,222836,1,8,0:0:0
154,296,223067,1,4,0:0:0
154,296,223182,1,0,0:0:0
51,163,223528,5,4,0:0:0
57,134,223644,1,0,0:0:0
66,107,223759,1,8,0:0:0
80,82,223875,1,0,0:0:0
97,58,223990,1,0,0:0:0
117,38,224105,1,0,0:0:0
140,20,224221,6,0,B|176:72|232:76,1,105,4|0,0:0|0:0,0:0:0
256,84,224567,1,0,0:0:0
286,75,224682,2,0,B|336:72|372:20,1,105,8|4,0:0|0:0,0:0:0
484,80,225144,2,0,B|475:135|424:164,1,105
408,188,225490,1,0,0:0:0
426,221,225605,2,0,B|475:248|484:304,1,105,8|0,0:0|0:0,0:0:0
372,364,226067,6,0,B|336:312|280:308,1,105,4|0,0:0|0:0,0:0:0
256,300,226413,1,0,0:0:0
225,308,226528,2,0,B|176:312|140:364,1,105,8|4,0:0|0:0,0:0:0
51,274,226990,1,0,0:0:0
88,152,227221,1,0,0:0:0
164,252,227452,2,0,B|200:208|256:196|312:208|348:252,1,210,8|4,0:0|0:0,0:0:0
424,152,228144,5,0,0:0:0
461,274,228375,1,8,0:0:0
348,252,228605,1,4,0:0:0
424,152,228836,1,0,0:0:0
256,72,229067,1,0,0:0:0
88,152,229298,1,8,0:0:0
163,252,229528,1,0,0:0:0
252,340,229759,5,4,0:0:0
252,340,229875,1,0,0:0:0
192,228,230105,1,4,0:0:0
192,228,230221,1,8,0:0:0
320,228,230452,1,4,0:0:0
320,228,230567,1,0,0:0:0
476,120,230913,5,4,0:0:0
386,30,231144,2,0,B|328:44|300:96,1,105,8|0,0:0|0:0,0:0:0
404,168,231605,2,0,B|379:213|321:227,1,105,4|0,0:1|0:0,0:0:0
290,227,231952,1,0,0:0:0
258,227,232067,2,0,B|233:272|175:286,1,105,8|4,0:0|0:0,0:0:0
86,197,232528,2,0,B|110:151|168:137,1,105
176,288,232990,2,0,B|151:333|93:347,1,105,8|0,0:0|0:0,0:0:0
168,136,233452,2,0,B|192:90|250:76,1,105,4|0,0:0|0:0,0:0:0
300,192,233913,1,8,0:0:0
389,281,234144,1,4,0:0:0
300,192,234605,5,0,0:0:0
389,103,234836,1,8,0:0:0
477,191,235067,1,0,0:0:0
389,281,235298,2,0,B|348:324|292:324,1,105,4|0,0:0|0:0,0:0:0
123,281,235759,2,0,B|164:324|220:324,1,105,8|4,0:0|0:0,0:0:0
256,140,236221,2,0,B|256:248,1,105
256,245,236682,1,8,0:0:0
140,192,236913,1,0,0:0:0
76,84,237144,5,4,0:0:0
76,84,237259,1,0,0:0:0
256,32,237490,1,4,0:0:0
256,32,237605,1,8,0:0:0
436,84,237836,1,4,0:0:0
436,84,237952,1,0,0:0:0
256,136,238298,2,0,B|256:240,1,105,0|8,0:0|0:0,0:0:0
256,241,238644,1,0,0:0:0
256,241,238759,1,0,0:0:0
388,284,238990,6,0,B|344:352|256:388|168:352|124:284,1,315,4|4,0:0|0:0,0:0:0
96,152,239913,2,0,B|183:239,1,105
416,152,240375,2,0,B|328:239,1,105,8|0,0:0|0:0,0:0:0
123,100,240836,6,0,B|168:32|256:-4|344:32|388:100,2,315,4|4|8,0:0|0:0|0:0,0:0:0
123,100,242452,1,0,0:0:0
256,192,242682,12,4,245220,0:0:0
256,96,245682,5,0,0:0:0
172,240,245913,1,8,0:0:0
339,239,246144,1,0,0:0:0
400,128,246375,6,0,B|372:80|320:60,1,105
190,60,246836,2,0,B|140:80|112:128,1,105
112,256,247298,2,0,B|140:304|190:323,1,105
321,323,247759,2,0,B|372:304|400:256,1,105
400,128,248221,6,0,B|344:108|321:60,1,105
190,60,248682,2,0,B|168:108|112:128,1,105
112,256,249144,2,0,B|168:276|190:323,1,105
321,323,249605,2,0,B|344:276|400:256,1,105,8|0,0:0|0:0,0:0:0
460,148,250067,5,4,0:1:0
448,24,250298,1,0,0:0:0
348,96,250528,2,0,B|296:120|268:176,1,105,8|4,0:0|0:0,0:0:0
256,192,250875,1,0,0:0:0
239,217,250990,2,0,B|216:264|164:288,1,105,0|0,0:0|0:0,0:0:0
64,204,251452,2,0,B|87:250|139:274,1,105,8|0,0:0|0:0,0:0:0
166,289,251798,1,0,0:0:0
188,311,251913,2,0,B|237:327|291:307,1,105,4|0,0:0|0:0,0:0:0
364,196,252375,6,0,B|374:139|349:93,1,105,8|4,0:0|0:0,0:0:0
326,71,252721,1,0,0:0:0
303,48,252836,2,0,B|257:73|200:62,1,105
111,152,253298,2,0,B|125:202|172:234,1,105,8|0,0:0|0:0,0:0:0
82,324,253759,6,0,B|127:349|184:338,1,105,4|0,0:0|0:0,0:0:0
215,338,254105,1,0,0:0:0
246,338,254221,2,0,B|302:327|348:352,1,105,8|4,0:0|0:0,0:0:0
440,268,254682,2,0,B|388:243|364:197,1,105
342,175,255028,1,0,0:0:0
319,152,255144,2,0,B|273:126|216:137,1,105,8|0,0:0|0:0,0:0:0
164,264,255605,6,0,B|131:311|81:325,1,105,4|0,0:0|0:0,0:0:0
59,303,255952,1,0,0:0:0
36,280,256067,2,0,B|25:223|50:177,1,105,8|4,0:0|0:0,0:0:0
128,80,256528,2,0,B|172:120|240:120,1,105,0|4,0:0|0:0,0:0:0
256,120,256875,1,0,0:0:0
288,119,256990,2,0,B|340:120|384:80,1,105,8|0,0:0|0:0,0:0:0
461,177,257452,6,0,B|486:223|476:280,1,105,4|0,0:0|0:0,0:0:0
453,303,257798,1,0,0:0:0
430,325,257913,2,0,B|380:311|348:264,1,105,8|4,0:0|0:0,0:0:0
228,300,258375,2,0,B|208:248|168:216,1,105
145,193,258721,1,0,0:0:0
122,170,258836,2,0,B|142:118|182:86,1,105,8|0,0:0|0:0,0:0:0
329,85,259298,6,0,B|370:118|390:170,1,105,4|0,0:0|0:0,0:0:0
367,193,259644,1,0,0:0:0
344,215,259759,2,0,B|304:248|284:300,1,105,8|4,0:0|0:0,0:0:0
157,300,260221,2,0,B|126:255|63:242,1,105
93,221,260567,1,0,0:0:0
115,198,260682,2,0,B|105:144|54:105,1,105,8|0,0:0|0:0,0:0:0
256,36,261144,6,0,B|256:144,1,105,4|0,0:0|0:0,0:0:0
256,172,261490,1,0,0:0:0
256,204,261605,2,0,B|256:312,1,105,8|4,0:0|0:0,0:0:0
355,300,262067,2,0,B|386:255|449:242,1,105
419,221,262413,1,0,0:0:0
397,198,262528,2,0,B|406:144|457:105,1,105,8|0,0:0|0:0,0:0:0
344,44,262990,6,0,B|304:83,1,52.5,4|0,0:0|0:0,0:0:0
168,44,263336,2,0,B|207:83,1,52.5,4|0,0:0|0:0,0:0:0
256,192,263682,2,0,B|256:136,1,52.5,4|0,0:0|0:0,0:0:0
344,228,264028,2,0,B|306:265,1,52.5,8|4,0:0|0:0,0:0:0
167,228,264375,2,0,B|204:265,1,52.5,8|0,0:0|0:0,0:0:0
256,192,264836,12,4,268528,0:0:0
