osu file format v6

[General]
AudioFilename: 04 .mp3
AudioLeadIn: 0
PreviewTime: -1
Countdown: 2
SampleSet: Normal
StackLeniency: 0.7
Mode: 0
LetterboxInBreaks: 1

[Editor]
DistanceSpacing: 0.800000011920929
BeatDivisor: 4
GridSize: 32

[Metadata]
Title:bokurano hisoutensoku
Artist:akiyama uni
Creator:frofile1p
Version:Normal
Source:
Tags:

[Difficulty]
HPDrainRate:5
CircleSize:5
OverallDifficulty:5
SliderMultiplier:1.4
SliderTickRate:1

[Events]
//Background and Video events
0,0,"tfm4.jpg"
//Break Periods
2,35953,40625
2,52739,57768
//Storyboard Layer 0 (Background)
//Storyboard Layer 1 (Fail)
//Storyboard Layer 2 (Pass)
//Storyboard Layer 3 (Foreground)
//Storyboard Sound Samples
//Background Colour Transformations
3,100,163,162,255

[TimingPoints]
1825.7047662079,357.142857142857,4,1,0,100,1,0

[HitObjects]
32,32,13214,2,0,B|192:32,1,140
256,32,13928,1,0
320,32,14107,1,0
384,32,14286,1,8
448,32,14464,1,8
448,96,14682,6,2,B|352:96,1,70
320,96,15039,1,8
256,96,15218,1,12
160,96,15575,5,0
96,96,15754,1,0
32,96,15932,1,0
32,160,16111,2,8,B|32:256,3,70
96,224,16825,1,2
160,224,17003,2,0,B|256:224|256:224|224:224,1,70
288,224,17361,2,6,B|416:288|512:160|320:64,1,280,6|6
256,64,18432,5,8
256,64,18611,1,8
256,64,18789,1,8
256,64,18968,2,0,B|128:32,1,140
32,128,19682,1,0
64,160,19860,1,0
96,192,20039,1,0
128,224,20218,1,0
160,256,20397,2,2,B|192:288,3,70,2|2|2|2
320,256,21289,5,0
384,256,21468,1,0
448,256,21647,1,0
448,192,21825,2,2,B|416:160,3,70
448,64,22539,1,8
384,64,22718,2,8,B|224:64|192:64,1,140
256,192,23254,12,4,24325
512,320,24682,6,0,B|288:320,1,210
256,320,25397,1,0
192,320,25575,1,0
128,320,25754,1,8
64,320,25932,1,8
64,256,26111,6,2,B|128:192,1,70
160,192,26468,1,8
224,192,26647,1,12
320,192,27004,5,0
320,256,27182,1,0
320,320,27361,1,0
384,320,27539,2,8,B|512:320,3,70
416,256,28254,1,2
384,192,28432,2,0,B|448:192|448:192|480:192,1,70
416,160,28789,2,6,B|416:128|448:32|128:64,1,280,6|6
96,64,29861,5,8
96,64,30039,1,8
96,64,30218,1,8
128,128,30397,2,0,B|192:192,1,140
352,128,31111,1,0
384,160,31289,1,0
352,192,31468,1,0
320,224,31647,1,0
288,256,31825,2,2,B|320:288,3,70,2|2|2|2
224,256,32718,5,0
160,256,32897,1,0
160,192,33075,1,0
160,128,33254,2,2,B|128:96,3,70
160,32,33968,1,8
224,32,34147,2,8,B|352:32|352:160,1,140
256,192,34682,12,4,35753
64,288,41825,5,8
64,192,42063,1,8
64,96,42301,1,12
448,96,43254,5,8
448,192,43492,1,8
448,288,43730,1,12
160,96,44682,5,8
256,192,44920,1,8
352,288,45159,1,12
352,96,46111,5,8
256,192,46349,1,8
160,288,46587,1,12
256,192,47539,12,12,52539
416,64,58968,6,0,B|384:32,2,70
416,128,59504,2,8,B|480:224,1,140
288,288,60218,5,0
288,288,60307,1,0
288,288,60397,2,0,B|256:320|224:288,1,70
160,288,60754,1,0
96,288,60932,2,2,B|64:224,1,140
128,32,61647,5,0
128,32,61736,1,0
128,32,61825,2,8,B|224:32,2,70
128,96,62361,2,6,B|416:96,1,280
416,160,63254,1,8
384,192,63432,1,8
352,224,63611,1,8
320,256,63789,2,0,B,1,210
64,64,64682,5,0
64,64,64861,1,0
64,64,65039,1,0
128,64,65218,2,4,B|224:128,1,140
256,160,65932,5,4
256,160,66022,1,0
256,160,66111,2,4,B|256:256|256:224,2,70
256,160,66647,2,4,B|384:128,1,140
256,32,67361,5,0
256,32,67450,1,0
256,32,67539,2,8,B|160:32,1,140
128,160,68075,2,2,B|192:224,2,140
64,160,68968,2,12,B|32:192,2,70
96,128,69504,2,0,B,1,210
384,32,70397,6,0,B|384:128,2,70
320,32,70932,2,10,B|256:128,1,140
128,352,71647,5,0
128,352,71736,1,0
128,352,71825,2,0,B|128:256,2,70
192,352,72361,2,10,B|224:320,1,140
256,96,73075,5,0
256,96,73164,1,0
256,96,73254,1,4
320,288,73611,5,4
160,160,73789,5,4
352,160,74147,5,4
192,288,74504,5,12
256,192,74861,12,4,76111
