osu file format v12

[General]
AudioFilename: 11.mp3
AudioLeadIn: 3000
PreviewTime: 34450
Countdown: 0
SampleSet: Soft
StackLeniency: 0.7
Mode: 0
LetterboxInBreaks: 1

[Editor]
Bookmarks: 445,9796,22266,34735,40969,46879,47204,59673,65908,70637,78377,86170
DistanceSpacing: 1
BeatDivisor: 4
GridSize: 4

[Metadata]
Title:Mimpi pelik
TitleUnicode:Mimpi pelik
Artist:akira
ArtistUnicode:akira
Creator:HeatKai
Version:Susah
Source:
Tags:nichijou my ordinary life Zzz Sasaki Sayaka parody Malaydub bahasa melayu mintong89
BeatmapID:247551
BeatmapSetID:91445

[Difficulty]
HPDrainRate:7
CircleSize:4
OverallDifficulty:7
ApproachRate:8
SliderMultiplier:1.8
SliderTickRate:2

[Events]
//Background and Video events
0,0,"bg.jpg",0,0
//Break Periods
//Storyboard Layer 0 (Background)
//Storyboard Layer 1 (Fail)
//Storyboard Layer 2 (Pass)
//Storyboard Layer 3 (Foreground)
//Storyboard Sound Samples
//Background Colour Transformations
3,100,163,162,255

[TimingPoints]
556,389.590994934407,4,2,0,50,1,0
8932,-100,4,2,0,20,0,0
9906,-100,4,2,0,50,0,0
27827,-200,4,2,0,20,0,0
28606,-100,4,2,0,50,0,0
31723,-200,4,2,0,20,0,0
34840,-100,4,2,0,50,0,0

[Colours]
Combo1 : 245,150,169
Combo2 : 252,205,171

[HitObjects]
148,108,556,2,0,B|92:192,1,90,4|0,0:0|0:0,0:0:0:0:
132,268,945,1,8,0:0:0:0:
220,280,1140,2,0,B|280:316|356:276|344:192,1,180
256,192,1724,1,8,0:0:0:0:
312,120,1919,1,0,0:0:0:0:
400,128,2114,6,0,B|448:164|428:228,1,90,4|0,0:0|0:0,0:0:0:0:
345,207,2503,1,8,0:0:0:0:
312,120,2698,2,0,B|324:52|392:20|464:64,1,180
450,56,3283,1,8,0:0:0:0:
256,32,3672,5,4,0:0:0:0:
240,120,3867,1,0,0:0:0:0:
160,164,4062,1,8,0:0:0:0:
120,84,4257,2,0,B|72:96|44:144|52:208|106:240,1,180
89,228,4841,1,8,0:0:0:0:
90,228,5036,1,0,0:0:0:0:
256,352,5425,6,0,B|256:336|256:336|252:324|252:324|260:324|260:324|252:316|252:316|260:316|260:316|256:308|256:308|256:296|256:280,2,90,0|8|0,0:0|0:0|0:0,0:0:0:0:
422,228,6205,5,0,0:0:0:0:
444,140,6399,1,8,0:0:0:0:
384,72,6594,1,0,0:0:0:0:
288,60,6789,2,0,B|260:160,1,90,4|0,0:0|0:0,0:0:0:0:
184,108,7179,2,0,B|192:204,1,90,8|0,0:0|0:0,0:0:0:0:
104,180,7568,1,0,0:0:0:0:
108,192,7666,1,0,0:0:0:0:
112,204,7763,2,0,B|140:296,1,90,0|8,0:0|0:0,0:0:0:0:
196,360,8153,5,2,0:0:0:0:
321,225,8542,1,2,0:0:0:0:
288,141,8737,1,2,0:0:0:0:
212,192,8932,2,0,B|200:212,20,22.5,0|0|0|0|0|0|0|0|0|0|0|0|0|0|0|0|0|0|0|0|4,0:0|0:0|0:0|0:0|0:0|0:0|0:0|0:0|0:0|0:0|0:0|0:0|0:0|0:0|0:0|0:0|0:0|0:0|0:0|0:0|0:0,3:0:0:0:
168,112,10100,5,2,0:0:0:0:
80,100,10295,1,8,0:0:0:0:
44,184,10490,2,0,B|4:244|72:312|136:260,1,180,2|2,0:0|0:0,0:0:0:0:
132,348,11074,1,8,0:0:0:0:
212,308,11269,1,2,0:0:0:0:
136,260,11464,2,0,B|116:208|160:160,2,90,4|2|8,0:0|0:0|0:0,0:0:0:0:
220,224,12048,2,0,B|248:164|228:120|200:84|136:88,1,180,2|2,0:0|0:0,0:0:0:0:
154,88,12633,1,8,0:0:0:0:
76,136,12828,1,2,0:0:0:0:
32,216,13022,6,0,B|-4:304,2,90,4|2|8,0:0|0:0|0:0,0:0:0:0:
88,288,13607,2,0,B|84:392,2,90,2|0|2,0:0|0:0|0:0,0:0:0:0:
176,260,14191,1,8,0:0:0:0:
256,300,14386,1,2,0:0:0:0:
400,192,14581,1,4,0:0:0:0:
256,84,14776,1,2,0:0:0:0:
112,192,14970,1,8,0:0:0:0:
220,192,15165,5,2,0:0:0:0:
233,192,15263,1,0,0:0:0:0:
246,192,15360,1,8,0:0:0:0:
259,192,15457,1,8,0:0:0:0:
272,192,15555,1,0,0:0:0:0:
285,192,15652,1,0,0:0:0:0:
298,192,15750,1,2,0:0:0:0:
380,274,15944,1,2,0:0:0:0:
416,164,16139,6,0,B|400:72,1,90,4|2,0:0|0:0,0:0:0:0:
312,88,16529,1,8,0:0:0:0:
232,48,16724,2,0,B|168:20|108:104|168:160,1,180,2|0,0:0|0:0,0:0:0:0:
252,136,17308,1,8,0:0:0:0:
232,48,17503,1,2,0:0:0:0:
143,72,17698,2,0,B|179:112|159:172,2,90,4|2|8,0:0|0:0|0:0,0:0:0:0:
76,132,18282,2,0,B|256:88,1,180,2|0,0:0|0:0,0:0:0:0:
252,180,18866,1,8,0:0:0:0:
324,236,19061,1,2,0:0:0:0:
240,268,19256,5,4,0:0:0:0:
256,356,19451,1,2,0:0:0:0:
172,320,19645,1,8,0:0:0:0:
84,300,19840,2,0,B|100:248|148:236|148:236|168:148,1,180,2|2,0:0|0:0,0:0:0:0:
84,120,20425,2,0,B|108:60|192:60,1,90,8|2,0:0|0:0,0:0:0:0:
236,36,20814,2,0,B|328:84,1,90,0|2,0:0|0:0,0:0:0:0:
256,144,21204,1,8,0:0:0:0:
256,232,21399,1,2,0:0:0:0:
256,322,21593,5,0,0:0:0:0:
256,376,21983,1,2,0:0:0:0:
48,72,22373,6,0,B|136:28,1,90,4|0,0:0|0:0,0:0:0:0:
156,144,22762,2,0,B|268:120,1,90,8|0,0:0|0:0,0:0:0:0:
396,304,23347,1,0,0:0:0:0:
396,304,23541,1,8,0:0:0:0:
464,72,23931,2,0,B|376:28,1,90,4|0,0:0|0:0,0:0:0:0:
356,144,24321,2,0,B|244:120,1,90,8|0,0:0|0:0,0:0:0:0:
116,304,24905,1,0,0:0:0:0:
116,304,25100,1,8,0:0:0:0:
124,68,25489,6,0,B|72:160,1,90,4|0,0:0|0:0,0:0:0:0:
196,148,25879,2,0,B|184:248,1,90,8|0,0:0|0:0,0:0:0:0:
316,148,26269,2,0,B|326:237,1,90,0|0,0:0|0:0,0:0:0:0:
388,68,26658,2,0,B|432:146,1,90,8|0,0:0|0:0,0:0:0:0:
472,276,27048,1,4,0:0:0:0:
340,340,27242,1,0,0:0:0:0:
160,340,27437,1,8,0:0:0:0:
40,276,27632,1,0,0:0:0:0:
168,192,27827,6,0,B|152:140,1,45,0|2,0:0|0:0,0:0:0:0:
344,192,28216,2,0,B|360:140,1,45,2|0,0:0|0:0,0:0:0:0:
256,88,28606,5,4,0:0:0:0:
256,205,28801,1,0,0:0:0:0:
348,276,28996,2,0,B|408:272|420:216,1,90,8|0,0:0|0:0,0:0:0:0:
482,109,29385,1,0,0:0:0:0:
360,140,29580,1,0,0:0:0:0:
440,41,29775,1,8,0:0:0:0:
432,175,29970,1,0,0:0:0:0:
364,61,30164,6,0,B|278:20,1,90,0|2,0:0|0:0,0:0:0:0:
240,136,30554,2,0,B|144:120,1,90,8|0,0:0|0:0,0:0:0:0:
172,236,30944,2,0,B|80:284,1,90,2|2,0:0|0:0,0:0:0:0:
156,376,31333,1,8,0:0:0:0:
256,312,31528,1,0,0:0:0:0:
356,252,31723,6,0,B|368:224|404:212,1,45
308,176,32112,2,0,B|300:148|308:128,1,45,8|0,0:0|0:0,0:0:0:0:
156,252,32502,2,0,B|144:224|108:212,1,45
204,176,32892,2,0,B|212:148|204:128,1,45,8|0,0:0|0:0,0:0:0:0:
217,28,33281,6,0,B|240:28,3,22.5,0|0|2|0,0:0|0:0|0:0|0:0,0:0:0:0:
272,28,33671,2,0,B|300:28,3,22.5,8|0|2|0,0:0|0:0|0:0|0:0,0:0:0:0:
316,32,34060,1,0,0:0:0:0:
336,40,34158,1,0,0:0:0:0:
352,56,34255,1,2,0:0:0:0:
364,76,34353,1,0,0:0:0:0:
372,96,34450,1,8,0:0:0:0:
376,120,34547,1,0,0:0:0:0:
372,144,34645,1,2,0:0:0:0:
364,164,34742,1,0,0:0:0:0:
356,180,34840,6,0,B|356:272,1,90,4|0,0:0|0:0,0:0:0:0:
388,356,35229,1,8,0:0:0:0:
300,348,35424,2,0,L|176:348,2,90
388,356,36008,1,8,0:0:0:0:
480,348,36203,5,0,0:0:0:0:
256,36,36593,1,0,0:0:0:0:
32,348,36982,1,0,0:0:0:0:
8,172,37372,5,4,0:0:0:0:
96,164,37567,1,8,0:0:0:0:
164,224,37761,1,0,0:0:0:0:
204,304,37956,2,0,P|264:356|340:276,1,180,4|8,0:0|0:0,0:0:0:0:
380,228,38541,1,0,0:0:0:0:
432,300,38735,6,0,P|460:332|520:356,1,90
324,160,39125,2,0,P|296:128|236:104,1,90,8|0,0:0|0:0,0:0:0:0:
236,196,39515,1,4,0:0:0:0:
160,148,39709,1,0,0:0:0:0:
172,60,39904,1,8,0:0:0:0:
244,8,40099,1,0,0:0:0:0:
336,12,40294,5,4,0:0:0:0:
380,24,40391,1,0,0:0:0:0:
416,48,40489,1,8,0:0:0:0:
440,88,40586,1,0,0:0:0:0:
452,132,40683,1,8,0:0:0:0:
444,176,40781,1,0,0:0:0:0:
420,212,40878,1,8,0:0:0:0:
384,240,40976,1,0,0:0:0:0:
344,260,41073,6,0,P|256:284|292:364,1,180,4|8,0:0|0:0,0:0:0:0:
364,352,41657,1,0,0:0:0:0:
364,352,41852,2,0,L|208:216,1,180,0|8,0:0|0:0,0:0:0:0:
164,170,42437,1,0,0:0:0:0:
100,233,42631,1,0,0:0:0:0:
163,296,42826,1,0,0:0:0:0:
226,232,43021,2,0,P|268:152|192:88,1,180,8|0,0:0|0:0,0:0:0:0:
164,170,43605,2,0,P|116:174|60:154,1,90,0|8,0:0|0:0,0:0:0:0:
360,140,43995,2,0,P|408:132|456:144,1,90,0|0,0:0|0:0,0:0:0:0:
408,248,44384,6,0,P|452:272|480:308,1,90,0|8,0:0|0:0,0:0:0:0:
256,112,44774,2,0,L|256:76|256:16,1,90,0|0,0:0|0:0,0:0:0:0:
104,248,45164,2,0,P|60:272|32:308,2,90,0|8|0,0:0|0:0|0:0,0:0:0:0:
112,344,45748,1,0,0:0:0:0:
136,348,45845,1,0,0:0:0:0:
160,348,45943,1,0,0:0:0:0:
184,344,46040,1,0,0:0:0:0:
204,332,46138,2,0,L|232:304,5,30,8|0|0|0|0|0,0:0|0:0|0:0|0:0|0:0|0:0,0:0:0:0:
252,328,46527,2,2,P|276:328|296:324,6,30,2|2|2|2|2|2|8,0:0|0:0|0:0|0:0|0:0|0:0|0:0,0:0:0:0:
256,232,47112,5,0,0:0:0:0:
300,152,47306,2,0,P|340:188|348:228,1,90,4|0,0:0|0:0,0:0:0:0:
212,152,47696,2,0,P|172:188|164:228,1,90,8|0,0:0|0:0,0:0:0:0:
188,76,48086,2,0,P|256:32|332:80,1,180,0|8,0:0|0:0,0:0:0:0:
416,116,48670,1,0,0:0:0:0:
328,132,48865,1,0,0:0:0:0:
392,68,49060,1,0,0:0:0:0:
380,156,49254,1,8,0:0:0:0:
456,208,49449,2,0,P|488:256|496:292,1,90
404,280,49839,2,0,P|416:324|412:376,1,90,0|8,0:0|0:0,0:0:0:0:
328,336,50228,5,0,0:0:0:0:
256,172,50618,1,0,0:0:0:0:
168,164,50813,1,8,0:0:0:0:
84,192,51008,2,0,P|20:248|88:328,1,180
128,268,51592,1,8,0:0:0:0:
84,192,51787,2,0,P|88:136|120:88,1,90
140,84,52079,1,0,0:0:0:0:
184,80,52176,1,0,0:0:0:0:
276,72,52371,2,0,P|340:56|372:32,2,90,8|0|0,0:0|0:0|0:0,0:0:0:0:
336,140,52955,2,0,P|388:160|416:188,2,90,0|2|0,0:0|0:0|0:0,0:0:0:0:
332,228,53540,6,0,L|388:328,1,90,4|0,0:0|0:0,0:0:0:0:
284,308,53929,2,0,L|236:224,2,90,8|0|0,0:0|0:0|0:0,0:0:0:0:
200,344,54514,2,0,P|116:360|44:288,3,180
20,216,55877,1,0,0:0:0:0:
28,128,56072,1,0,0:0:0:0:
96,68,56267,1,8,0:0:0:0:
184,52,56462,1,0,0:0:0:0:
272,64,56657,6,0,P|372:112|392:200,1,180,4|8,0:0|0:0,0:0:0:0:
472,216,57241,1,0,0:0:0:0:
400,272,57436,2,0,P|380:324|352:344,1,90
312,264,57825,1,8,0:0:0:0:
224,256,58020,6,0,P|248:208|304:180,1,90
320,172,58312,1,0,0:0:0:0:
356,148,58410,1,0,0:0:0:0:
368,104,58507,1,0,0:0:0:0:
348,64,58605,1,8,0:0:0:0:
308,40,58702,1,0,0:0:0:0:
264,44,58799,1,0,0:0:0:0:
228,72,58897,1,0,0:0:0:0:
208,112,58994,2,0,L|176:112,12,30,0|0|0|0|0|0|8|0|0|0|0|0|4,0:0|0:0|0:0|0:0|0:0|0:0|0:0|0:0|0:0|0:0|0:0|0:0|0:0,0:0:0:0:
256,192,59871,12,0,61137,0:0:0:0:
256,192,61332,12,0,62695,0:0:0:0:
256,192,62890,12,0,64059,0:0:0:0:
24,248,64448,5,2,0:0:0:0:
12,160,64643,1,2,0:0:0:0:
96,196,64838,1,0,0:0:0:0:
112,284,65033,1,2,0:0:0:0:
180,228,65228,1,0,0:0:0:0:
172,140,65422,1,2,0:0:0:0:
256,176,65617,1,2,0:0:0:0:
256,268,65812,1,2,0:0:0:0:
256,88,66007,5,4,0:0:0:0:
340,120,66202,1,0,0:0:0:0:
392,192,66396,1,8,0:0:0:0:
400,280,66591,1,0,0:0:0:0:
400,280,66689,1,0,0:0:0:0:
400,280,66786,2,0,P|376:320|324:336,1,90
320,248,67176,2,0,P|216:240|160:312,1,180,8|0,0:0|0:0,0:0:0:0:
256,312,67760,5,0,0:0:0:0:
168,288,67955,1,8,0:0:0:0:
80,264,68150,2,0,L|80:208,1,45
80,176,68344,1,0,0:0:0:0:
112,92,68539,1,0,0:0:0:0:
200,112,68734,1,8,0:0:0:0:
256,40,68929,1,8,0:0:0:0:
312,112,69124,6,0,P|392:132|388:240,1,180,4|8,0:0|0:0,0:0:0:0:
488,252,69708,2,0,P|432:304|336:272,1,180
292,204,70292,1,8,0:0:0:0:
258,120,70487,5,0,0:0:0:0:
180,224,70682,1,4,0:0:0:0:
332,224,70877,1,0,0:0:0:0:
258,85,71071,1,0,0:0:0:0:
152,260,71266,1,4,0:0:0:0:
360,260,71461,5,4,0:0:0:0:
360,124,71656,1,8,0:0:0:0:
152,124,71851,1,8,0:0:0:0:
152,260,72045,1,0,0:0:0:0:
384,284,72240,6,0,P|332:276|296:232,1,90,4|0,0:0|0:0,0:0:0:0:
294,158,72630,1,8,0:0:0:0:
304,68,72825,2,0,P|224:88|204:176,1,180
294,158,73409,1,8,0:0:0:0:
256,336,73799,5,0,0:0:0:0:
188,276,73993,1,0,0:0:0:0:
124,212,74188,1,8,0:0:0:0:
64,144,74383,2,0,P|136:48|256:100,1,270,8|8,0:0|0:0,0:0:0:0:
256,336,75357,5,0,0:0:0:0:
324,276,75551,1,0,0:0:0:0:
388,212,75746,1,8,0:0:0:0:
448,144,75941,2,0,P|376:48|256:100,1,270,8|8,0:0|0:0,0:0:0:0:
256,192,76721,1,0,0:0:0:0:
256,192,76915,12,0,78084,0:0:0:0:
392,72,78474,6,0,L|444:152,1,90,4|0,0:0|0:0,0:0:0:0:
360,192,78863,1,8,0:0:0:0:
388,276,79058,2,0,P|352:340|232:328,1,180
256,256,79642,1,8,0:0:0:0:
256,76,80032,5,2,0:0:0:0:
256,85,80227,1,0,0:0:0:0:
256,94,80422,1,2,0:0:0:0:
256,102,80616,1,0,0:0:0:0:
256,192,80714,12,8,82759,0:0:0:0:
64,48,83149,5,0,0:0:0:0:
48,136,83344,1,0,0:0:0:0:
84,216,83538,1,2,0:0:0:0:
152,276,83733,2,0,P|220:328|324:316,1,180,0|2,0:0|0:0,0:0:0:0:
400,300,84318,1,2,0:0:0:0:
336,236,84512,6,0,B|376:188|444:156|432:64|356:24|280:92|280:92|200:20|112:108|140:184|224:208|268:248,1,630,0|2,0:0|0:0,0:0:0:0:
256,192,86266,12,2,88213,0:0:0:0:
