osu file format v12

[General]
AudioFilename: 11.mp3
AudioLeadIn: 3000
PreviewTime: 34450
Countdown: 0
SampleSet: Soft
StackLeniency: 0.7
Mode: 0
LetterboxInBreaks: 1

[Editor]
Bookmarks: 445,9796,22266,34735,40969,46879,47204,59673,65908,70637,78377,86170
DistanceSpacing: 1
BeatDivisor: 4
GridSize: 4

[Metadata]
Title:Mimpi pelik
TitleUnicode:Mimpi pelik
Artist:akira
ArtistUnicode:akira
Creator:HeatKai
Version:Senang
Source:
Tags:nichijou my ordinary life Zzz Sasaki Sayaka parody Malaydub bahasa melayu mintong89
BeatmapID:254936
BeatmapSetID:91445

[Difficulty]
HPDrainRate:1
CircleSize:3
OverallDifficulty:2
ApproachRate:3
SliderMultiplier:0.8
SliderTickRate:1

[Events]
//Background and Video events
0,0,"bg.jpg",0,0
//Break Periods
2,41273,45867
2,59974,64567
//Storyboard Layer 0 (Background)
//Storyboard Layer 1 (Fail)
//Storyboard Layer 2 (Pass)
//Storyboard Layer 3 (Foreground)
//Storyboard Sound Samples
//Background Colour Transformations
3,100,163,162,255

[TimingPoints]
556,389.590994934407,4,2,0,50,1,0
8932,-100,4,2,0,20,0,0
9906,-100,4,2,0,50,0,0
31723,-100,4,2,0,20,0,0
34840,-100,4,2,0,50,0,0

[Colours]
Combo1 : 245,150,169
Combo2 : 252,205,171

[HitObjects]
96,112,556,2,0,P|132:192|240:184,1,200,4|2,0:0|0:0,0:0:0:0:
256,72,2114,2,0,P|328:100|344:236,1,200,0|2,0:0|0:0,0:0:0:0:
276,300,3672,2,0,P|352:328|456:272,1,200,0|2,0:0|0:0,0:0:0:0:
352,208,5231,2,0,P|428:164|524:176,2,160,0|0|4,0:0|0:0|0:0,0:0:0:0:
276,240,7179,2,0,P|208:252|148:192,1,160,8|8,0:0|0:0,0:0:0:0:
256,192,8347,12,4,9906,0:0:0:0:
148,48,10295,6,0,P|132:120|200:180,1,160,8|8,0:0|0:0,0:0:0:0:
256,216,11464,1,0,0:0:0:0:
324,177,11854,2,0,P|380:120|364:48,1,160,8|8,0:0|0:0,0:0:0:0:
304,100,13022,1,0,0:0:0:0:
280,24,13411,2,0,P|224:84|244:156,1,160,8|8,0:0|0:0,0:0:0:0:
256,232,14581,2,0,P|248:308|112:288,1,240,0|2,0:0|0:0,0:0:0:0:
92,220,16139,5,0,0:0:0:0:
132,148,16529,2,0,P|144:72|72:24,1,160,8|8,0:0|0:0,0:0:0:0:
64,104,17698,1,0,0:0:0:0:
56,184,18087,2,0,P|131:233|196:199,1,160,8|8,0:0|0:0,0:0:0:0:
256,152,19256,1,0,0:0:0:0:
316,208,19646,2,0,P|372:292|268:308,1,240,8|0,0:0|0:0,0:0:0:0:
240,236,21204,1,8,0:0:0:0:
456,128,22373,6,0,L|508:192,1,80,4|8,0:0|0:0,0:0:0:0:
412,264,23347,2,0,L|392:316,1,40,0|8,0:0|0:0,0:0:0:0:
328,264,23931,6,0,L|292:192,1,80,0|8,0:0|0:0,0:0:0:0:
256,76,24905,2,0,L|232:120,1,40,0|8,0:0|0:0,0:0:0:0:
156,124,25490,6,0,L|112:192,1,80,0|8,0:0|0:0,0:0:0:0:
44,236,26269,1,0,0:0:0:0:
96,296,26658,2,0,P|144:360|244:336,1,160,8|8,0:0|0:0,0:0:0:0:
256,288,27827,1,0,0:0:0:0:
276,212,28217,2,0,P|348:188|424:248,1,160,2|8,0:0|0:0,0:0:0:0:
416,68,29775,6,0,L|256:88,1,160,8|8,0:0|0:0,0:0:0:0:
180,72,30944,1,0,0:0:0:0:
204,148,31333,2,0,B|200:220|200:220|216:264|196:320,1,160,8|8,0:0|0:0,0:0:0:0:
140,356,32502,1,0,0:0:0:0:
76,308,32892,2,0,B|60:265|76:221|76:221|72:149,1,160,8|8,0:0|0:0,0:0:0:0:
96,72,34061,1,0,0:0:0:0:
176,68,34450,1,8,0:0:0:0:
256,68,34840,6,0,P|376:88|408:192,1,240,4|8,0:0|0:0,0:0:0:0:
360,252,36398,2,0,P|240:232|207:130,1,240,0|8,0:0|0:0,0:0:0:0:
256,68,37957,6,0,P|188:20|56:112,1,240,4|8,0:0|0:0,0:0:0:0:
52,168,39515,2,0,B|124:232|180:252|180:252|260:216,1,240,4|8,0:0|0:0,0:0:0:0:
256,136,41073,1,4,0:0:0:0:
376,36,47307,6,0,P|472:76|452:192,1,240,4|8,0:0|0:0,0:0:0:0:
372,192,48865,2,0,B|304:156|252:188|252:188|200:224|144:192,1,240,0|8,0:0|0:0,0:0:0:0:
196,128,50423,2,0,L|196:44,1,80,0|8,0:0|0:0,0:0:0:0:
276,36,51203,1,0,0:0:0:0:
348,68,51592,1,8,0:0:0:0:
412,112,51982,2,0,P|452:208|352:284,1,240,0|2,0:0|0:0,0:0:0:0:
288,316,53540,6,0,B|208:272|208:272|181:282|126:281|95:238|97:197,1,240,4|8,0:0|0:0,0:0:0:0:
179,193,55099,2,0,L|371:37,1,240,0|8,0:0|0:0,0:0:0:0:
427,97,56657,2,0,L|240:248,1,240,0|8,0:0|0:0,0:0:0:0:
256,192,58215,12,4,59774,0:0:0:0:
256,44,66007,5,4,0:0:0:0:
324,88,66397,2,0,P|256:124|184:80,1,160,8|8,0:0|0:0,0:0:0:0:
116,116,67565,1,4,0:0:0:0:
140,192,67955,2,0,P|216:232|216:308,1,160,8|8,0:0|0:0,0:0:0:0:
144,272,69124,6,0,P|56:200|116:112,1,240,4|8,0:0|0:0,0:0:0:0:
140,190,70682,2,0,P|200:100|112:32,1,240,4|8,0:0|0:0,0:0:0:0:
40,64,72241,6,0,P|16:100|8:152,1,80,4|8,0:0|0:0,0:0:0:0:
12,216,73020,2,0,P|8:260|20:308,1,80,0|8,0:0|0:0,0:0:0:0:
68,356,73799,2,0,P|144:380|256:280,1,240,4|8,0:0|0:0,0:0:0:0:
256,204,75357,2,0,P|276:132|432:112,1,240,4|8,0:0|0:0,0:0:0:0:
256,192,76916,12,4,78474,0:0:0:0:
180,84,78864,5,8,0:0:0:0:
128,148,79253,2,0,L|104:228,1,80,0|8,0:0|0:0,0:0:0:0:
184,244,80032,2,0,L|206:167,1,80,0|8,0:0|0:0,0:0:0:0:
220,128,80616,1,0,0:0:0:0:
256,192,80812,12,8,82760,0:0:0:0:
200,56,83149,6,0,P|264:48|308:88,2,120,2|2|2,0:0|0:0|0:0,0:0:0:0:
240,124,84707,2,0,B|208:208|256:244|304:284|268:356,1,240
256,192,86266,12,2,88214,0:0:0:0:
