osu file format v13

[General]
AudioFilename: boys be stand up.mp3
AudioLeadIn: 1000
PreviewTime: 73267
Countdown: 0
SampleSet: Soft
StackLeniency: 0.7
Mode: 0
LetterboxInBreaks: 0
WidescreenStoryboard: 1

[Editor]
Bookmarks: 33860,60161,86463,93038,99613,125915,165367,191668,217970,244271
DistanceSpacing: 0.7
BeatDivisor: 8
GridSize: 8
TimelineZoom: 1.6

[Metadata]
Title:boys, be "stand up"!!
TitleUnicode:boys, be "stand up"!!
Artist:akari
ArtistUnicode:akari
Creator:Hollow Wings
Version:Collab Extra
Source:
Tags:春河あかり Harukawa Chloe Fycho Minakami Yuki mtbbsben Sharlo Tsukuyomi softhouse-seal GRANDEE galgame eroge hentai visual novel adult
BeatmapID:427455
BeatmapSetID:177585

[Difficulty]
HPDrainRate:7
CircleSize:4
OverallDifficulty:6
ApproachRate:9
SliderMultiplier:1.8
SliderTickRate:1

[Events]
//Background and Video events
0,0,"boys be stand up.jpg",0,0
//Break Periods
2,86669,92444
2,93244,99019
//Storyboard Layer 0 (Background)
//Storyboard Layer 1 (Fail)
//Storyboard Layer 2 (Pass)
//Storyboard Layer 3 (Foreground)
Sprite,Foreground,Centre,"hw.png",320,240 F,0,7565,7770,0,1 M,0,7770,,165,430 S,0,7770,,0.9 F,0,7770,33661,1 F,0,33661,33866,1,0 F,0,33866,60167,0 F,0,60167,60373,0,1 F,0,60373,86263,1 F,0,86263,86469,1,0 F,0,86469,99619,0 F,0,99619,99825,0,1 F,0,99825,125715,1 F,0,125715,125921,1,0 F,0,125921,165373,0 F,0,165373,165578,0,1 F,0,165578,191469,1 F,0,191469,191674,1,0 F,0,191674,217976,0 F,0,217976,218181,0,1 F,0,218181,244072,1 F,0,244072,244277,1,0
Sprite,Foreground,Centre,"yomi.png",320,240 F,0,33866,34072,0,1 M,0,34072,,480,430 S,0,34072,,0.9 F,0,34072,59962,1,0.9807351 F,0,59962,60167,0.9807351,0 F,0,60167,125921,0 F,0,125921,126126,0,1 F,0,126126,165167,1 F,0,165167,165373,1,0 F,0,165373,191674,0,0.02427185 F,0,191674,191880,0.02427185,1 F,0,191880,217770,1 F,0,217770,217976,1,0 F,0,217976,244277,0 F,0,244277,244482,0,1 F,0,244482,257222,1 F,0,257222,257428,1,0
//Storyboard Sound Samples
//Background Colour Transformations
3,100,163,162,255

[TimingPoints]
-654,410.958904109589,4,2,1,80,1,0
989,-133.333333333333,4,2,1,80,0,0
5921,-111.111111111111,4,2,1,90,0,0
7565,-100,4,2,1,100,0,1
7770,-100,4,2,1,100,0,0
14140,-100,4,2,1,100,0,1
14345,-100,4,2,1,100,0,0
20715,-100,4,2,1,100,0,1
20921,-100,4,2,1,100,0,0
27291,-100,4,2,1,100,0,1
27496,-100,4,2,1,100,0,0
33865,-100,4,2,1,80,0,0
60167,-100,4,2,1,90,0,0
71674,-66.6666666666667,4,2,1,100,0,0
73318,-80,4,2,1,100,0,1
84825,-66.6666666666667,4,2,1,100,0,1
86058,-66.6666666666667,4,2,1,100,0,0
86469,-100,4,2,1,100,0,1
86674,-100,4,2,1,100,0,0
93044,-100,4,2,1,100,0,1
93250,-100,4,2,1,100,0,0
99619,-133.333333333333,4,2,1,80,0,0
102907,-80,4,2,1,80,0,0
106195,-133.333333333333,4,2,1,80,0,0
109482,-80,4,2,1,80,0,0
112770,-133.333333333333,4,2,1,80,0,0
116058,-80,4,2,1,80,0,0
119345,-133.333333333333,4,2,1,80,0,0
122633,-80,4,2,1,80,0,0
125920,-100,4,2,1,90,0,0
138661,-66.6666666666667,4,2,1,90,0,0
139072,-80,4,2,1,100,0,1
151811,-80,4,2,1,100,0,0
152222,-80,4,2,1,100,0,1
165373,-100,4,2,1,90,0,0
178523,-88.4955752212389,4,2,1,100,0,0
191263,-50,4,2,1,100,0,0
191674,-80,4,2,1,100,0,1
193524,-57.1428571428571,4,2,1,100,0,1
193729,-80,4,2,1,100,0,1
193935,-57.1428571428571,4,2,1,100,0,1
194140,-80,4,2,1,100,0,1
194346,-57.1428571428571,4,2,1,100,0,1
194551,-80,4,2,1,100,0,1
194756,-57.1428571428571,4,2,1,100,0,1
194962,-80,4,2,1,100,0,1
200099,-57.1428571428571,4,2,1,100,0,1
200304,-80,4,2,1,100,0,1
200510,-57.1428571428571,4,2,1,100,0,1
200715,-80,4,2,1,100,0,1
200921,-57.1428571428571,4,2,1,100,0,1
201126,-80,4,2,1,100,0,1
201332,-57.1428571428571,4,2,1,100,0,1
201537,-80,4,2,1,100,0,1
204414,-80,4,2,1,100,0,0
204825,-80,4,2,1,100,0,1
206674,-57.1428571428571,4,2,1,100,0,1
206880,-80,4,2,1,100,0,1
207085,-57.1428571428571,4,2,1,100,0,1
207291,-80,4,2,1,100,0,1
207496,-57.1428571428571,4,2,1,100,0,1
207702,-80,4,2,1,100,0,1
207907,-57.1428571428571,4,2,1,100,0,1
208113,-80,4,2,1,100,0,1
213250,-57.1428571428571,4,2,1,100,0,1
213455,-80,4,2,1,100,0,1
213661,-57.1428571428571,4,2,1,100,0,1
213866,-80,4,2,1,100,0,1
214072,-57.1428571428571,4,2,1,100,0,1
214277,-80,4,2,1,100,0,1
214482,-57.1428571428571,4,2,1,100,0,1
214688,-80,4,2,1,100,0,1
217565,-80,4,2,1,100,0,0
217976,-66.6666666666667,4,2,1,100,0,1
230715,-66.6666666666667,4,2,1,100,0,0
231126,-66.6666666666667,4,2,1,100,0,1
231332,-66.6666666666667,4,2,1,100,0,0
237702,-66.6666666666667,4,2,1,100,0,1
237907,-66.6666666666667,4,2,1,100,0,0
244277,-100,4,2,1,100,0,1
244482,-100,4,2,1,100,0,0
246126,-66.6666666666667,4,2,1,100,0,0
246332,-100,4,2,1,100,0,0
246537,-66.6666666666667,4,2,1,100,0,0
246743,-100,4,2,1,100,0,0
246948,-66.6666666666667,4,2,1,100,0,0
247154,-100,4,2,1,100,0,0
247359,-66.6666666666667,4,2,1,100,0,0
247565,-100,4,2,1,100,0,0
250852,-100,4,2,1,100,0,1
251058,-100,4,2,1,100,0,0
252702,-66.6666666666667,4,2,1,100,0,0
252907,-100,4,2,1,100,0,0
253113,-66.6666666666667,4,2,1,100,0,0
253318,-100,4,2,1,100,0,0
253524,-66.6666666666667,4,2,1,100,0,0
253729,-100,4,2,1,100,0,0
253935,-66.6666666666667,4,2,1,100,0,0
254140,-100,4,2,1,100,0,0
257427,-100,4,2,1,95,0,0

[Colours]
Combo1 : 255,128,131
Combo2 : 255,255,136
Combo3 : 237,132,255
Combo4 : 85,128,255

[HitObjects]
98,34,989,5,6,0:0:0:0:
82,212,1298,2,0,L|66:131,2,67.5000025749208,2|0|0,0:0|0:0|0:0,0:0:0:0:
298,114,1914,2,0,L|382:119,1,67.5000025749208,0|0,0:0|0:0,0:0:0:0:
505,95,2222,2,0,L|425:105,1,67.5000025749208,8|2,0:0|0:0,0:0:0:0:
167,132,2633,5,0,0:0:0:0:
444,269,2942,2,0,L|458:203,2,67.5000025749208,0|0|0,0:0|0:0|0:0,0:0:0:0:
253,286,3558,2,0,L|169:281,1,67.5000025749208
87,348,3866,2,0,L|20:356,1,67.5000025749208,8|2,0:0|0:0,0:0:0:0:
256,192,4277,12,0,5715,3:0:0:0:
327,78,5921,5,4,0:0:0:0:
268,116,6024,2,0,L|210:109,2,40.4999987640381,0|0|0,0:0|0:0|0:0,0:0:0:0:
269,188,6332,5,4,0:0:0:0:
326,234,6435,2,0,L|384:227,2,40.4999987640381,0|0|0,0:0|0:0|0:0,0:0:0:0:
310,304,6743,5,4,0:3:0:0:
33,370,6948,1,0,0:0:0:0:
19,349,7050,1,0,0:0:0:0:
9,327,7153,1,0,0:0:0:0:
4,303,7256,1,0,0:0:0:0:
4,279,7358,1,2,0:1:0:0:
8,255,7461,1,0,0:0:0:0:
18,229,7565,6,0,L|122:213,1,90,4|0,0:0|0:0,0:0:0:0:
192,256,7873,1,0,0:0:0:0:
221,290,7976,2,0,L|327:307,1,90,8|0,0:0|0:0,0:0:0:0:
403,283,8284,1,0,0:0:0:0:
436,247,8387,2,0,L|486:237,1,45,2|0,0:0|0:0,0:0:0:0:
353,179,8592,2,0,L|400:178,1,45,2|0,0:0|0:0,0:0:0:0:
298,90,8798,2,0,L|360:104,2,45,8|0|0,0:0|0:0|0:0,0:0:0:0:
227,57,9106,1,0,0:0:0:0:
151,70,9209,6,0,P|117:45|19:38,1,135,4|0,0:3|0:0,0:0:0:0:
69,123,9619,1,8,0:0:0:0:
92,150,9722,1,0,0:0:0:0:
104,182,9825,1,0,0:0:0:0:
109,217,9928,1,0,0:0:0:0:
103,248,10030,2,0,L|6:239,1,90,0|2,0:0|0:0,0:0:0:0:
2,165,10339,1,0,0:0:0:0:
69,123,10441,2,0,L|167:112,1,90,8|0,0:0|0:0,0:0:0:0:
369,311,10852,6,0,L|250:300,1,90,4|0,0:0|0:0,0:0:0:0:
214,232,11161,1,0,0:0:0:0:
240,195,11263,2,0,L|359:184,1,90,8|0,0:0|0:0,0:0:0:0:
479,263,11572,1,0,0:0:0:0:
451,222,11674,2,0,L|332:211,1,90,2|2,0:0|0:0,0:0:0:0:
140,334,12085,1,8,0:0:0:0:
46,32,12291,2,0,L|101:44,1,45
247,50,12496,6,0,L|348:40,2,90,4|0|8,0:3|0:0|0:0,0:0:0:0:
502,55,13113,1,0,0:0:0:0:
142,72,13318,1,0,0:0:0:0:
100,95,13421,2,0,L|216:104,1,90,8|0,0:0|0:0,0:0:0:0:
324,82,13729,1,8,0:0:0:0:
360,114,13832,1,0,0:0:0:0:
387,155,13935,2,0,L|445:145,1,45,10|8,0:0|0:0,0:0:0:0:
445,316,14140,6,0,L|330:304,1,90,4|0,0:0|0:0,0:0:0:0:
265,340,14448,1,0,0:0:0:0:
219,353,14551,2,0,P|182:315|170:258,1,90,8|0,0:0|0:0,0:0:0:0:
106,37,14962,2,0,L|89:147,1,90,2|2,0:0|0:0,0:0:0:0:
50,194,15270,2,0,L|58:255,1,45,0|8,0:0|0:0,0:0:0:0:
106,37,15578,2,0,L|114:98,1,45
128,272,15784,6,0,L|111:382,1,90,4|0,0:3|0:0,0:0:0:0:
160,244,16092,1,0,0:0:0:0:
162,196,16195,2,0,L|145:86,1,90,8|0,0:0|0:0,0:0:0:0:
455,19,16606,2,0,P|480:61|479:111,1,90,0|2,0:0|0:0,0:0:0:0:
457,226,16914,1,0,0:0:0:0:
426,248,17017,2,0,L|327:234,1,90,8|0,0:0|0:0,0:0:0:0:
323,145,17325,1,0,0:0:0:0:
327,113,17428,6,0,L|343:211,1,90,4|0,0:0|0:0,0:0:0:0:
141,337,17839,2,0,P|105:351|34:351,1,90,8|0,0:0|0:0,0:0:0:0:
41,162,18250,2,0,L|156:175,1,90,2|2,0:0|0:0,0:0:0:0:
92,222,18558,2,0,L|160:217,1,45,0|8,0:0|0:0,0:0:0:0:
388,183,18866,2,0,L|333:172,1,45
452,139,19072,6,0,P|474:203|466:273,1,135,4|0,0:3|0:0,0:0:0:0:
290,282,19482,2,0,P|268:218|276:148,1,135,8|0,0:0|0:0,0:0:0:0:
216,33,19893,1,0,0:0:0:0:
171,14,19996,2,0,L|34:22,1,135,8|8,0:0|0:0,0:0:0:0:
28,280,20510,2,0,L|50:223,1,45,2|8,0:1|0:0,0:0:0:0:
146,164,20715,6,0,L|264:178,1,90,4|0,0:0|0:0,0:0:0:0:
253,287,21024,1,0,0:0:0:0:
296,310,21126,2,0,P|347:306|396:271,1,90,8|0,0:0|0:0,0:0:0:0:
438,189,21435,1,0,0:0:0:0:
400,200,21537,2,0,L|375:303,1,90,2|2,0:0|0:0,0:0:0:0:
448,324,21846,2,0,L|462:375,1,45,0|8,0:0|0:0,0:0:0:0:
474,110,22154,2,0,L|460:59,1,45
373,32,22359,6,0,L|400:127,1,90,4|0,0:3|0:0,0:0:0:0:
318,226,22667,1,0,0:0:0:0:
271,244,22770,2,0,P|229:247|160:233,1,90,8|2,0:0|0:0,0:0:0:0:
114,139,23078,1,0,0:0:0:0:
79,119,23181,2,0,L|17:112,1,45,0|0,0:0|0:0,0:0:0:0:
145,269,23489,1,0,0:0:0:0:
100,252,23592,2,0,P|61:313|107:366,1,135,8|0,0:0|0:0,0:0:0:0:
222,353,24003,6,0,L|133:355,1,90,4|0,0:0|0:0,0:0:0:0:
311,357,24311,1,0,0:0:0:0:
344,314,24414,2,0,L|254:315,1,90,8|0,0:0|0:0,0:0:0:0:
473,313,24722,1,0,0:0:0:0:
454,262,24825,2,0,L|364:263,1,90,2|2,0:0|0:0,0:0:0:0:
91,204,25236,1,8,0:0:0:0:
269,19,25441,2,0,L|261:77,1,45
180,167,25647,6,0,L|269:173,1,90,4|0,0:3|0:0,0:0:0:0:
438,48,26058,2,0,L|334:55,1,90,8|0,0:0|0:0,0:0:0:0:
416,284,26469,1,0,0:0:0:0:
454,354,26572,2,0,L|441:264,1,90,8|0,0:0|0:0,0:0:0:0:
343,244,26880,2,0,L|353:154,1,90,8|10,0:0|0:0,0:0:0:0:
252,249,27188,1,8,0:0:0:0:
183,297,27291,6,0,P|139:316|83:324,1,90,4|0,0:0|0:0,0:0:0:0:
40,195,27599,1,0,0:0:0:0:
75,230,27702,2,0,P|116:248|160:256,1,90,8|0,0:0|0:0,0:0:0:0:
186,180,28010,1,0,0:0:0:0:
265,170,28113,1,2,0:0:0:0:
306,144,28215,1,0,0:0:0:0:
329,101,28318,1,2,0:0:0:0:
328,53,28421,1,0,0:0:0:0:
302,11,28524,2,0,L|203:26,1,90,8|0,0:0|0:0,0:0:0:0:
75,230,28935,6,0,P|33:177|38:107,1,135,4|0,0:3|0:0,0:0:0:0:
112,69,29345,2,0,L|250:80,1,135,8|0,0:0|0:0,0:0:0:0:
307,145,29756,1,0,0:0:0:0:
346,220,29859,2,0,L|454:206,1,90
455,127,30167,1,8,0:0:0:0:
141,161,30373,2,0,L|170:209,1,45,2|0,0:0|0:0,0:0:0:0:
94,351,30578,6,0,P|124:319|141:278,1,90,4|0,0:0|0:0,0:0:0:0:
167,131,30887,1,0,0:0:0:0:
141,162,30989,2,0,L|31:174,1,90,8|0,0:0|0:0,0:0:0:0:
100,49,31298,2,0,L|78:104,1,45,0|0,0:0|0:0,0:0:0:0:
165,87,31503,2,0,L|265:92,1,90
330,56,31811,2,0,P|361:27|424:29,1,90,8|2,0:0|0:0,0:0:0:0:
484,57,32119,1,0,0:0:0:0:
408,111,32222,5,4,0:3:0:0:
403,149,32325,2,0,L|419:254,1,90
408,326,32633,2,0,P|346:349|303:349,1,90,8|0,0:0|0:0,0:0:0:0:
4,229,33044,1,0,0:0:0:0:
37,211,33147,2,0,P|108:194|137:202,1,90,8|0,0:0|0:0,0:0:0:0:
208,155,33455,2,0,P|241:117|261:75,1,90,8|2,0:0|0:1,0:0:0:0:
317,20,33763,1,8,0:0:0:0:
395,44,33866,5,6,0:0:0:0:
379,70,33969,1,0,0:0:0:0:
363,96,34072,1,0,0:0:0:0:
348,124,34174,1,0,0:0:0:0:
407,193,34277,5,2,0:0:0:0:
390,220,34380,1,0,0:0:0:0:
374,247,34482,1,0,0:0:0:0:
355,272,34585,2,0,L|404:309,1,45,0|0,0:0|0:0,0:0:0:0:
233,277,34791,1,0,0:0:0:0:
233,277,34893,2,0,L|282:314,1,45
111,286,35099,1,2,0:0:0:0:
111,286,35201,2,0,L|160:323,1,45
82,49,35510,6,0,P|111:93|112:142,1,90,0|0,0:0|0:0,0:0:0:0:
34,117,35818,1,0,0:0:0:0:
34,117,35921,2,0,L|-3:169,1,45,2|0,0:0|0:0,0:0:0:0:
189,162,36126,2,0,L|226:110,1,45
111,286,36332,1,0,0:0:0:0:
79,286,36435,2,0,L|20:286,1,45
248,348,36640,1,0,0:0:0:0:
279,348,36743,2,0,L|326:348,1,45,2|0,0:0|0:0,0:0:0:0:
463,200,36948,1,0,0:0:0:0:
448,227,37051,1,0,0:0:0:0:
431,254,37154,6,0,L|457:319,1,45,6|0,0:0|0:0,0:0:0:0:
314,212,37359,2,0,L|331:254,1,45
196,166,37565,2,0,L|228:253,1,90,8|0,0:0|0:0,0:0:0:0:
227,250,37873,2,0,L|196:294,1,45
196,166,38078,2,0,L|226:121,1,45,2|0,0:0|0:0,0:0:0:0:
252,124,38284,1,2,0:0:0:0:
283,124,38387,2,0,L|316:79,1,45,8|0,0:0|0:0,0:0:0:0:
112,40,38592,1,0,0:0:0:0:
31,250,38798,6,0,L|98:184,1,90,2|0,0:0|0:0,0:0:0:0:
108,215,39106,1,0,0:0:0:0:
121,243,39209,2,0,L|147:297,1,45,8|0,0:0|0:0,0:0:0:0:
31,250,39414,2,0,L|12:205,1,45
140,285,39619,5,0,0:0:0:0:
112,298,39722,2,0,L|58:324,1,45,2|0,0:0|0:0,0:0:0:0:
14,207,39928,1,2,0:0:0:0:
42,194,40031,2,0,L|96:168,1,45,8|0,0:0|0:0,0:0:0:0:
195,171,40236,1,8,0:0:0:0:
240,190,40339,1,8,0:0:0:0:
284,210,40441,6,0,L|377:172,1,90,4|0,0:0|0:0,0:0:0:0:
397,186,40750,1,0,0:0:0:0:
426,197,40852,2,0,L|479:173,1,45,2|0,0:0|0:0,0:0:0:0:
414,51,41058,2,0,L|387:87,1,45
275,91,41263,2,0,L|248:54,1,45
173,167,41469,2,0,L|214:186,1,45
265,286,41674,1,2,0:0:0:0:
227,319,41777,1,0,0:0:0:0:
180,335,41880,1,0,0:0:0:0:
131,341,41982,1,0,0:0:0:0:
81,335,42085,6,0,P|56:263|74:216,1,90
136,227,42393,1,0,0:0:0:0:
136,227,42496,2,0,P|102:183|88:176,1,45,2|0,0:0|0:0,0:0:0:0:
142,81,42702,2,0,P|176:125|190:132,1,45
60,106,42907,1,0,0:0:0:0:
32,121,43010,2,0,L|32:188,1,45
223,187,43215,1,0,0:0:0:0:
251,172,43318,2,0,L|251:105,1,45,2|0,0:0|0:0,0:0:0:0:
408,36,43524,1,0,0:0:0:0:
380,50,43626,1,0,0:0:0:0:
352,65,43729,6,0,L|352:165,1,90,6|0,0:0|0:0,0:0:0:0:
371,179,44037,1,0,0:0:0:0:
392,200,44140,1,8,0:0:0:0:
440,336,44346,1,0,0:0:0:0:
459,360,44448,2,0,L|513:361,1,45
344,344,44654,2,0,L|240:346,1,90,2|2,0:0|0:0,0:0:0:0:
261,315,44962,2,0,L|184:315,1,45,8|0,0:0|0:0,0:0:0:0:
144,225,45167,2,0,L|221:225,1,45
61,254,45373,6,0,L|165:256,1,90,2|0,0:0|0:0,0:0:0:0:
289,180,45681,1,0,0:0:0:0:
313,159,45784,2,0,L|376:159,1,45,8|0,0:0|0:0,0:0:0:0:
206,59,45989,2,0,L|143:59,1,45
265,201,46195,1,0,0:0:0:0:
242,223,46298,2,0,L|170:223,1,45,2|0,0:0|0:0,0:0:0:0:
335,137,46503,1,2,0:0:0:0:
357,115,46606,2,0,L|428:115,1,45,8|0,0:0|0:0,0:0:0:0:
161,59,46811,1,8,0:0:0:0:
122,90,46914,1,8,0:0:0:0:
84,121,47017,5,6,0:0:0:0:
84,121,47119,2,0,L|55:229,1,90
137,349,47428,1,2,0:0:0:0:
137,349,47530,2,0,L|166:241,1,90
248,129,47839,1,0,0:0:0:0:
257,158,47941,1,0,0:0:0:0:
266,188,48044,1,0,0:0:0:0:
276,217,48147,1,0,0:0:0:0:
351,267,48250,5,2,0:0:0:0:
371,243,48352,1,0,0:0:0:0:
389,217,48455,1,0,0:0:0:0:
410,193,48558,1,0,0:0:0:0:
499,172,48661,6,0,P|473:124|430:106,1,90
433,18,48969,1,0,0:0:0:0:
433,18,49072,2,0,P|462:23|503:40,1,45,2|0,0:0|0:0,0:0:0:0:
355,129,49277,2,0,P|326:124|285:107,1,45
499,172,49482,1,0,0:0:0:0:
495,203,49585,2,0,P|484:235|453:273,1,45
292,192,49791,1,0,0:0:0:0:
296,161,49894,2,0,P|307:129|338:91,1,45,2|0,0:0|0:0,0:0:0:0:
400,302,50099,1,0,0:0:0:0:
377,324,50202,1,0,0:0:0:0:
352,342,50304,6,0,P|330:350|301:353,1,45,6|0,0:0|0:0,0:0:0:0:
202,313,50510,2,0,P|174:312|150:307,1,45
77,230,50715,1,8,0:0:0:0:
84,199,50818,2,0,P|141:180|198:197,1,90
90,166,51126,1,0,0:0:0:0:
96,135,51229,2,0,L|37:135,1,45,2|0,0:0|0:0,0:0:0:0:
103,104,51435,1,2,0:0:0:0:
109,73,51537,2,0,L|160:73,1,45,8|0,0:0|0:0,0:0:0:0:
267,58,51743,2,0,L|303:94,1,45
411,100,51948,6,0,L|412:209,1,90,2|0,0:0|0:0,0:0:0:0:
386,208,52256,1,0,0:0:0:0:
360,226,52359,1,8,0:0:0:0:
335,245,52462,1,0,0:0:0:0:
310,264,52565,2,0,L|310:187,1,45
267,58,52770,1,0,0:0:0:0:
245,81,52873,2,0,L|246:146,1,45,2|0,0:0|0:0,0:0:0:0:
220,145,53079,1,2,0:0:0:0:
194,162,53181,2,0,L|193:228,1,45,8|0,0:0|0:0,0:0:0:0:
74,274,53387,1,8,0:0:0:0:
110,306,53489,1,8,0:0:0:0:
147,338,53592,5,6,0:0:0:0:
172,319,53695,1,0,0:0:0:0:
197,300,53798,1,0,0:0:0:0:
222,281,53900,1,0,0:0:0:0:
310,301,54003,5,2,0:0:0:0:
335,282,54106,1,0,0:0:0:0:
360,263,54209,1,0,0:0:0:0:
385,244,54311,1,0,0:0:0:0:
476,248,54414,6,0,L|476:305,1,45
349,166,54619,2,0,L|349:107,1,45
461,143,54825,2,0,L|517:143,1,45,2|0,0:0|0:0,0:0:0:0:
375,268,55030,2,0,L|326:268,1,45
149,173,55236,6,0,P|170:107|235:76,1,135
230,160,55647,1,2,0:0:0:0:
199,235,55750,2,0,P|151:253|104:238,1,90
149,173,56058,1,0,0:0:0:0:
230,160,56161,2,0,P|266:195|270:203,1,45
199,235,56366,1,0,0:0:0:0:
149,173,56469,2,0,P|159:114|165:106,1,45,2|0,0:0|0:0,0:0:0:0:
216,80,56674,1,0,0:0:0:0:
243,64,56777,1,0,0:0:0:0:
269,46,56880,6,0,L|330:46,1,45,6|0,0:0|0:0,0:0:0:0:
455,119,57085,2,0,L|410:119,1,45
259,173,57291,1,8,0:0:0:0:
288,182,57393,2,0,P|332:209|343:277,1,90
266,258,57702,1,0,0:0:0:0:
266,258,57804,2,0,L|218:298,1,45,2|0,0:0|0:0,0:0:0:0:
428,231,58010,1,2,0:0:0:0:
428,231,58112,2,0,L|476:191,1,45,8|0,0:0|0:0,0:0:0:0:
369,358,58318,1,0,0:0:0:0:
146,334,58524,6,0,B|125:295|125:295|125:188,1,135,6|0,0:0|0:0,0:0:0:0:
181,146,58935,1,8,0:0:0:0:
207,162,59037,2,0,L|207:221,1,45
51,175,59243,2,0,L|50:115,1,45
179,38,59448,2,0,B|239:38|239:38|276:77,1,90,2|2,0:0|0:0,0:0:0:0:
295,93,59756,1,8,0:0:0:0:
330,127,59859,1,2,0:0:0:0:
366,160,59962,2,0,L|418:160,1,45,8|8,0:0|0:0,0:0:0:0:
455,267,60167,6,0,L|446:95,1,135,6|0,0:0|0:0,0:0:0:0:
333,192,60578,2,0,L|355:43,1,135,8|0,0:0|0:0,0:0:0:0:
209,156,60989,1,0,0:0:0:0:
187,127,61092,2,0,L|177:53,1,45,2|0,0:0|0:0,0:0:0:0:
114,22,61298,1,0,0:0:0:0:
79,49,61400,2,0,L|61:147,1,90,4|2,0:3|0:0,0:0:0:0:
134,349,61811,6,0,P|119:283|61:235,1,135
165,279,62222,1,8,0:0:0:0:
229,325,62325,2,0,L|328:330,1,90,2|0,0:0|0:0,0:0:0:0:
390,295,62633,1,0,0:0:0:0:
460,330,62736,2,0,P|357:316|379:171,1,270,2|0,0:0|0:0,0:0:0:0:
481,166,63455,6,0,L|385:156,1,90,4|0,0:0|0:0,0:0:0:0:
34,170,63866,2,0,L|128:153,1,90,8|0,0:0|0:0,0:0:0:0:
369,67,64277,2,0,P|315:103|252:84,2,135,8|8|8,0:0|0:0|0:0,0:0:0:0:
305,32,64996,1,0,0:0:0:0:
252,84,65099,6,0,L|226:217,1,135,2|0,0:0|0:0,0:0:0:0:
138,273,65510,2,0,P|121:209|130:113,1,135,8|0,0:0|0:0,0:0:0:0:
252,84,65921,2,0,L|162:58,1,90,0|2,0:0|0:0,0:0:0:0:
76,67,66229,1,0,0:0:0:0:
37,49,66332,2,0,L|41:97,1,45,10|0,0:0|0:0,0:0:0:0:
78,163,66537,2,0,L|69:219,1,45,10|8,0:0|0:0,0:0:0:0:
34,312,66743,6,0,P|83:288|132:288,1,90,4|0,0:0|0:0,0:0:0:0:
173,342,67051,2,0,L|224:350,1,45,0|8,0:0|0:0,0:0:0:0:
498,329,67359,1,2,0:0:0:0:
284,295,67565,2,0,L|380:287,1,90,8|0,0:0|0:0,0:0:0:0:
498,329,67873,2,0,L|356:308,1,135,8|10,0:0|0:0,0:0:0:0:
453,133,68387,6,0,L|438:238,1,90,8|0,0:0|0:0,0:0:0:0:
373,287,68695,2,0,L|284:295,1,90,8|0,0:0|0:0,0:0:0:0:
201,312,69003,2,0,L|157:283,1,45,2|0,0:0|0:0,0:0:0:0:
84,273,69209,2,0,P|72:202|93:109,2,135,8|8|8,0:0|0:0|0:0,0:0:0:0:
163,93,70030,5,4,0:0:0:0:
130,58,70133,1,0,0:0:0:0:
84,48,70236,2,0,L|30:53,1,45
210,165,70441,1,4,0:3:0:0:
246,135,70544,1,0,0:0:0:0:
293,128,70647,2,0,L|341:126,1,45,2|0,0:0|0:0,0:0:0:0:
432,322,70852,1,4,0:0:0:0:
392,347,70955,1,0,0:0:0:0:
343,347,71058,1,0,0:0:0:0:
304,322,71161,1,0,0:0:0:0:
288,277,71263,2,0,L|296:229,1,45,8|0,0:3|0:0,0:0:0:0:
466,197,71469,2,0,L|455:255,1,45,2|0,0:0|0:0,0:0:0:0:
411,70,71674,6,0,L|366:278,2,202.500007724762,12|8|8,0:0|0:0|0:0,0:0:0:0:
221,355,72496,1,8,0:0:0:0:
60,52,72907,2,0,P|127:98|50:125,1,202.500007724762,8|0,0:3|0:0,0:0:0:0:
166,85,73318,6,0,L|278:78,1,112.5,6|0,0:0|0:0,0:0:0:0:
407,115,73626,1,0,0:0:0:0:
386,149,73729,2,0,P|385:209|436:256,1,112.5,8|0,0:0|0:0,0:0:0:0:
212,315,74140,2,0,P|169:246|64:251,1,168.75,2|2,0:0|0:0,0:0:0:0:
67,326,74551,2,0,L|123:317,2,56.25,8|0|0,0:0|0:0|0:0,0:0:0:0:
344,315,74962,5,2,0:0:0:0:
320,346,75065,2,0,L|471:337,1,112.5
439,229,75373,1,8,0:0:0:0:
360,223,75476,2,0,L|236:216,1,112.5
173,221,75784,2,0,L|45:236,1,112.5,0|2,0:0|0:0,0:0:0:0:
120,153,76092,1,0,0:0:0:0:
56,114,76195,2,0,L|0:119,1,56.25,8|2,0:0|0:0,0:0:0:0:
228,93,76400,2,0,L|172:98,1,56.25,10|8,0:0|0:0,0:0:0:0:
299,132,76606,5,6,0:0:0:0:
383,353,76811,2,0,L|394:289,1,56.25
459,32,77017,2,0,P|427:93|378:133,1,112.5,8|0,0:0|0:0,0:0:0:0:
204,212,77428,1,2,0:0:0:0:
315,258,77530,2,0,L|197:250,1,112.5
128,295,77839,2,0,L|97:347,1,56.25,8|0,0:0|0:0,0:0:0:0:
94,135,78044,2,0,L|128:194,1,56.25
56,350,78250,5,2,0:0:0:0:
29,320,78352,2,0,L|39:257,1,56.25
62,147,78558,1,0,0:0:0:0:
62,108,78661,2,0,L|47:50,3,56.25,4|0|0|0,0:3|0:0|0:0|0:0,0:0:0:0:
162,85,79072,1,2,0:0:0:0:
180,120,79174,2,0,L|165:189,3,56.25,0|0|0|8,0:0|0:0|0:0|0:3,0:0:0:0:
200,248,79585,1,0,0:0:0:0:
262,298,79688,1,8,0:0:0:0:
341,310,79791,1,8,0:0:0:0:
414,284,79893,6,0,P|446:238|455:178,1,112.5,6|0,0:0|0:0,0:0:0:0:
425,87,80202,1,0,0:0:0:0:
410,56,80304,2,0,L|284:68,1,112.5,8|0,0:0|0:0,0:0:0:0:
60,41,80715,2,0,P|37:110|103:182,1,168.75,2|2,0:0|0:0,0:0:0:0:
223,94,81126,2,0,P|169:80|117:99,1,112.5,8|0,0:0|0:0,0:0:0:0:
156,301,81537,5,2,0:0:0:0:
179,276,81640,2,0,L|174:160,1,112.5
16,209,81948,1,8,0:0:0:0:
32,245,82051,2,0,L|18:371,1,112.5
177,331,82359,2,0,P|152:277|81:245,2,112.5,0|0|8,0:0|0:0|0:0,0:0:0:0:
20,357,82976,1,2,0:0:0:0:
321,360,83181,6,0,L|481:372,1,112.5,6|0,0:0|0:0,0:0:0:0:
433,15,83592,2,0,L|321:24,1,112.5,8|0,0:0|0:0,0:0:0:0:
370,277,84003,1,0,0:0:0:0:
479,230,84106,2,0,L|366:238,1,112.5,0|2,0:0|0:0,0:0:0:0:
291,206,84414,1,8,0:0:0:0:
221,246,84517,2,0,L|191:299,2,56.25,2|2|0,0:0|0:0|0:0,0:0:0:0:
220,169,84825,6,0,P|185:100|198:35,1,135.000005149842,4|0,0:0|0:0,0:0:0:0:
430,204,85236,2,0,P|465:273|452:338,1,135.000005149842,4|0,0:3|0:0,0:0:0:0:
36,137,85647,2,0,P|40:59|83:9,1,135.000005149842,4|0,0:0|0:0,0:0:0:0:
458,328,86058,1,8,0:3:0:0:
80,344,86263,2,0,P|46:322|23:293,1,67.5000025749208,2|10,0:1|0:0,0:0:0:0:
179,356,86469,5,4,0:0:0:0:
232,219,93044,5,4,0:0:0:0:
73,146,99619,5,2,0:0:0:0:
73,146,99722,1,0,0:0:0:0:
73,146,99825,2,0,L|81:191,1,33.7500012874604
162,198,100030,1,2,0:0:0:0:
162,198,100133,1,0,0:0:0:0:
162,198,100236,2,0,L|154:243,1,33.7500012874604
243,151,100441,5,2,0:0:0:0:
243,151,100544,1,0,0:0:0:0:
243,151,100647,2,0,L|251:196,1,33.7500012874604
332,203,100852,1,2,0:0:0:0:
332,203,100955,1,0,0:0:0:0:
332,203,101058,2,0,L|324:248,1,33.7500012874604
420,160,101263,6,0,L|405:85,1,67.5000025749208,2|0,0:0|0:0,0:0:0:0:
416,257,101674,2,0,L|393:320,1,67.5000025749208,0|0,0:0|0:0,0:0:0:0:
178,289,102085,1,0,0:0:0:0:
211,267,102188,2,0,P|246:264|286:267,1,67.5000025749208,2|0,0:0|0:0,0:0:0:0:
324,293,102496,1,10,0:0:0:0:
90,335,102702,1,2,0:0:0:0:
61,91,102907,6,0,P|60:160|136:227,1,168.75,6|0,0:0|0:0,0:0:0:0:
136,116,103318,2,0,L|247:99,1,112.5,8|0,0:0|0:0,0:0:0:0:
310,51,103626,1,0,0:0:0:0:
485,134,103832,2,0,P|445:67|373:97,1,168.75,2|8,0:0|0:0,0:0:0:0:
373,97,104346,1,0,0:0:0:0:
454,213,104551,6,0,P|437:308|379:350,1,168.75
282,344,104962,2,0,L|159:337,1,112.5,8|0,0:0|0:0,0:0:0:0:
79,328,105270,1,0,0:0:0:0:
150,155,105476,2,0,L|192:318,1,168.75,2|8,0:0|0:0,0:0:0:0:
66,185,105989,2,0,L|46:113,1,56.25,8|8,0:0|0:0,0:0:0:0:
99,253,106195,5,2,0:0:0:0:
99,253,106298,1,0,0:0:0:0:
99,253,106400,2,0,L|54:259,1,33.7500012874604
151,155,106606,1,2,0:0:0:0:
151,155,106709,1,0,0:0:0:0:
151,155,106811,2,0,L|196:161,1,33.7500012874604
326,264,107017,5,2,0:0:0:0:
326,264,107120,1,0,0:0:0:0:
326,264,107222,2,0,L|281:270,1,33.7500012874604
378,166,107428,1,2,0:0:0:0:
378,166,107531,1,0,0:0:0:0:
378,166,107633,2,0,L|423:172,1,33.7500012874604
240,359,107839,6,0,P|203:303|203:236,1,135.000005149842,2|0,0:0|0:0,0:0:0:0:
305,27,108661,1,0,0:0:0:0:
270,59,108763,2,0,P|257:92|250:151,1,67.5000025749208,2|0,0:0|0:0,0:0:0:0:
270,167,109072,1,10,0:0:0:0:
467,143,109277,1,2,0:0:0:0:
230,35,109482,6,0,B|105:26|105:26|45:39,1,168.75,4|0,0:0|0:0,0:0:0:0:
27,117,109893,2,0,L|141:105,1,112.5,8|0,0:0|0:0,0:0:0:0:
221,117,110202,1,0,0:0:0:0:
137,338,110407,2,0,P|82:285|82:167,1,168.75,2|8,0:0|0:0,0:0:0:0:
230,196,110921,2,0,L|184:228,1,56.25
293,248,111126,6,0,P|384:243|475:269,1,168.75
480,340,111537,2,0,L|368:326,1,112.5,8|0,0:0|0:0,0:0:0:0:
288,327,111845,1,0,0:0:0:0:
458,261,112051,2,0,P|376:242|293:248,1,168.75,2|8,0:0|0:0,0:0:0:0:
468,180,112565,2,0,L|471:123,1,56.25,8|8,0:0|0:0,0:0:0:0:
377,19,112770,6,0,L|386:67,1,33.7500012874604,2|0,0:0|0:0,0:0:0:0:
311,67,112976,2,0,L|222:56,2,67.5000025749208,0|2|0,0:0|0:0|0:0,0:0:0:0:
298,138,113489,1,0,0:0:0:0:
325,206,113592,2,0,L|319:253,3,33.7500012874604,2|0|0|0,0:0|0:0|0:0|0:0,0:0:0:0:
252,265,114003,2,0,L|257:317,3,33.7500012874604,2|0|0|0,0:0|0:0|0:0|0:0,0:0:0:0:
209,359,114414,6,0,P|132:338|110:306,1,101.250003862381,2|0,0:0|0:0,0:0:0:0:
33,287,114825,2,0,P|89:230|128:227,1,101.250003862381
181,168,115236,1,0,0:0:0:0:
181,168,115339,2,0,P|220:165|258:137,1,67.5000025749208,2|0,0:0|0:0,0:0:0:0:
384,173,115647,2,0,P|362:140|318:121,1,67.5000025749208,10|2,0:0|0:0,0:0:0:0:
146,208,116058,6,0,L|315:197,1,168.75,4|0,0:0|0:0,0:0:0:0:
464,142,116469,2,0,P|463:203|445:256,1,112.5,8|0,0:0|0:0,0:0:0:0:
374,292,116777,1,0,0:0:0:0:
240,21,116982,2,0,P|206:83|214:143,1,112.5,2|0,0:0|0:0,0:0:0:0:
315,245,117291,2,0,P|312:189|282:142,1,112.5,8|0,0:0|0:0,0:0:0:0:
215,337,117702,6,0,B|84:353|84:353|48:345,1,168.75
144,202,118113,2,0,P|116:249|64:265,1,112.5,8|0,0:0|0:0,0:0:0:0:
62,178,118421,1,0,0:0:0:0:
343,138,118626,2,0,P|292:159|238:151,1,112.5,2|0,0:0|0:0,0:0:0:0:
280,67,118935,1,8,0:0:0:0:
454,226,119140,2,0,L|467:289,1,56.25,8|8,0:0|0:0,0:0:0:0:
371,277,119345,5,2,0:0:0:0:
371,277,119448,1,0,0:0:0:0:
371,277,119551,2,0,L|283:291,1,67.5000025749208,0|2,0:0|0:0,0:0:0:0:
93,271,119962,2,0,L|83:321,1,33.7500012874604
164,301,120167,1,2,0:0:0:0:
164,301,120270,2,0,L|244:280,1,67.5000025749208
196,211,120578,2,0,L|217:147,1,67.5000025749208,2|0,0:0|0:0,0:0:0:0:
342,123,120887,1,0,0:0:0:0:
367,148,120989,6,0,P|387:206|363:289,1,135.000005149842,2|0,0:0|0:0,0:0:0:0:
42,206,121811,1,0,0:0:0:0:
36,170,121914,2,0,L|52:103,1,67.5000025749208,2|0,0:0|0:0,0:0:0:0:
65,235,122222,2,0,L|74:315,1,67.5000025749208,10|2,0:0|0:0,0:0:0:0:
290,336,122633,6,0,P|357:289|374:209,1,168.75,4|0,0:0|0:0,0:0:0:0:
220,125,123044,2,0,P|192:172|193:228,1,112.5,8|0,0:0|0:0,0:0:0:0:
219,300,123352,1,0,0:0:0:0:
456,261,123558,2,0,L|439:143,1,112.5,2|0,0:0|0:0,0:0:0:0:
337,184,123866,2,0,L|320:66,1,112.5,8|0,0:0|0:0,0:0:0:0:
96,286,124277,5,12,0:0:0:0:
113,313,124379,1,0,0:0:0:0:
139,332,124482,1,2,0:0:0:0:
170,341,124585,1,0,0:0:0:0:
202,339,124688,1,8,0:0:0:0:
231,327,124790,1,0,0:0:0:0:
255,305,124893,1,2,0:0:0:0:
270,277,124996,1,0,0:0:0:0:
274,241,125099,5,8,0:0:0:0:
234,240,125201,1,0,0:0:0:0:
197,224,125304,1,2,0:0:0:0:
171,194,125407,1,0,0:0:0:0:
158,156,125509,1,10,0:0:0:0:
162,117,125612,1,0,0:0:0:0:
182,82,125715,1,2,0:1:0:0:
214,58,125818,1,0,0:0:0:0:
251,47,125921,5,6,0:0:0:0:
105,72,126126,1,2,0:0:0:0:
89,99,126229,1,0,0:0:0:0:
71,125,126332,2,0,L|70:189,1,45,8|0,0:0|0:0,0:0:0:0:
171,239,126537,2,0,L|171:194,1,45
93,295,126743,1,0,0:0:0:0:
67,312,126845,2,0,L|15:312,1,45,0|2,0:0|0:0,0:0:0:0:
216,346,127051,1,0,0:0:0:0:
190,364,127153,2,0,L|138:364,1,45,4|0,0:3|0:0,0:0:0:0:
340,384,127359,2,0,L|281:384,1,45,2|0,0:0|0:0,0:0:0:0:
445,329,127565,5,0,0:0:0:0:
421,349,127667,2,0,L|322:348,1,90
235,250,127976,1,8,0:0:0:0:
259,230,128078,2,0,L|339:230,2,45
102,202,128387,1,0,0:0:0:0:
126,181,128490,1,0,0:0:0:0:
149,160,128592,1,2,0:0:0:0:
152,128,128695,1,0,0:0:0:0:
152,96,128798,2,0,L|152:37,1,45,8|0,0:3|0:0,0:0:0:0:
332,38,129003,1,2,0:0:0:0:
356,57,129106,1,0,0:0:0:0:
381,76,129209,6,0,L|382:192,1,90,4|2,0:0|0:0,0:0:0:0:
353,179,129517,1,0,0:0:0:0:
326,195,129619,2,0,L|327:266,1,45,8|0,0:0|0:0,0:0:0:0:
440,240,129825,2,0,L|440:296,1,45
382,363,130030,5,0,0:0:0:0:
336,363,130133,1,0,0:0:0:0:
290,363,130236,1,2,0:0:0:0:
244,362,130339,1,0,0:0:0:0:
199,362,130441,2,0,L|176:300,1,45,8|0,0:0|0:0,0:0:0:0:
206,162,130647,2,0,L|229:224,1,45,2|0,0:0|0:0,0:0:0:0:
145,342,130852,6,0,L|110:244,1,90,0|2,0:0|0:0,0:0:0:0:
106,226,131161,1,0,0:0:0:0:
97,195,131263,1,8,0:0:0:0:
94,163,131366,1,0,0:0:0:0:
97,131,131469,1,0,0:0:0:0:
107,101,131572,1,0,0:0:0:0:
126,76,131674,1,0,0:0:0:0:
126,76,131777,2,0,P|146:50|188:32,1,45,0|2,0:0|0:0,0:0:0:0:
262,83,131982,1,0,0:0:0:0:
262,83,132085,2,0,P|289:65|335:62,1,45,8|0,0:0|0:0,0:0:0:0:
396,125,132291,2,0,P|428:117|471:131,1,45,10|8,0:0|0:0,0:0:0:0:
440,119,132496,6,0,P|390:153|382:202,1,90,4|0,0:0|0:0,0:0:0:0:
461,197,132804,1,0,0:0:0:0:
461,197,132907,2,0,P|505:160|512:137,1,45,8|0,0:0|0:0,0:0:0:0:
301,197,133113,2,0,P|310:219|350:254,1,45,2|0,0:0|0:0,0:0:0:0:
379,64,133318,1,0,0:0:0:0:
351,48,133421,2,0,L|294:58,1,45
275,53,133626,1,0,0:0:0:0:
244,46,133729,2,0,P|196:75|181:89,1,45,8|0,0:0|0:0,0:0:0:0:
87,212,133935,2,0,P|135:183|150:169,1,45,2|0,0:0|0:0,0:0:0:0:
204,68,134140,6,0,L|213:144,1,45,0|0,0:0|0:0,0:0:0:0:
87,212,134346,2,0,L|100:291,1,45
183,308,134551,2,0,L|196:387,1,45,8|0,0:0|0:0,0:0:0:0:
272,228,134756,2,0,L|280:303,1,45,2|0,0:0|0:0,0:0:0:0:
87,212,134962,1,0,0:0:0:0:
87,212,135065,2,0,P|135:183|150:169,1,45
272,228,135270,1,0,0:0:0:0:
272,228,135373,2,0,L|318:206,1,45,8|0,0:0|0:0,0:0:0:0:
461,240,135578,1,2,0:0:0:0:
461,240,135681,1,0,0:0:0:0:
461,240,135784,6,0,P|448:311|376:299,1,135,4|0,0:0|0:0,0:0:0:0:
461,240,136195,1,4,0:3:0:0:
430,231,136298,1,0,0:0:0:0:
404,212,136400,1,2,0:0:0:0:
389,183,136503,1,0,0:0:0:0:
385,151,136606,1,4,0:0:0:0:
385,151,136709,2,0,P|393:100|399:89,1,45
277,95,136914,1,0,0:0:0:0:
277,95,137017,2,0,P|301:49|311:41,1,45,8|0,0:3|0:0,0:0:0:0:
162,57,137222,2,0,P|200:23|212:18,1,45,2|0,0:0|0:0,0:0:0:0:
0,119,137428,6,0,P|9:162|40:195,1,90,12|0,0:0|0:0,0:0:0:0:
169,268,137736,2,0,P|147:306|108:328,1,90,8|0,0:0|0:0,0:0:0:0:
343,274,138044,2,0,L|295:240,1,45,8|0,0:0|0:0,0:0:0:0:
119,117,138250,1,8,0:0:0:0:
119,117,138661,2,0,P|45:80|60:160,1,202.500007724762,8|0,0:3|0:0,0:0:0:0:
79,236,139072,5,6,0:0:0:0:
232,327,139277,1,0,0:0:0:0:
271,324,139380,1,0,0:0:0:0:
309,319,139482,2,0,L|343:262,1,56.25,8|0,0:0|0:0,0:0:0:0:
442,246,139688,2,0,L|472:183,1,56.25,2|0,0:0|0:0,0:0:0:0:
408,59,139893,1,0,0:0:0:0:
345,58,139996,1,0,0:0:0:0:
321,115,140099,1,0,0:0:0:0:
298,172,140202,1,0,0:0:0:0:
270,226,140304,2,0,L|201:226,1,56.25,8|0,0:0|0:0,0:0:0:0:
108,130,140510,2,0,L|175:130,1,56.25,2|0,0:0|0:0,0:0:0:0:
270,226,140715,5,0,0:0:0:0:
243,282,140818,2,0,B|223:313|223:313|117:313,1,112.5,2|0,0:0|0:0,0:0:0:0:
59,243,141126,2,0,L|59:177,1,56.25,8|0,0:0|0:0,0:0:0:0:
161,138,141332,2,0,L|161:65,1,56.25,2|0,0:0|0:0,0:0:0:0:
265,37,141537,1,0,0:0:0:0:
300,55,141640,1,0,0:0:0:0:
333,75,141743,1,0,0:0:0:0:
368,91,141846,1,0,0:0:0:0:
402,109,141948,1,8,0:0:0:0:
305,311,142154,1,10,0:0:0:0:
340,327,142257,1,0,0:0:0:0:
374,345,142359,6,0,B|421:346|421:346|468:287,1,112.5,6|0,0:0|0:0,0:0:0:0:
423,212,142667,1,0,0:0:0:0:
423,212,142770,2,0,L|355:212,1,56.25,8|0,0:0|0:0,0:0:0:0:
270,150,142976,2,0,L|209:151,1,56.25,2|0,0:0|0:0,0:0:0:0:
363,239,143181,1,0,0:0:0:0:
363,239,143284,2,0,L|420:239,1,56.25
210,177,143489,1,0,0:0:0:0:
210,177,143592,2,0,L|267:177,1,56.25,8|0,0:0|0:0,0:0:0:0:
63,112,143798,2,0,L|132:111,1,56.25,2|0,0:0|0:0,0:0:0:0:
140,337,144003,6,0,P|77:328|116:242,1,168.75,2|0,0:0|0:0,0:0:0:0:
140,337,144414,2,0,L|217:338,1,56.25,4|0,0:3|0:0,0:0:0:0:
96,245,144619,2,0,L|167:246,1,56.25
372,337,144825,2,0,P|435:328|396:242,1,168.75,2|0,0:0|0:0,0:0:0:0:
372,337,145236,2,0,L|295:338,1,56.25,8|0,0:3|0:0,0:0:0:0:
415,245,145441,2,0,L|345:246,1,56.25,2|2,0:0|0:0,0:0:0:0:
181,155,145647,6,0,P|211:94|265:73,1,112.5,4|0,0:0|0:0,0:0:0:0:
287,67,145955,1,0,0:0:0:0:
326,68,146058,1,8,0:0:0:0:
363,79,146161,1,0,0:0:0:0:
396,98,146263,1,2,0:0:0:0:
419,129,146366,1,0,0:0:0:0:
437,163,146469,1,0,0:0:0:0:
437,163,146572,2,0,P|410:215|346:238,1,112.5,2|0,0:0|0:0,0:0:0:0:
286,284,146880,2,0,P|333:328|353:330,1,56.25,8|0,0:0|0:0,0:0:0:0:
235,215,147085,2,0,P|260:202|288:198,1,56.25,2|0,0:0|0:0,0:0:0:0:
201,296,147291,5,0,0:0:0:0:
201,296,147393,2,0,P|163:266|156:188,1,112.5,2|0,0:0|0:0,0:0:0:0:
201,296,147702,1,8,0:0:0:0:
139,295,147804,1,0,0:0:0:0:
83,268,147907,1,2,0:0:0:0:
47,217,148010,1,0,0:0:0:0:
24,159,148113,1,0,0:0:0:0:
24,159,148215,2,0,L|102:159,1,56.25
258,66,148421,1,0,0:0:0:0:
258,66,148523,2,0,L|180:66,1,56.25,8|0,0:0|0:0,0:0:0:0:
341,32,148729,2,0,L|275:32,1,56.25,2|0,0:0|0:0,0:0:0:0:
114,183,148935,6,0,L|210:183,1,56.25,6|0,0:0|0:0,0:0:0:0:
333,137,149140,1,0,0:0:0:0:
131,335,149346,2,0,L|68:335,1,56.25,8|0,0:0|0:0,0:0:0:0:
114,183,149551,2,0,L|210:183,1,56.25,2|0,0:0|0:0,0:0:0:0:
344,275,149756,1,0,0:0:0:0:
322,307,149859,2,0,B|300:337|300:337|218:337,1,112.5,2|0,0:0|0:0,0:0:0:0:
306,166,150167,1,8,0:0:0:0:
333,137,150270,2,0,L|405:137,2,56.25,2|0|0,0:0|0:0|0:0,0:0:0:0:
201,217,150578,5,4,0:0:0:0:
138,217,150681,1,0,0:0:0:0:
104,164,150784,1,2,0:0:0:0:
76,108,150887,1,0,0:0:0:0:
113,2,150989,5,4,0:3:0:0:
176,2,151092,1,0,0:0:0:0:
210,55,151195,1,2,0:0:0:0:
238,111,151298,1,0,0:0:0:0:
315,194,151400,6,0,L|394:194,1,56.25,4|0,0:0|0:0,0:0:0:0:
365,52,151606,2,0,L|336:100,1,56.25,2|0,0:0|0:0,0:0:0:0:
456,166,151811,2,0,L|426:110,2,56.25,10|0|2,0:3|0:0|0:1,0:0:0:0:
230,338,152222,6,0,B|174:339|174:339|123:259,1,112.5,6|0,0:0|0:0,0:0:0:0:
127,255,152530,1,0,0:0:0:0:
111,218,152633,2,0,L|45:217,1,56.25,8|0,0:0|0:0,0:0:0:0:
219,104,152839,2,0,L|283:104,1,56.25,2|0,0:0|0:0,0:0:0:0:
138,205,153044,1,0,0:0:0:0:
138,205,153147,2,0,L|72:204,1,56.25
246,91,153352,1,0,0:0:0:0:
246,91,153455,2,0,L|310:91,1,56.25,8|0,0:0|0:0,0:0:0:0:
77,56,153661,1,2,0:0:0:0:
259,340,153866,5,0,0:0:0:0:
298,341,153969,2,0,B|348:341|348:341|396:293,1,112.5,2|0,0:0|0:0,0:0:0:0:
478,322,154277,2,0,L|433:370,1,56.25,8|0,0:0|0:0,0:0:0:0:
361,213,154482,2,0,L|316:261,1,56.25,2|0,0:0|0:0,0:0:0:0:
464,235,154688,1,0,0:0:0:0:
464,235,154791,2,0,L|506:188,1,56.25
310,145,154996,1,0,0:0:0:0:
310,145,155099,2,0,L|352:98,1,56.25,8|0,0:0|0:0,0:0:0:0:
157,57,155304,2,0,L|199:10,1,56.25,10|0,0:0|0:0,0:0:0:0:
72,81,155510,6,0,L|10:68,1,56.25,4|0,0:0|0:0,0:0:0:0:
134,145,155715,2,0,L|153:204,1,56.25
77,286,155921,1,8,0:0:0:0:
98,318,156024,1,0,0:0:0:0:
137,318,156126,1,2,0:0:0:0:
176,318,156229,1,0,0:0:0:0:
238,319,156332,5,0,0:0:0:0:
289,285,156435,1,0,0:0:0:0:
341,252,156537,1,0,0:0:0:0:
393,219,156640,1,0,0:0:0:0:
444,183,156743,2,0,B|481:158|481:158|481:71,1,112.5,10|2,0:0|0:0,0:0:0:0:
320,37,157051,1,0,0:0:0:0:
320,37,157154,6,0,B|320:95|320:95|280:137|280:137|280:200,1,168.75,2|0,0:0|0:0,0:0:0:0:
320,37,157565,2,0,L|386:37,1,56.25,4|0,0:3|0:0,0:0:0:0:
280,189,157770,2,0,L|200:190,1,56.25
185,342,157976,6,0,B|185:284|185:284|225:242|225:242|225:179,1,168.75,2|0,0:0|0:0,0:0:0:0:
185,342,158387,2,0,L|119:342,1,56.25,8|0,0:3|0:0,0:0:0:0:
225,189,158592,2,0,L|305:188,1,56.25,8|8,0:0|0:0,0:0:0:0:
96,261,158798,6,0,B|54:262|54:262|21:181,1,112.5,6|0,0:0|0:0,0:0:0:0:
15,159,159106,1,0,0:0:0:0:
28,121,159209,1,8,0:0:0:0:
42,84,159311,1,0,0:0:0:0:
81,84,159414,1,2,0:0:0:0:
120,85,159517,1,0,0:0:0:0:
159,87,159619,1,0,0:0:0:0:
159,87,159722,2,0,L|135:167,1,56.25
292,55,159928,1,0,0:0:0:0:
292,55,160031,2,0,L|268:135,1,56.25,8|0,0:0|0:0,0:0:0:0:
422,24,160236,2,0,L|405:92,1,56.25,2|0,0:0|0:0,0:0:0:0:
142,140,160441,5,0,0:0:0:0:
142,140,160544,2,0,P|175:215|249:225,1,112.5,2|0,0:0|0:0,0:0:0:0:
152,304,160852,2,0,P|218:315|241:308,1,56.25,8|0,0:0|0:0,0:0:0:0:
256,153,161058,2,0,P|283:217|279:228,1,56.25,2|0,0:0|0:0,0:0:0:0:
330,361,161263,1,0,0:0:0:0:
392,362,161366,1,0,0:0:0:0:
435,317,161469,1,0,0:0:0:0:
392,271,161572,1,0,0:0:0:0:
330,269,161674,2,0,L|203:269,1,112.5,10|10,0:0|0:0,0:0:0:0:
339,241,161982,1,0,0:0:0:0:
339,241,162085,6,0,L|209:240,1,112.5,6|0,0:0|0:0,0:0:0:0:
164,239,162393,1,0,0:0:0:0:
101,237,162496,1,8,0:0:0:0:
75,180,162599,1,0,0:0:0:0:
105,125,162702,1,2,0:0:0:0:
166,125,162804,1,0,0:0:0:0:
228,126,162907,1,0,0:0:0:0:
228,126,163010,2,0,L|302:126,1,56.25
456,61,163215,1,0,0:0:0:0:
456,61,163318,2,0,L|399:61,1,56.25,8|0,0:0|0:0,0:0:0:0:
381,173,163524,1,2,0:0:0:0:
408,200,163626,1,0,0:0:0:0:
438,224,163729,5,4,0:0:0:0:
408,279,163832,1,0,0:0:0:0:
345,284,163935,1,2,0:0:0:0:
283,283,164038,1,0,0:0:0:0:
185,340,164140,5,4,0:3:0:0:
130,310,164243,1,0,0:0:0:0:
124,247,164346,1,2,0:0:0:0:
126,185,164449,1,0,0:0:0:0:
212,115,164551,6,0,L|212:194,1,56.25,4|0,0:0|0:0,0:0:0:0:
354,165,164757,2,0,L|306:136,1,56.25,2|0,0:0|0:0,0:0:0:0:
240,256,164962,2,0,L|296:226,2,56.25,8|0|2,0:3|0:0|0:0,0:0:0:0:
419,343,165373,5,6,0:0:0:0:
426,327,165476,1,0,0:0:0:0:
430,310,165578,2,0,L|424:256,1,45
348,243,165784,1,2,0:0:0:0:
355,227,165887,1,0,0:0:0:0:
359,210,165989,2,0,L|353:156,1,45
423,58,166195,5,2,0:0:0:0:
430,74,166298,1,0,0:0:0:0:
434,91,166400,2,0,L|428:145,1,45
292,29,166606,1,2,0:0:0:0:
299,45,166709,1,0,0:0:0:0:
303,62,166811,2,0,L|297:116,1,45
207,99,167017,6,0,L|111:86,1,90,2|0,0:0|0:0,0:0:0:0:
10,153,167325,1,0,0:0:0:0:
4,175,167428,1,2,0:0:0:0:
0,194,167530,2,0,L|96:181,1,90
75,261,167839,1,2,0:0:0:0:
75,261,167941,2,0,L|69:315,1,45
156,240,168147,1,0,0:0:0:0:
156,241,168250,2,0,P|179:287|219:320,1,90,2|0,0:0|0:0,0:0:0:0:
429,342,168661,6,0,L|291:332,1,135,6|8,0:0|0:0,0:0:0:0:
298,236,169072,1,2,0:0:0:0:
322,257,169174,2,0,L|413:243,1,90
463,161,169482,1,2,0:0:0:0:
468,129,169585,1,0,0:0:0:0:
462,97,169688,1,0,0:0:0:0:
442,72,169791,1,0,0:0:0:0:
414,56,169893,2,0,L|365:52,1,45,2|0,0:0|0:0,0:0:0:0:
304,101,170099,2,0,L|244:109,1,45
160,230,170304,6,0,L|166:284,1,45,6|0,0:0|0:0,0:0:0:0:
29,188,170510,1,0,0:0:0:0:
39,158,170613,1,8,0:0:0:0:
60,135,170715,1,2,0:0:0:0:
90,124,170818,2,0,L|193:141,1,90,8|0,0:0|0:0,0:0:0:0:
248,201,171126,1,2,0:0:0:0:
336,195,171229,2,0,L|383:191,2,45,0|0|0,0:0|0:0|0:0,0:0:0:0:
256,228,171537,1,2,0:0:0:0:
249,258,171640,1,0,0:0:0:0:
239,288,171743,1,2,0:0:0:0:
230,318,171846,1,0,0:0:0:0:
219,347,171948,6,0,L|209:253,1,90,6|0,0:0|0:0,0:0:0:0:
336,195,172256,2,0,L|330:249,1,45,10|0,0:0|0:0,0:0:0:0:
256,174,172462,1,8,0:0:0:0:
246,143,172565,1,0,0:0:0:0:
234,113,172668,1,8,0:0:0:0:
224,83,172770,2,0,L|222:37,1,45,2|0,0:0|0:0,0:0:0:0:
315,20,172976,2,0,L|309:74,1,45,2|0,0:0|0:0,0:0:0:0:
336,195,173181,2,0,L|351:293,1,90,2|0,0:0|0:0,0:0:0:0:
470,357,173489,1,2,0:0:0:0:
439,348,173592,5,6,0:0:0:0:
425,319,173695,2,0,L|434:218,1,90,2|8,0:0|0:0,0:0:0:0:
456,69,174003,2,0,L|466:124,2,45,2|0|0,0:0|0:0|0:0,0:0:0:0:
343,35,174311,1,0,0:0:0:0:
315,20,174414,1,0,0:0:0:0:
283,15,174517,2,0,L|359:63,1,90,10|0,0:0|0:0,0:0:0:0:
276,112,174825,1,0,0:0:0:0:
244,109,174928,1,0,0:0:0:0:
217,92,175030,2,0,P|178:77|116:77,1,90,2|6,0:0|0:0,0:0:0:0:
55,133,175339,6,0,L|43:186,2,45,2|0|0,0:0|0:0|0:0,0:0:0:0:
137,166,175647,1,2,0:0:0:0:
139,198,175750,2,0,L|143:258,2,45,10|0|0,0:0|0:0|0:0,0:0:0:0:
231,225,176058,2,0,L|260:270,1,45,6|0,0:0|0:0,0:0:0:0:
341,219,176263,2,0,L|392:232,1,45,2|0,0:0|0:0,0:0:0:0:
413,140,176469,1,0,0:0:0:0:
440,154,176572,1,8,0:0:0:0:
462,175,176674,1,2,0:0:0:0:
476,203,176777,1,0,0:0:0:0:
479,234,176880,5,4,0:0:0:0:
473,264,176982,1,0,0:0:0:0:
455,290,177085,2,0,L|412:333,1,45,2|0,0:0|0:0,0:0:0:0:
287,333,177291,1,0,0:0:0:0:
210,330,177393,2,0,L|167:315,2,45,0|2|0,0:0|0:0|0:0,0:0:0:0:
201,241,177702,1,0,0:0:0:0:
116,251,177804,2,0,L|54:282,2,45,0|2|0,0:0|0:0|0:0,0:0:0:0:
34,204,178113,5,2,0:0:0:0:
62,129,178216,1,2,0:0:0:0:
130,87,178318,1,2,0:0:0:0:
210,90,178421,1,2,0:0:0:0:
272,139,178524,6,0,L|415:145,1,101.700000310364,6|0,0:0|0:0,0:0:0:0:
358,351,178935,1,8,0:0:0:0:
333,345,179037,1,0,0:0:0:0:
308,339,179140,1,2,0:0:0:0:
283,333,179243,1,0,0:0:0:0:
259,327,179346,2,0,L|157:322,1,101.700000310364
62,129,179756,2,0,P|38:173|46:222,1,101.700000310364,8|2,0:0|0:0,0:0:0:0:
77,255,180065,1,0,0:0:0:0:
118,182,180167,6,0,L|223:164,1,101.700000310364
469,253,180578,2,0,P|411:274|358:265,1,101.700000310364,8|2,0:0|0:0,0:0:0:0:
313,67,180989,2,0,P|374:29|458:40,2,152.550000465546,2|2|8,0:0|0:0|0:0,0:0:0:0:
232,84,181709,1,8,0:0:0:0:
196,84,181811,5,4,0:0:0:0:
160,82,181914,1,0,0:0:0:0:
124,82,182017,2,0,L|116:28,1,50.8500001551819,0|0,0:0|0:0,0:0:0:0:
28,175,182222,2,0,L|38:122,1,50.8500001551819,8|0,0:0|0:0,0:0:0:0:
144,229,182428,2,0,L|137:177,1,50.8500001551819,2|0,0:0|0:0,0:0:0:0:
45,284,182633,1,0,0:0:0:0:
70,312,182735,1,0,0:0:0:0:
103,330,182838,1,0,0:0:0:0:
140,338,182941,1,0,0:0:0:0:
178,334,183043,1,8,0:0:0:0:
213,318,183146,1,0,0:0:0:0:
241,293,183249,1,2,0:0:0:0:
260,260,183352,1,0,0:0:0:0:
267,223,183455,5,0,0:0:0:0:
272,172,183557,1,0,0:0:0:0:
276,122,183660,1,0,0:0:0:0:
281,71,183763,1,0,0:0:0:0:
285,20,183865,1,8,0:0:0:0:
301,67,183968,1,0,0:0:0:0:
317,115,184071,1,2,0:0:0:0:
332,164,184174,1,0,0:0:0:0:
348,212,184277,5,0,0:0:0:0:
366,243,184380,2,0,P|412:285|481:300,1,101.700000310364,2|0,0:0|0:0,0:0:0:0:
439,113,184688,2,0,L|452:231,1,101.700000310364,10|10,0:0|0:0,0:0:0:0:
356,335,184996,1,8,0:0:0:0:
322,346,185099,6,0,L|197:332,1,101.700000310364,4|0,0:0|0:0,0:0:0:0:
24,252,185510,2,0,L|149:266,1,101.700000310364,8|2,0:0|0:0,0:0:0:0:
90,95,185921,1,0,0:0:0:0:
164,164,186024,2,0,L|156:278,1,101.700000310364,2|0,0:0|0:0,0:0:0:0:
25,176,186332,2,0,L|150:162,1,101.700000310364,8|2,0:0|0:0,0:0:0:0:
261,68,186743,6,0,P|255:118|274:164,1,101.700000310364
461,272,187154,2,0,P|420:242|370:235,1,101.700000310364,8|2,0:0|0:0,0:0:0:0:
173,256,187565,1,0,0:0:0:0:
261,285,187667,2,0,P|230:324|184:345,1,101.700000310364,2|0,0:0|0:0,0:0:0:0:
88,225,187976,2,0,P|118:185|164:164,1,101.700000310364,8|2,0:0|0:0,0:0:0:0:
401,338,188387,5,4,0:0:0:0:
367,145,188592,2,0,L|389:206,1,50.8500001551819,0|2,0:0|0:0,0:0:0:0:
431,309,188798,1,4,0:3:0:0:
442,96,189003,1,2,0:0:0:0:
362,356,189209,1,4,0:0:0:0:
118,344,189414,1,0,0:0:0:0:
79,81,189619,1,8,0:3:0:0:
442,96,189825,6,0,L|437:157,1,50.8500001551819,2|0,0:0|0:0,0:0:0:0:
446,19,190030,1,4,0:3:0:0:
353,305,190236,6,0,L|362:356,1,50.8500001551819,0|8,0:0|0:3,0:0:0:0:
442,96,190544,6,0,L|437:157,1,50.8500001551819,0|4,0:0|0:3,0:0:0:0:
79,81,190852,5,4,0:3:0:0:
79,81,191058,1,0,0:0:0:0:
296,218,191263,6,0,P|315:149|223:215,1,270,8|0,0:3|0:0,0:0:0:0:
88,256,191674,6,0,B|112:296|112:296|184:296,1,112.5,6|0,0:0|0:0,0:0:0:0:
217,296,191982,1,0,0:0:0:0:
256,297,192085,2,0,L|316:297,1,56.25,8|0,0:0|0:0,0:0:0:0:
442,240,192291,1,2,0:0:0:0:
419,207,192393,1,0,0:0:0:0:
394,176,192496,2,0,L|326:175,1,56.25
177,75,192702,2,0,L|234:75,1,56.25,0|0,0:0|0:0,0:0:0:0:
364,19,192907,1,8,0:0:0:0:
192,241,193113,1,2,0:0:0:0:
192,241,193318,6,0,L|147:294,1,56.25
49,264,193524,2,0,L|101:202,1,78.7500007510185
326,216,193729,6,0,L|379:261,1,56.25,8|0,0:0|0:0,0:0:0:0:
349,359,193935,2,0,L|287:307,1,78.7500007510185,2|0,0:0|0:0,0:0:0:0:
236,86,194140,6,0,L|281:33,1,56.25
379,63,194346,2,0,L|327:125,1,78.7500007510185,0|0,0:0|0:0,0:0:0:0:
116,198,194551,6,0,L|63:153,1,56.25,8|0,0:0|0:0,0:0:0:0:
93,55,194757,2,0,L|155:107,1,78.7500007510185,2|0,0:0|0:0,0:0:0:0:
72,288,194962,6,0,B|120:320|120:320|200:320,1,112.5,4|0,0:0|0:0,0:0:0:0:
240,256,195270,1,0,0:0:0:0:
240,256,195373,2,0,L|280:208,1,56.25,8|0,0:0|0:0,0:0:0:0:
415,115,195578,2,0,L|378:158,1,56.25,2|0,0:0|0:0,0:0:0:0:
381,274,195784,1,0,0:0:0:0:
408,302,195887,1,0,0:0:0:0:
447,303,195989,2,0,L|508:303,1,56.25,0|0,0:0|0:0,0:0:0:0:
415,115,196195,1,8,0:0:0:0:
415,115,196298,2,0,L|288:115,1,112.5,2|0,0:0|0:0,0:0:0:0:
77,102,196606,6,0,P|86:39|172:78,1,168.75,2|0,0:0|0:0,0:0:0:0:
77,102,197017,2,0,L|76:179,1,56.25,4|0,0:3|0:0,0:0:0:0:
169,58,197222,2,0,L|168:129,1,56.25
79,293,197428,2,0,P|88:356|174:317,1,168.75,2|0,0:0|0:0,0:0:0:0:
79,293,197839,2,0,L|78:216,1,56.25,8|0,0:3|0:0,0:0:0:0:
171,336,198044,2,0,L|170:266,1,56.25,8|8,0:0|0:0,0:0:0:0:
295,162,198250,6,0,B|325:196|325:196|325:289,1,112.5,6|0,0:0|0:0,0:0:0:0:
347,295,198558,1,0,0:0:0:0:
371,326,198661,1,8,0:0:0:0:
405,308,198763,1,0,0:0:0:0:
440,290,198866,1,2,0:0:0:0:
441,250,198969,1,0,0:0:0:0:
440,210,199072,1,0,0:0:0:0:
440,210,199174,2,0,L|440:135,1,56.25
315,38,199380,1,0,0:0:0:0:
275,39,199482,1,8,0:0:0:0:
245,65,199585,1,0,0:0:0:0:
217,93,199688,2,0,L|217:167,1,56.25,2|0,0:0|0:0,0:0:0:0:
147,335,199893,6,0,L|147:272,1,56.25
303,242,200099,2,0,L|303:333,1,78.7500007510185
226,336,200304,6,0,L|226:262,1,56.25,8|0,0:0|0:0,0:0:0:0:
70,242,200510,2,0,L|70:332,1,78.7500007510185,2|0,0:0|0:0,0:0:0:0:
147,105,200715,6,0,L|147:49,1,56.25
303,63,200921,2,0,L|303:142,1,78.7500007510185
226,104,201126,6,0,L|226:48,1,56.25,8|0,0:0|0:0,0:0:0:0:
70,63,201332,2,0,L|70:142,1,78.7500007510185,2|0,0:0|0:0,0:0:0:0:
223,307,201537,6,0,B|192:344|192:344|112:345,1,112.5,4|0,0:0|0:0,0:0:0:0:
53,295,201846,1,0,0:0:0:0:
53,295,201948,2,0,L|53:225,1,56.25,8|0,0:0|0:0,0:0:0:0:
205,161,202154,2,0,L|205:217,1,56.25,2|0,0:0|0:0,0:0:0:0:
80,211,202359,1,0,0:0:0:0:
80,211,202462,2,0,L|80:271,1,56.25
234,196,202667,1,0,0:0:0:0:
234,196,202770,2,0,L|234:136,1,56.25,8|0,0:0|0:0,0:0:0:0:
387,67,202976,2,0,L|388:147,1,56.25,2|0,0:0|0:0,0:0:0:0:
469,238,203181,5,4,0:0:0:0:
406,238,203284,1,0,0:0:0:0:
343,238,203387,1,2,0:0:0:0:
306,287,203489,1,0,0:0:0:0:
212,349,203592,5,4,0:3:0:0:
175,300,203694,1,0,0:0:0:0:
112,300,203797,1,2,0:0:0:0:
49,300,203900,1,0,0:0:0:0:
69,187,204003,6,0,L|148:187,1,56.25,4|0,0:0|0:0,0:0:0:0:
119,45,204209,2,0,L|90:93,1,56.25,2|0,0:0|0:0,0:0:0:0:
210,159,204414,2,0,L|180:103,2,56.25,8|0|2,0:3|0:0|0:1,0:0:0:0:
400,34,204825,6,0,B|437:59|437:59|437:129,1,112.5,4|0,0:0|0:0,0:0:0:0:
436,218,205133,1,0,0:0:0:0:
436,218,205236,2,0,L|436:288,1,56.25,8|0,0:0|0:0,0:0:0:0:
308,337,205441,2,0,L|307:266,1,56.25,2|0,0:0|0:0,0:0:0:0:
284,141,205647,1,0,0:0:0:0:
247,90,205750,1,0,0:0:0:0:
212,39,205852,1,0,0:0:0:0:
149,38,205955,1,0,0:0:0:0:
86,38,206058,2,0,L|48:107,1,56.25,8|0,0:0|0:0,0:0:0:0:
75,258,206263,2,0,L|102:208,1,56.25,2|0,0:0|0:0,0:0:0:0:
292,265,206469,6,0,L|228:266,1,56.25
197,344,206674,2,0,L|112:345,1,78.7500007510185
187,187,206880,6,0,L|251:188,1,56.25,8|0,0:0|0:0,0:0:0:0:
292,265,207085,2,0,L|377:266,1,78.7500007510185,2|0,0:0|0:0,0:0:0:0:
290,109,207291,6,0,L|228:109,1,56.25
187,187,207496,2,0,L|82:187,1,78.7500007510185
182,33,207702,6,0,L|256:34,1,56.25,8|0,0:0|0:0,0:0:0:0:
290,109,207907,2,0,L|401:109,1,78.7500007510185,2|0,0:0|0:0,0:0:0:0:
477,277,208113,6,0,B|459:317|459:317|363:318,1,112.5,4|0,0:0|0:0,0:0:0:0:
306,346,208421,1,0,0:0:0:0:
306,346,208524,2,0,P|272:344|237:324,1,56.25,8|0,0:0|0:0,0:0:0:0:
255,195,208729,2,0,P|288:196|324:217,1,56.25,2|0,0:0|0:0,0:0:0:0:
135,300,208935,1,0,0:0:0:0:
135,300,209037,2,0,P|172:280|195:241,1,56.25
131,136,209243,1,0,0:0:0:0:
131,136,209345,2,0,P|151:173|190:196,2,56.25,8|0|2,0:0|0:0|0:0,0:0:0:0:
463,204,209756,6,0,B|405:204|405:204|363:164|363:164|300:164,1,168.75,2|0,0:0|0:0,0:0:0:0:
463,204,210167,2,0,L|463:270,1,56.25,4|0,0:3|0:0,0:0:0:0:
311,164,210373,2,0,L|310:84,1,56.25,0|0,0:0|0:0,0:0:0:0:
158,69,210578,6,0,B|216:69|216:69|258:109|258:109|321:109,1,168.75,2|0,0:0|0:0,0:0:0:0:
158,69,210989,2,0,L|158:3,1,56.25,8|0,0:3|0:0,0:0:0:0:
311,109,211195,2,0,L|312:189,1,56.25,8|8,0:0|0:0,0:0:0:0:
157,332,211400,6,0,B|114:306|114:306|114:233,1,112.5,6|0,0:0|0:0,0:0:0:0:
114,203,211709,1,0,0:0:0:0:
114,163,211811,1,8,0:0:0:0:
144,137,211914,1,0,0:0:0:0:
179,119,212017,1,2,0:0:0:0:
212,139,212119,1,0,0:0:0:0:
243,163,212222,1,0,0:0:0:0:
243,163,212325,2,0,L|243:238,1,56.25
374,328,212530,1,0,0:0:0:0:
374,328,212633,2,0,L|374:253,1,56.25,8|0,0:0|0:0,0:0:0:0:
483,178,212839,1,2,0:0:0:0:
453,151,212941,1,0,0:0:0:0:
420,128,213044,6,0,P|394:152|356:161,1,56.25
352,75,213250,2,0,P|378:51|437:39,1,78.7500007510185,0|0,0:0|0:0,0:0:0:0:
334,238,213455,6,0,P|299:246|261:237,1,56.25,8|0,0:0|0:0,0:0:0:0:
299,160,213661,2,0,P|333:151|390:168,1,78.7500007510185,2|0,0:0|0:0,0:0:0:0:
198,281,213866,6,0,P|165:267|141:236,1,56.25
218,199,214072,2,0,P|250:212|286:260,1,78.7500007510185,0|0,0:0|0:0,0:0:0:0:
60,247,214277,6,0,P|37:219|30:181,1,56.25,8|0,0:0|0:0,0:0:0:0:
117,184,214483,2,0,P|139:211|148:270,1,78.7500007510185,2|0,0:0|0:0,0:0:0:0:
106,60,214688,6,0,B|141:31|141:31|220:31,1,112.5,4|0,0:0|0:0,0:0:0:0:
291,67,214996,1,0,0:0:0:0:
291,67,215099,2,0,L|332:113,1,56.25,8|0,0:0|0:0,0:0:0:0:
496,140,215304,2,0,L|458:98,1,56.25,2|0,0:0|0:0,0:0:0:0:
337,218,215510,1,0,0:0:0:0:
294,263,215613,1,0,0:0:0:0:
250,305,215715,1,0,0:0:0:0:
188,308,215818,1,0,0:0:0:0:
125,308,215921,5,8,0:0:0:0:
99,278,216024,1,0,0:0:0:0:
76,246,216126,1,2,0:0:0:0:
55,212,216229,1,0,0:0:0:0:
33,178,216332,5,4,0:0:0:0:
76,133,216435,1,0,0:0:0:0:
121,91,216537,1,2,0:0:0:0:
183,92,216640,1,0,0:0:0:0:
296,94,216743,5,4,0:3:0:0:
358,93,216846,1,0,0:0:0:0:
403,135,216948,1,2,0:0:0:0:
446,180,217051,1,0,0:0:0:0:
341,223,217154,6,0,L|262:223,1,56.25,4|0,0:0|0:0,0:0:0:0:
291,365,217360,2,0,L|320:317,1,56.25,2|0,0:0|0:0,0:0:0:0:
200,251,217565,2,0,L|230:307,2,56.25,8|0|2,0:3|0:0|0:1,0:0:0:0:
68,45,217976,6,0,L|98:188,1,135.000005149842,4|0,0:0|0:0,0:0:0:0:
9,286,218284,1,0,0:0:0:0:
58,342,218387,2,0,P|123:370|204:344,1,135.000005149842,8|2,0:0|0:0,0:0:0:0:
230,125,218798,1,0,0:0:0:0:
294,76,218901,2,0,L|438:74,1,135.000005149842,2|0,0:0|0:0,0:0:0:0:
408,230,219209,2,0,P|345:207|305:154,1,135.000005149842,8|2,0:0|0:0,0:0:0:0:
461,18,219619,6,0,L|452:113,1,67.5000025749208
491,52,219825,2,0,L|479:142,1,67.5000025749208
348,370,220030,2,0,L|339:275,1,67.5000025749208,8|0,0:0|0:0,0:0:0:0:
309,340,220236,2,0,L|297:250,1,67.5000025749208,2|0,0:0|0:0,0:0:0:0:
294,76,220441,1,0,0:0:0:0:
239,131,220544,2,0,P|170:150|99:133,1,135.000005149842,2|0,0:0|0:0,0:0:0:0:
48,88,220852,2,0,L|31:160,1,67.5000025749208,8|0,0:0|0:0,0:0:0:0:
103,276,221058,2,0,L|86:204,1,67.5000025749208,2|0,0:0|0:0,0:0:0:0:
232,214,221263,6,0,P|328:218|376:252,1,135.000005149842,4|0,0:0|0:0,0:0:0:0:
100,355,221674,1,8,0:0:0:0:
179,345,221777,2,0,P|245:357|310:339,1,135.000005149842,2|0,0:0|0:0,0:0:0:0:
443,272,222085,1,0,0:0:0:0:
473,358,222188,2,0,L|461:211,1,135.000005149842,2|0,0:0|0:0,0:0:0:0:
370,202,222496,1,8,0:0:0:0:
499,5,222702,6,0,L|472:92,1,67.5000025749208,2|2,0:0|0:0,0:0:0:0:
179,345,222907,2,0,P|95:309|68:271,1,135.000005149842,2|0,0:0|0:0,0:0:0:0:
360,253,223318,2,0,P|303:324|259:341,1,135.000005149842,4|0,0:3|0:0,0:0:0:0:
129,37,223729,2,0,P|50:56|1:95,1,135.000005149842,2|0,0:0|0:0,0:0:0:0:
474,172,224140,2,0,P|431:111|370:75,1,135.000005149842,8|8,0:3|0:0,0:0:0:0:
259,50,224448,1,8,0:0:0:0:
148,111,224551,6,0,L|131:262,1,135.000005149842,6|0,0:0|0:0,0:0:0:0:
119,338,224859,1,0,0:0:0:0:
62,263,224962,2,0,P|47:226|77:128,1,135.000005149842,8|2,0:0|0:0,0:0:0:0:
474,172,225373,2,0,L|314:151,1,135.000005149842,8|0,0:0|0:0,0:0:0:0:
138,205,225681,2,0,L|280:192,1,135.000005149842,10|0,0:0|0:0,0:0:0:0:
333,303,225989,2,0,P|339:269|339:216,1,67.5000025749208,10|0,0:0|0:0,0:0:0:0:
130,67,226195,6,0,P|171:71|209:64,1,67.5000025749208,2|0,0:0|0:0,0:0:0:0:
236,84,226400,2,0,P|281:70|317:47,1,67.5000025749208
341,257,226606,2,0,P|302:242|263:239,1,67.5000025749208,8|0,0:0|0:0,0:0:0:0:
243,213,226811,2,0,P|195:214|155:227,1,67.5000025749208,2|0,0:0|0:0,0:0:0:0:
26,357,227017,1,0,0:0:0:0:
25,271,227119,2,0,L|170:251,1,135.000005149842,2|0,0:0|0:0,0:0:0:0:
261,342,227428,2,0,L|193:335,1,67.5000025749208,8|0,0:0|0:0,0:0:0:0:
48,190,227633,2,0,L|115:180,1,67.5000025749208,2|2,0:0|0:0,0:0:0:0:
317,293,227839,5,4,0:0:0:0:
193,335,228044,1,0,0:0:0:0:
318,335,228250,1,8,0:0:0:0:
195,293,228455,1,2,0:0:0:0:
256,288,228661,5,8,0:3:0:0:
256,184,228763,1,0,0:0:0:0:
256,312,228969,5,8,0:3:0:0:
256,104,229072,1,0,0:0:0:0:
256,336,229277,5,4,0:3:0:0:
256,24,229380,1,0,0:0:0:0:
163,37,229482,5,4,0:0:0:0:
130,30,229584,1,0,0:0:0:0:
97,35,229687,1,2,0:0:0:0:
67,52,229790,1,0,0:0:0:0:
46,78,229892,1,8,0:3:0:0:
36,110,229995,1,0,0:0:0:0:
37,143,230099,2,0,P|46:178|73:208,1,67.5000025749208,2|0,0:0|0:0,0:0:0:0:
349,37,230304,5,4,0:0:0:0:
381,30,230406,1,0,0:0:0:0:
414,35,230509,1,2,0:0:0:0:
444,52,230612,1,0,0:0:0:0:
465,78,230714,1,4,0:3:0:0:
475,110,230817,1,0,0:0:0:0:
474,143,230921,2,0,P|466:178|439:208,1,67.5000025749208,2|0,0:1|0:0,0:0:0:0:
43,275,231126,6,0,P|29:208|44:120,1,135.000005149842,6|0,0:0|0:0,0:0:0:0:
318,369,231537,2,0,P|332:302|317:214,1,135.000005149842,8|0,0:0|0:0,0:0:0:0:
135,15,231948,2,0,P|128:82|142:148,1,135.000005149842,0|2,0:0|0:0,0:0:0:0:
349,13,232359,1,8,0:0:0:0:
449,334,232565,5,2,0:0:0:0:
451,329,232667,1,2,0:0:0:0:
453,324,232770,2,0,P|467:257|452:169,1,135.000005149842,4|2,0:3|0:0,0:0:0:0:
54,28,233181,2,8,P|46:94|60:160,1,135.000005149842,8|2,0:0|0:0,0:0:0:0:
227,364,233592,2,0,P|241:297|226:209,1,135.000005149842,0|2,0:0|0:0,0:0:0:0:
423,21,234003,2,0,P|393:89|433:228,1,202.500007724762,8|0,0:0|0:0,0:0:0:0:
388,327,234414,6,0,P|397:245|382:191,1,135.000005149842,4|0,0:0|0:0,0:0:0:0:
34,201,234825,2,0,P|19:266|30:332,1,135.000005149842,8|0,0:0|0:0,0:0:0:0:
492,223,235236,2,0,P|499:191|504:144,1,67.5000025749208,2|0,0:0|0:0,0:0:0:0:
505,80,235441,2,0,P|501:47|489:1,1,67.5000025749208,2|0,0:0|0:0,0:0:0:0:
393,195,235647,1,8,0:0:0:0:
206,337,235852,6,0,P|217:271|203:206,2,135.000005149842,2|4|2,0:0|0:3|0:0,0:0:0:0:
104,155,236469,2,0,P|93:88|107:23,1,135.000005149842,8|2,0:0|0:0,0:0:0:0:
453,147,236880,1,0,0:0:0:0:
492,213,236982,2,0,P|506:278|495:344,1,135.000005149842,2|0,0:0|0:0,0:0:0:0:
420,318,237291,2,0,L|275:305,1,135.000005149842,8|2,0:0|0:1,0:0:0:0:
206,337,237599,5,10,0:0:0:0:
129,358,237702,2,0,P|118:291|132:226,1,135.000005149842,6|0,0:0|0:0,0:0:0:0:
492,213,238113,2,0,P|506:278|496:345,1,135.000005149842,8|0,0:0|0:0,0:0:0:0:
43,237,238524,2,0,P|32:170|46:105,2,135.000005149842,0|2|8,0:0|0:0|0:0,0:0:0:0:
425,154,239140,5,2,0:0:0:0:
430,176,239243,1,2,0:0:0:0:
428,198,239345,2,0,P|417:131|431:66,1,135.000005149842,4|2,0:3|0:0,0:0:0:0:
124,150,239756,2,0,P|134:83|120:18,1,135.000005149842,8|2,0:0|0:0,0:0:0:0:
353,370,240167,2,0,P|342:303|356:238,1,135.000005149842,0|2,0:0|0:0,0:0:0:0:
213,304,240578,2,0,P|223:237|209:172,1,135.000005149842,8|8,0:0|0:0,0:0:0:0:
83,319,240887,5,8,0:0:0:0:
72,343,240989,2,0,P|61:276|75:211,1,135.000005149842,6|0,0:0|0:0,0:0:0:0:
285,226,241400,2,0,P|295:292|281:357,1,135.000005149842,8|0,0:0|0:0,0:0:0:0:
414,70,241811,2,0,P|426:106|423:160,1,67.5000025749208,2|0,0:0|0:0,0:0:0:0:
431,215,242017,2,0,P|431:245|422:287,1,67.5000025749208,2|0,0:0|0:0,0:0:0:0:
334,139,242222,2,0,P|322:72|336:7,1,135.000005149842,8|2,0:0|0:0,0:0:0:0:
71,368,242633,6,0,P|36:269|35:167,1,202.500007724762,4|0,0:3|0:0,0:0:0:0:
105,142,243044,2,0,P|116:71|147:8,1,135.000005149842,8|2,0:0|0:0,0:0:0:0:
395,289,243455,1,0,0:0:0:0:
431,215,243558,2,0,P|439:142|417:75,1,135.000005149842,2|0,0:0|0:0,0:0:0:0:
385,14,243866,1,8,0:0:0:0:
344,185,244072,2,0,P|350:157|339:112,1,67.5000025749208,2|8,0:1|0:0,0:0:0:0:
122,42,244277,6,0,B|82:78|82:78|82:175,1,135,6|0,0:0|0:0,0:0:0:0:
159,184,244688,2,0,L|159:117,1,45,8|0,0:0|0:0,0:0:0:0:
234,109,244893,2,0,L|236:169,1,45,2|0,0:0|0:0,0:0:0:0:
312,181,245099,1,0,0:0:0:0:
312,181,245202,2,0,L|312:117,2,45
390,157,245510,1,8,0:0:0:0:
390,157,245715,2,0,L|390:222,1,45,2|0,0:0|0:0,0:0:0:0:
330,335,245921,6,0,L|276:335,1,45,4|0,3:0|0:0,0:0:0:0:
238,333,246126,2,0,L|194:245,1,67.5000025749208,2|0,0:0|0:0,0:0:0:0:
131,324,246332,6,0,L|84:297,1,45,8|0,0:0|0:0,0:0:0:0:
53,277,246537,2,0,L|58:178,1,67.5000025749208,2|0,0:0|0:0,0:0:0:0:
110,58,246743,6,0,L|156:85,1,45
188,105,246948,2,0,L|182:203,1,67.5000025749208,2|0,0:0|0:0,0:0:0:0:
282,46,247154,6,0,L|309:92,1,45,8|0,0:0|0:0,0:0:0:0:
326,125,247359,2,0,L|271:207,1,67.5000025749208
390,342,247565,6,0,B|430:306|430:306|430:209,1,135,6|0,0:0|0:0,0:0:0:0:
353,200,247976,2,0,L|353:267,1,45,8|0,0:0|0:0,0:0:0:0:
278,275,248181,2,0,L|276:215,1,45,2|0,0:0|0:0,0:0:0:0:
200,203,248387,1,0,0:0:0:0:
200,203,248490,2,0,L|200:267,2,45
122,227,248798,1,8,0:0:0:0:
122,227,249003,2,0,L|122:162,1,45,2|0,0:0|0:0,0:0:0:0:
41,264,249209,6,0,B|74:318|74:318|166:318,1,135,4|0,3:0|0:0,0:0:0:0:
228,298,249619,2,0,L|294:298,1,45,8|0,0:0|0:0,0:0:0:0:
350,271,249825,2,0,L|416:272,1,45,2|0,0:0|0:0,0:0:0:0:
454,216,250030,1,0,0:0:0:0:
454,216,250133,2,0,L|498:216,2,45
399,156,250441,1,8,0:0:0:0:
399,156,250647,1,2,0:1:0:0:
363,121,250750,1,0,0:0:0:0:
328,85,250852,6,0,B|294:46|294:46|201:46,1,135,6|0,0:0|0:0,0:0:0:0:
189,124,251263,2,0,L|247:124,1,45,8|0,0:0|0:0,0:0:0:0:
254,203,251469,2,0,L|204:202,1,45,2|0,0:0|0:0,0:0:0:0:
184,280,251674,1,0,0:0:0:0:
184,280,251777,2,0,L|253:280,2,45
144,351,252085,1,8,0:0:0:0:
144,351,252291,2,0,L|79:351,1,45,2|0,0:0|0:0,0:0:0:0:
31,233,252496,6,0,L|65:191,1,45,4|0,3:0|0:0,0:0:0:0:
91,163,252702,2,0,L|186:185,1,67.5000025749208,2|0,0:0|0:0,0:0:0:0:
167,87,252907,6,0,L|217:68,1,45,8|0,0:0|0:0,0:0:0:0:
253,59,253113,2,0,L|325:126,1,67.5000025749208,2|0,0:0|0:0,0:0:0:0:
452,210,253318,6,0,L|401:227,1,45
366,240,253524,2,0,L|294:172,1,67.5000025749208,2|0,0:0|0:0,0:0:0:0:
351,349,253729,6,0,L|298:340,1,45,8|0,0:0|0:0,0:0:0:0:
262,332,253935,2,0,L|234:237,1,67.5000025749208
38,253,254140,6,0,B|70:290|70:290|169:290,1,135,6|0,0:0|0:0,0:0:0:0:
170,211,254551,2,0,L|117:211,1,45,8|0,0:0|0:0,0:0:0:0:
152,134,254756,2,0,L|215:134,1,45,2|0,0:0|0:0,0:0:0:0:
178,54,254962,1,0,0:0:0:0:
178,54,255065,2,0,L|101:54,2,45
255,27,255373,1,8,0:0:0:0:
255,27,255578,2,0,L|337:27,1,45,2|2,0:0|0:0,0:0:0:0:
460,115,255784,6,0,B|426:156|426:156|335:156,1,135,6|0,0:0|0:0,0:0:0:0:
361,236,256195,2,0,L|411:236,1,45,8|0,0:0|0:0,0:0:0:0:
390,315,256400,2,0,L|456:315,1,45,2|0,0:0|0:0,0:0:0:0:
218,311,256606,1,14,0:0:0:0:
218,311,256709,2,0,L|152:311,1,45,0|2,0:0|0:0,0:0:0:0:
247,232,256914,1,0,0:0:0:0:
221,189,257017,2,0,L|188:127,1,45,14|0,0:0|0:0,0:0:0:0:
326,95,257222,2,0,L|326:26,1,45,2|0,0:1|0:0,0:0:0:0:
437,165,257428,6,0,P|397:210|351:220,1,90,6|0,0:0|0:0,0:0:0:0:
229,11,257736,2,0,P|274:51|284:97,1,90,8|0,0:0|0:0,0:0:0:0:
75,218,258044,2,0,P|101:183|141:164,1,90,6|0,0:0|0:0,0:0:0:0:
283,373,258352,2,0,P|238:333|228:287,1,90,8|0,0:0|0:0,0:0:0:0:
437,165,258661,1,2,0:0:0:0:
437,165,258763,1,2,0:0:0:0:
437,165,258866,1,8,0:0:0:0:
437,165,259482,5,6,0:0:0:0:
256,192,259585,12,0,260715,3:0:0:0:
