osu file format v14

[General]
AudioFilename: audio.mp3
AudioLeadIn: 0
PreviewTime: 47393
Countdown: 0
SampleSet: Normal
StackLeniency: 0.2
Mode: 0
LetterboxInBreaks: 0
WidescreenStoryboard: 0

[Editor]
DistanceSpacing: 0.8
BeatDivisor: 4
GridSize: 32
TimelineZoom: 2.400002

[Metadata]
Title:Solitary Dream
TitleUnicode:虚空の夢
Artist:ak+q feat. Sennzai
ArtistUnicode:ak+q feat. Sennzai
Creator:Ragnarok VII
Version:Memory
Source:Arcaea
Tags:second anniversary eternal core pack video game rhythm game ost japanese vocals
BeatmapID:1967689
BeatmapSetID:942350

[Difficulty]
HPDrainRate:6
CircleSize:3.8
OverallDifficulty:8.6
ApproachRate:9.3
SliderMultiplier:1.8
SliderTickRate:1

[Events]
//Background and Video events
0,0,"09f31b77cce47822083b0eda51b2a1fe.jpg",0,0
//Break Periods
//Storyboard Layer 0 (Background)
//Storyboard Layer 1 (Fail)
//Storyboard Layer 2 (Pass)
//Storyboard Layer 3 (Foreground)
//Storyboard Sound Samples

[TimingPoints]
1468,370.37037037037,4,1,0,100,1,0
3134,-200,4,1,0,100,0,0
13319,-200,4,1,0,100,0,0
25171,-133.333333333333,4,1,0,100,0,0
31097,-100,4,1,0,100,0,0
37023,-200,4,1,0,100,0,0
38505,-76.9230769230769,4,1,0,100,0,0
49616,-133.333333333333,4,1,0,100,0,0
50356,-66.6666666666667,4,1,0,100,0,1
74118,-100,4,1,0,100,0,0
111155,-100,4,1,0,100,0,1
158563,-100,4,1,0,100,0,0

[Colours]
Combo1 : 245,54,136
Combo2 : 210,224,240
Combo3 : 175,159,253
Combo4 : 248,135,236

[HitObjects]
45,142,1468,5,0,0:0:0:0:
195,93,1653,1,0,0:0:0:0:
26,122,1838,1,8,0:0:0:0:
213,112,2023,1,8,0:0:0:0:
118,119,2208,1,0,0:0:0:0:
48,362,3134,6,0,L|41:313,1,45
70,313,3505,2,0,L|76:357,1,45
155,384,3875,2,0,P|195:356|238:352,1,90
293,220,4430,5,0,0:0:0:0:
457,263,4616,1,0,0:0:0:0:
448,299,4801,1,0,0:0:0:0:
310,334,4987,1,0,0:0:0:0:
372,272,5171,1,0,0:0:0:0:
398,51,5542,6,0,L|402:102,1,45
386,96,5912,2,0,L|382:51,1,45
240,274,7393,5,0,0:0:0:0:
143,135,7579,1,0,0:0:0:0:
156,287,7764,1,0,0:0:0:0:
227,88,7950,1,0,0:0:0:0:
193,202,8134,1,0,0:0:0:0:
464,362,9060,6,0,L|471:313,1,45
442,313,9431,2,0,L|436:357,1,45
356,282,9801,2,0,B|290:289|290:289|260:277,1,90
10,316,10356,5,0,0:0:0:0:
171,293,10542,1,0,0:0:0:0:
202,371,10727,1,0,0:0:0:0:
0,342,10913,1,0,0:0:0:0:
97,336,11097,1,0,0:0:0:0:
71,110,12393,5,0,0:0:0:0:
176,89,12579,1,0,0:0:0:0:
92,215,12764,1,0,0:0:0:0:
71,110,12950,1,0,0:0:0:0:
176,89,13134,1,0,0:0:0:0:
197,194,13319,6,0,L|187:287,1,90
93,354,13875,2,0,L|31:363,1,45
188,283,14245,2,0,L|250:292,1,45
487,345,14801,6,0,P|441:337|414:292,1,90
493,246,15356,1,0,0:0:0:0:
359,222,15542,1,0,0:0:0:0:
437,167,15727,1,0,0:0:0:0:
314,61,15912,1,0,0:0:0:0:
258,140,16097,1,0,0:0:0:0:
180,85,16282,6,0,L|83:81,1,90
6,166,16838,2,0,P|32:180|41:205,1,45
144,257,17208,2,0,P|118:271|109:296,1,45
42,370,17579,5,0,0:0:0:0:
42,370,17764,2,0,L|143:362,1,90
247,306,18319,2,0,L|238:351,2,45
320,235,18875,5,0,0:0:0:0:
361,314,19060,1,0,0:0:0:0:
320,235,19245,2,0,P|322:177|354:150,1,90
428,101,19801,2,0,L|480:104,1,45
347,152,20171,1,0,0:0:0:0:
270,97,20356,1,0,0:0:0:0:
294,10,20542,1,0,0:0:0:0:
270,97,20727,6,0,P|213:123|171:112,1,90
77,128,21282,2,0,L|70:175,2,45
152,289,21838,5,0,0:3:0:0:
60,247,22023,1,0,0:3:0:0:
140,188,22208,2,0,P|184:187|222:210,1,90
269,340,22764,2,0,L|265:294,1,45
346,247,23134,6,0,L|449:240,1,90
426,147,23690,2,0,L|336:153,1,90
242,101,24245,1,0,0:0:0:0:
242,101,24430,2,0,P|230:73|230:48,1,45
137,24,24801,2,0,P|133:46|123:66,1,45
0,168,25171,6,0,L|92:161,1,67.5000025749208
175,154,25542,1,0,0:0:0:0:
100,333,25727,2,0,P|95:309|95:291,1,33.7500012874604
175,154,25912,1,0,0:0:0:0:
100,333,26097,2,0,P|95:309|95:291,1,33.7500012874604
217,247,26282,2,0,P|215:263|211:280,1,33.7500012874604
100,333,26467,1,0,0:0:0:0:
201,381,26653,6,0,L|283:376,1,67.5000025749208
358,279,27023,2,0,L|362:228,1,33.7500012874604
470,345,27208,1,0,0:0:0:0:
358,279,27393,2,0,L|363:204,1,67.5000025749208
468,123,27764,2,0,P|435:119|409:108,1,33.7500012874604
347,37,27949,1,0,0:0:0:0:
222,139,28134,6,0,P|277:136|303:121,1,67.5000025749208
347,37,28505,1,0,0:0:0:0:
164,65,28690,2,0,L|72:60,1,67.5000025749208
31,149,29060,2,0,L|40:187,1,33.7500012874604
77,300,29245,1,0,0:0:0:0:
38,181,29430,2,0,L|31:149,1,33.7500012874604
77,300,29616,6,0,P|126:309|143:323,1,67.5000025749208
234,337,29986,2,0,L|310:333,1,67.5000025749208
268,235,30356,2,0,L|200:238,1,67.5000025749208
412,160,30727,6,0,P|428:187|429:195,1,33.7500012874604
385,384,30912,2,0,P|401:357|402:349,1,33.7500012874604
412,160,31097,6,0,L|307:150,1,90
189,108,31467,1,0,0:0:0:0:
268,2,31653,2,0,P|279:30|277:54,1,45
178,150,31838,2,0,P|179:127|188:107,1,45
263,261,32023,1,0,0:0:0:0:
165,341,32208,2,0,L|111:347,1,45
263,261,32393,1,0,0:0:0:0:
165,341,32579,6,0,L|60:352,1,90
263,261,32949,2,0,L|315:263,1,45
471,315,33134,2,0,L|426:313,1,45
263,261,33319,1,0,0:0:0:0:
261,280,33412,1,0,0:0:0:0:
259,299,33505,1,0,0:0:0:0:
372,192,33690,2,0,L|362:85,1,90
306,46,34060,5,0,0:0:0:0:
265,30,34152,1,0,0:0:0:0:
223,33,34245,1,0,0:0:0:0:
185,54,34337,1,0,0:0:0:0:
151,81,34430,1,0,0:0:0:0:
112,97,34522,1,0,0:0:0:0:
69,96,34615,1,0,0:0:0:0:
30,78,34708,1,0,0:0:0:0:
1,40,34801,5,0,0:0:0:0:
55,34,34893,1,0,0:0:0:0:
95,73,34986,1,0,0:0:0:0:
92,129,35078,1,0,0:0:0:0:
56,176,35171,5,0,0:0:0:0:
107,129,35263,1,0,0:0:0:0:
174,146,35356,1,0,0:0:0:0:
197,211,35448,1,0,0:0:0:0:
170,269,35542,6,0,L|147:275,4,22.5
296,214,35912,2,0,L|319:220,4,22.5
170,269,36282,2,0,L|147:275,4,22.5
296,214,36653,2,0,L|309:182,1,22.5
337,222,36745,2,0,L|350:190,1,22.5
378,230,36838,2,0,L|391:198,1,22.5
419,238,36930,2,0,L|432:206,1,22.5
459,247,37023,6,0,B|490:271|506:295|506:295|483:43,1,315
312,24,38505,6,0,L|386:31,1,58.4999973220826
238,89,38690,1,0,0:0:0:0:
238,89,38782,1,0,0:0:0:0:
238,89,38875,2,0,P|199:109|168:114,1,58.4999973220826
22,144,39060,1,0,0:0:0:0:
111,183,39245,2,0,P|138:191|164:206,1,58.4999973220826
219,360,39430,1,0,0:0:0:0:
224,344,39523,1,0,0:0:0:0:
232,327,39616,2,0,L|230:252,1,58.4999973220826
315,224,39801,2,0,L|316:282,1,58.4999973220826
319,373,39986,5,0,0:0:0:0:
319,373,40171,2,0,L|353:378,2,29.2499986610413
445,271,40356,2,0,P|403:277|383:297,1,58.4999973220826
319,373,40542,1,0,0:0:0:0:
195,135,40727,2,0,P|219:149|248:150,1,58.4999973220826
309,260,40912,1,0,0:0:0:0:
312,242,41005,1,0,0:0:0:0:
315,224,41097,1,0,0:0:0:0:
388,165,41282,2,0,L|424:159,4,29.2499986610413
247,121,41653,5,0,0:0:0:0:
219,129,41745,1,0,0:0:0:0:
195,135,41838,2,0,L|118:132,1,58.4999973220826
0,212,42023,2,0,P|28:234|38:265,1,58.4999973220826
59,346,42208,1,0,0:0:0:0:
0,212,42393,2,0,P|28:234|38:265,1,58.4999973220826
124,275,42579,2,0,P|127:246|143:222,1,58.4999973220826,0|8,0:0|0:0,0:0:0:0:
238,220,42764,1,0,0:0:0:0:
238,220,42949,6,0,L|362:227,1,116.999994644165
367,222,43227,1,0,0:0:0:0:
384,214,43319,2,0,L|392:142,1,58.4999973220826
407,56,43505,1,0,0:0:0:0:
255,99,43690,2,0,P|295:115|325:110,1,58.4999973220826
407,56,43875,1,0,0:0:0:0:
212,16,44060,2,0,P|183:17|157:31,1,58.4999973220826
75,170,44245,1,0,0:0:0:0:
72,151,44338,1,0,0:0:0:0:
69,132,44430,6,0,L|75:49,1,58.4999973220826
146,243,44616,1,0,0:0:0:0:
73,73,44801,2,0,L|69:132,1,58.4999973220826
146,243,44986,2,0,L|141:301,1,58.4999973220826
422,355,45171,2,0,P|382:346|357:323,1,58.4999973220826
241,341,45356,1,0,0:0:0:0:
237,324,45449,1,0,0:0:0:0:
233,304,45542,2,0,P|257:289|286:285,1,58.4999973220826
429,269,45727,1,0,0:0:0:0:
429,269,45912,6,0,P|446:235|437:199,1,58.4999973220826
342,153,46097,2,0,P|342:181|357:206,1,58.4999973220826
445,84,46282,2,0,P|417:74|389:80,1,58.4999973220826,8|0,0:0|0:0,0:0:0:0:
342,153,46467,2,0,P|342:181|357:206,1,58.4999973220826
256,223,46653,2,0,P|230:208|201:209,1,58.4999973220826
93,291,46838,2,0,P|121:291|147:277,1,58.4999973220826
266,213,47023,2,0,P|240:198|211:199,1,58.4999973220826
103,281,47208,2,0,P|131:281|157:267,1,58.4999973220826
146,115,47393,5,0,0:0:0:0:
144,122,47485,1,0,0:0:0:0:
142,130,47578,1,0,0:0:0:0:
140,137,47670,1,0,0:0:0:0:
138,145,47763,1,0,0:0:0:0:
136,152,47855,1,0,0:0:0:0:
134,160,47948,1,0,0:0:0:0:
133,169,48041,1,0,0:0:0:0:
132,177,48134,5,0,0:0:0:0:
132,146,48226,1,0,0:0:0:0:
113,121,48319,1,0,0:0:0:0:
82,116,48411,1,0,0:0:0:0:
55,133,48504,1,0,0:0:0:0:
46,162,48596,1,0,0:0:0:0:
58,190,48689,1,0,0:0:0:0:
86,205,48782,1,0,0:0:0:0:
123,192,48875,5,0,0:0:0:0:
176,188,48967,1,0,0:0:0:0:
223,217,49060,1,0,0:0:0:0:
245,267,49152,1,0,0:0:0:0:
220,321,49245,1,0,0:0:0:0:
270,267,49337,1,0,0:0:0:0:
343,254,49430,1,0,0:0:0:0:
409,287,49522,1,0,0:0:0:0:
441,352,49615,5,0,0:0:0:0:
441,352,50356,6,0,P|407:272|490:168,1,202.500007724762
485,169,50727,1,0,0:0:0:0:
418,75,50912,2,0,L|339:81,1,67.5000025749208
143,111,51097,2,0,B|104:97|104:97|212:114,1,135.000005149842
281,126,51467,5,0,0:0:0:0:
182,319,51653,2,0,P|200:245|259:229,1,135.000005149842
272,232,52023,1,0,0:0:0:0:
87,274,52208,1,0,0:0:0:0:
272,232,52393,2,0,P|342:279|306:380,1,202.500007724762
294,380,52764,1,0,0:0:0:0:
87,274,52949,2,0,P|92:217|81:186,1,67.5000025749208
11,69,53134,2,0,P|7:102|13:135,1,67.5000025749208
110,109,53319,6,0,P|198:102|271:196,1,202.500007724762
264,200,53690,2,0,L|275:60,1,135.000005149842
440,0,54060,2,0,P|399:1|365:9,1,67.5000025749208
375,109,54245,2,0,P|416:108|450:100,1,67.5000025749208
440,0,54430,2,0,P|399:1|365:9,1,67.5000025749208
375,109,54616,2,0,P|438:136|459:270,1,202.500007724762
460,274,54986,1,0,0:0:0:0:
229,214,55171,2,0,B|324:226|324:226|390:211,1,135.000005149842
309,311,55542,6,0,L|228:301,1,67.5000025749208
114,384,55727,2,0,L|163:318,1,67.5000025749208
309,311,55912,2,0,L|228:301,1,67.5000025749208
114,384,56097,2,0,P|135:298|44:224,1,202.500007724762
36,224,56467,1,0,0:0:0:0:
157,182,56653,2,0,P|197:132|188:54,1,135.000005149842
185,50,57023,6,0,L|100:57,1,67.5000025749208
282,116,57208,2,0,L|367:123,1,67.5000025749208
185,50,57393,2,0,L|100:57,1,67.5000025749208
282,116,57579,2,0,P|371:91|443:189,1,202.500007724762
444,177,57949,1,0,0:0:0:0:
284,286,58134,6,0,P|283:235|294:213,1,67.5000025749208
427,338,58319,2,0,B|293:322|293:322|214:341,1,202.500007724762
201,350,58690,1,0,0:0:0:0:
31,304,58875,6,0,L|105:308,1,67.5000025749208
224,228,59060,2,0,B|180:249|90:218|180:185|79:155|35:172,1,202.500007724762
24,175,59430,1,0,0:0:0:0:
185,3,59616,2,0,L|205:145,1,135.000005149842
163,252,59986,6,0,P|209:228|236:228,1,67.5000025749208
324,287,60172,2,0,P|370:311|397:311,1,67.5000025749208
223,226,60356,2,0,P|190:233|163:252,1,67.5000025749208
324,287,60542,2,0,B|354:140|354:140|335:73,1,202.500007724762
336,74,60912,2,0,L|251:69,1,67.5000025749208
438,157,61097,2,0,L|505:153,1,67.5000025749208
336,74,61282,2,0,B|268:70|268:70|219:31|219:31|140:25,1,202.500007724762
28,156,61653,5,0,0:0:0:0:
49,153,61745,1,0,0:0:0:0:
57,134,61838,1,0,0:0:0:0:
44,118,61930,1,0,0:0:0:0:
24,121,62023,1,0,0:0:0:0:
16,139,62116,1,0,0:0:0:0:
35,136,62208,6,0,B|49:43|49:43|30:-7,1,135.000005149842
127,102,62579,2,0,L|200:108,1,67.5000025749208
274,235,62764,2,0,P|263:158|325:53,1,202.500007724762
346,47,63134,2,0,L|435:43,1,67.5000025749208
473,159,63319,2,0,L|384:155,1,67.5000025749208
346,47,63505,2,0,L|435:43,1,67.5000025749208
484,176,63690,2,0,P|491:276|435:358,1,202.500007724762
245,283,64060,2,0,B|342:269|342:269|377:278,1,135.000005149842
165,354,64430,1,0,0:0:0:0:
165,354,64616,6,0,P|148:306|119:290,1,67.5000025749208
0,347,64801,2,0,P|50:356|78:339,1,67.5000025749208
88,207,64986,2,0,P|54:245|55:278,1,67.5000025749208
