osu file format v14

[General]
AudioFilename: Meat Beat Mania - FLAMBE!.mp3
AudioLeadIn: 0
PreviewTime: 20465
Countdown: 0
SampleSet: None
StackLeniency: 0.7
Mode: 1
LetterboxInBreaks: 0
WidescreenStoryboard: 1

[Editor]
Bookmarks: 3721,9302,20465,26046,37209,48372,53953,72093
DistanceSpacing: 0.8
BeatDivisor: 4
GridSize: 32
TimelineZoom: 1.9

[Metadata]
Title:Meat Beat Mania: FLAMBE!
TitleUnicode:Meat Beat Mania: FLAMBÉE!
Artist:aivi & surasshu
ArtistUnicode:aivi & surasshu
Creator:mrSimon34
Version:Easy
Source:Steven Universe
Tags:stevenuniverse
BeatmapID:854012
BeatmapSetID:392158

[Difficulty]
HPDrainRate:5
CircleSize:5
OverallDifficulty:5
ApproachRate:5
SliderMultiplier:1.4
SliderTickRate:2

[Events]
//Background and Video events
0,0,"meatbeat.jpg",0,0
//Break Periods
//Storyboard Layer 0 (Background)
//Storyboard Layer 1 (Fail)
//Storyboard Layer 2 (Pass)
//Storyboard Layer 3 (Foreground)
//Storyboard Sound Samples

[TimingPoints]
3720,348.837209302326,4,2,0,100,1,0

[HitObjects]
32,32,3720,5,6,0:0:0:0:
32,352,4417,1,4,0:0:0:0:
96,32,4766,1,4,0:0:0:0:
96,96,5115,5,6,0:0:0:0:
160,32,5813,1,4,0:0:0:0:
160,96,5987,1,4,0:0:0:0:
160,160,6161,1,4,0:0:0:0:
224,32,6510,1,6,0:0:0:0:
224,352,7208,1,4,0:0:0:0:
288,32,7557,1,4,0:0:0:0:
96,192,7906,2,0,L|320:192,1,210
352,96,8603,1,4,0:0:0:0:
96,288,9301,5,4,0:0:0:0:
32,352,9650,1,2,0:0:0:0:
32,288,9999,1,0,0:0:0:0:
32,352,10347,1,2,0:0:0:0:
32,288,10696,5,0,0:0:0:0:
32,288,11045,1,0,0:0:0:0:
32,288,11394,1,0,0:0:0:0:
32,288,11743,1,0,0:0:0:0:
32,288,12092,1,0,0:0:0:0:
32,352,12440,5,2,0:0:0:0:
32,288,12789,2,2,B|160:288|160:288|256:288,1,210
32,288,13487,5,0,0:0:0:0:
32,352,13836,1,2,0:0:0:0:
32,288,14185,1,0,0:0:0:0:
32,288,14534,1,0,0:0:0:0:
96,288,14882,5,4,0:0:0:0:
32,352,15231,1,2,0:0:0:0:
32,288,15580,2,2,B|160:288|160:288|256:288,1,210
32,288,16278,5,0,0:0:0:0:
32,352,16626,1,2,0:0:0:0:
32,288,16975,1,0,0:0:0:0:
32,288,17324,1,0,0:0:0:0:
32,288,17673,5,0,0:0:0:0:
32,352,18022,1,2,0:0:0:0:
32,288,18371,1,0,0:0:0:0:
32,352,18720,1,2,0:0:0:0:
96,192,19068,2,0,L|320:192,1,210
480,192,19766,1,4,0:0:0:0:
32,32,20464,5,6,0:0:0:0:
32,352,21161,1,4,0:0:0:0:
96,32,21510,1,4,0:0:0:0:
96,96,21859,5,6,0:0:0:0:
160,32,22557,1,4,0:0:0:0:
160,96,22731,1,4,0:0:0:0:
160,160,22905,1,4,0:0:0:0:
224,32,23254,1,6,0:0:0:0:
224,352,23952,1,4,0:0:0:0:
96,192,24650,2,0,L|320:192,1,210
352,96,25347,1,4,0:0:0:0:
256,192,26045,5,4,0:0:0:0:
480,192,26394,1,0,0:0:0:0:
480,192,26743,1,0,0:0:0:0:
480,192,27092,1,0,0:0:0:0:
480,192,27440,5,0,0:0:0:0:
480,192,27789,1,0,0:0:0:0:
480,192,28138,1,0,0:0:0:0:
480,192,28487,1,0,0:0:0:0:
480,192,28836,5,0,0:0:0:0:
480,192,29185,1,0,0:0:0:0:
480,192,29534,1,0,0:0:0:0:
480,192,29882,1,0,0:0:0:0:
480,192,30231,5,0,0:0:0:0:
480,192,30580,1,0,0:0:0:0:
480,256,30754,1,2,0:0:0:0:
480,192,30929,1,0,0:0:0:0:
480,256,31103,1,2,0:0:0:0:
480,192,31278,1,0,0:0:0:0:
256,192,31627,5,4,0:0:0:0:
480,192,31975,1,0,0:0:0:0:
480,192,32324,1,0,0:0:0:0:
480,192,32673,1,0,0:0:0:0:
480,192,33022,5,0,0:0:0:0:
480,192,33371,1,0,0:0:0:0:
480,192,33720,1,0,0:0:0:0:
480,192,33894,1,0,0:0:0:0:
480,192,34068,1,0,0:0:0:0:
480,192,34417,5,0,0:0:0:0:
480,192,34766,1,0,0:0:0:0:
480,192,35115,1,0,0:0:0:0:
480,192,35464,1,0,0:0:0:0:
480,192,35813,5,0,0:0:0:0:
480,192,36161,1,0,0:0:0:0:
480,192,36510,1,0,0:0:0:0:
480,192,36859,1,0,0:0:0:0:
480,192,37034,1,0,0:0:0:0:
256,192,37208,5,4,0:0:0:0:
480,192,37557,1,0,0:0:0:0:
320,192,37906,1,6,0:0:0:0:
480,192,38254,1,0,0:0:0:0:
480,192,38603,5,0,0:0:0:0:
480,192,38952,1,0,0:0:0:0:
320,192,39301,1,6,0:0:0:0:
480,192,39650,1,0,0:0:0:0:
480,192,39999,5,0,0:0:0:0:
480,192,40347,1,0,0:0:0:0:
320,192,40696,1,6,0:0:0:0:
480,192,41045,1,0,0:0:0:0:
480,192,41394,5,0,0:0:0:0:
480,192,41743,1,0,0:0:0:0:
320,192,42092,1,6,0:0:0:0:
480,256,42266,1,2,0:0:0:0:
480,192,42440,1,0,0:0:0:0:
480,192,42615,1,0,0:0:0:0:
256,192,42789,5,4,0:0:0:0:
480,192,43138,1,0,0:0:0:0:
320,192,43487,1,6,0:0:0:0:
480,192,43836,1,0,0:0:0:0:
480,192,44185,5,0,0:0:0:0:
480,192,44534,1,0,0:0:0:0:
320,192,44882,1,6,0:0:0:0:
480,192,45231,1,0,0:0:0:0:
480,192,45580,5,0,0:0:0:0:
480,192,45929,1,0,0:0:0:0:
320,192,46278,1,2,0:0:0:0:
480,192,46627,1,0,0:0:0:0:
480,256,46801,1,2,0:0:0:0:
256,192,46975,1,4,0:0:0:0:
32,32,48371,5,6,0:0:0:0:
32,352,49068,1,4,0:0:0:0:
96,32,49417,1,4,0:0:0:0:
96,96,49766,5,6,0:0:0:0:
160,32,50464,1,4,0:0:0:0:
160,96,50638,1,4,0:0:0:0:
160,160,50812,1,4,0:0:0:0:
224,32,51161,1,6,0:0:0:0:
224,352,51859,1,4,0:0:0:0:
96,192,52557,2,0,L|320:192,1,210
352,96,53254,1,4,0:0:0:0:
256,256,53952,5,4,0:0:0:0:
32,96,54475,1,2,0:0:0:0:
256,192,54650,1,6,0:0:0:0:
256,256,55347,5,4,0:0:0:0:
96,96,55609,1,0,0:0:0:0:
96,160,55871,1,0,0:0:0:0:
256,192,56045,1,6,0:0:0:0:
256,256,56917,5,4,0:0:0:0:
256,192,57440,1,6,0:0:0:0:
224,32,57789,5,0,0:0:0:0:
224,160,58138,1,0,0:0:0:0:
224,288,58487,1,0,0:0:0:0:
256,192,58836,1,6,0:0:0:0:
288,224,59185,1,0,0:0:0:0:
288,352,59359,1,0,0:0:0:0:
256,256,59534,5,4,0:0:0:0:
480,256,60057,1,0,0:0:0:0:
256,192,60231,1,6,0:0:0:0:
256,256,60929,5,4,0:0:0:0:
480,128,61452,1,0,0:0:0:0:
256,192,61627,1,6,0:0:0:0:
256,256,62499,5,4,0:0:0:0:
256,256,62760,1,4,0:0:0:0:
256,192,63022,1,6,0:0:0:0:
256,256,63720,5,4,0:0:0:0:
480,128,64068,1,0,0:0:0:0:
256,192,64417,1,6,0:0:0:0:
480,128,64766,1,0,0:0:0:0:
256,256,65115,5,4,0:0:0:0:
480,128,65464,1,0,0:0:0:0:
256,192,65813,1,6,0:0:0:0:
480,128,66161,1,0,0:0:0:0:
256,256,66510,5,4,0:0:0:0:
480,128,66772,1,0,0:0:0:0:
480,128,67034,1,0,0:0:0:0:
480,128,67557,1,0,0:0:0:0:
256,256,67906,5,4,0:0:0:0:
480,128,68254,1,0,0:0:0:0:
480,128,68603,1,0,0:0:0:0:
480,128,68952,1,0,0:0:0:0:
32,192,69301,6,0,L|512:192,1,455
256,256,70696,1,4,0:0:0:0:
96,288,72092,5,4,0:0:0:0:
32,352,72440,1,2,0:0:0:0:
32,288,72790,1,0,0:0:0:0:
32,352,73138,1,2,0:0:0:0:
32,288,73487,5,0,0:0:0:0:
32,288,73836,1,0,0:0:0:0:
32,288,74185,1,0,0:0:0:0:
32,288,74534,1,0,0:0:0:0:
32,288,74883,1,0,0:0:0:0:
32,352,75231,5,2,0:0:0:0:
32,288,75580,2,2,B|160:288|160:288|256:288,1,210
32,288,76278,5,0,0:0:0:0:
32,352,76626,1,2,0:0:0:0:
32,288,76976,1,0,0:0:0:0:
32,288,77325,1,0,0:0:0:0:
96,288,77673,5,4,0:0:0:0:
32,352,78022,1,2,0:0:0:0:
32,288,78371,2,2,B|160:288|160:288|256:288,1,210
32,288,79069,5,0,0:0:0:0:
32,352,79417,1,2,0:0:0:0:
32,288,79766,1,0,0:0:0:0:
32,288,80115,1,0,0:0:0:0:
32,288,80464,5,0,0:0:0:0:
32,352,80813,5,2,0:0:0:0:
32,288,81162,1,0,0:0:0:0:
32,352,81511,1,2,0:0:0:0:
96,192,81859,2,0,L|320:192,1,210
480,192,82557,1,4,0:0:0:0:
