osu file format v5

[General]
AudioFilename: milk.mp3
AudioLeadIn: 0
PreviewTime: -1
Countdown: 1
SampleSet: Normal
StackLeniency: 0.7
Mode: 0
LetterboxInBreaks: 1

[Metadata]
Title:milk
Artist:aiko
Creator:keyway
Version:Normal
Source:milk
Tags:

[Difficulty]
HPDrainRate:6
CircleSize:6
OverallDifficulty:6
SliderMultiplier:1.4
SliderTickRate:1

[Events]
//Background and Video events
0,0,"m_milkEFBC8FE59886E3818DE381AEE382ADE382B920E99990E5AE9AE78988.jpg"
//Break Periods
//Storyboard Layer 0 (Background)
//Storyboard Layer 1 (Failing)
//Storyboard Layer 2 (Passing)
//Storyboard Layer 3 (Foreground)
//Storyboard Sound Samples
//Background Colour Transformations
3,100,163,162,255

[TimingPoints]
2570.4118993135,525.739130434784,4,1,0,100,1,0

[HitObjects]
128,96,25615,6,0,B|428:96,2,280
64,96,28244,1,0
64,160,29032,5,2
128,160,29295,1,2
192,160,29558,1,2
160,96,29821,2,8,B|448:96,1,280
320,160,31398,5,8
384,160,31924,1,8
256,160,32449,2,2,B|256:96|256:96|352:96|352:96|352:96,1,140
448,96,33238,1,2
384,96,33501,1,2
320,96,34290,5,0
256,96,34552,1,0
128,192,35078,2,8,B|192:128|256:192|256:192|256:192,1,140
320,192,35867,1,0
384,192,36130,2,8,B|448:224,4,70
384,128,37466,2,0,B|384:49,3,70
224,96,38758,6,8,B|288:64,1,70
288,128,39547,1,2
288,192,39810,1,2
288,256,40073,2,2,B|64:352,1,227.5
22,276,41212,2,8,B|197:204,1,186.666666666667
193,120,42176,5,8
192,32,42438,2,2,B|448:160,1,280
439,231,43753,1,8
380,293,44016,1,8
320,352,44279,1,8
96,352,44541,2,0,B|256:352,2,140
96,224,45856,1,2
96,288,46119,1,2
256,192,46732,12,8,48835
256,256,49886,5,2
192,160,50149,1,2
320,160,50412,1,2
32,288,50938,6,0,B|160:224,2,140
32,192,52515,1,8
32,96,52778,2,8,B|96:64,1,70
181,64,53567,6,0,B|341:64,1,140,8|0
320,128,54355,1,2
256,128,54618,1,2
192,128,54881,1,2
192,192,55144,6,8,B|416:192,1,210
352,256,56195,2,0,B|128:256,1,210
352,320,57247,2,8,B|272:320,2,70
192,192,58035,1,0
288,192,58561,1,0
384,192,59087,1,0
384,96,59350,6,2,B|224:96|224:96,1,140
352,192,60401,1,0
256,192,60664,1,0
160,192,60927,1,0
88,314,61453,2,2,B|440:58,1,420
478,342,63556,2,8,B|254:342,1,210
53,264,64607,2,8,B|277:264,1,210
263,180,65659,2,0,B|344:180,3,70
352,96,66710,1,8
256,96,66973,1,8
160,96,67236,1,8
63,265,67762,6,2,B|63:192|63:192|63:192|145:192,1,140
192,192,68813,1,8
256,192,69077,1,8
320,192,69339,1,8
384,32,69865,6,2,B|456:32|456:32|456:32|457:116,1,140
458,292,70916,1,8
458,228,71179,1,8
458,164,71442,1,8
32,32,71967,6,0,B|320:32,1,280
288,96,73282,1,2
248,146,73545,1,2
213,211,74070,6,0,B|277:243,1,70,0|0
352,288,74859,1,0
384,96,75385,1,2
448,96,75648,1,2
64,128,76173,6,0,B|88:68|168:88|150:161,1,140
284,147,77225,1,8
348,147,77488,1,8
418,148,77751,1,8
64,320,78276,6,0,B|128:357|175:273|108:239|108:239,1,140
256,224,79328,1,8
320,224,79591,1,8
384,224,79854,1,8
72,217,80379,6,0,B|71:78|71:79|71:79|346:142|346:142,1,420
256,244,82482,6,2,B|199:224|164:178|173:119|233:101|256:164|256:164|285:108|334:124|355:160|317:224|256:244,1,420
224,224,84848,1,0
160,224,85374,1,0
96,192,85637,2,2,B|108:123|204:91|300:123|300:207,1,280
384,288,86951,5,0
448,288,87477,1,0
256,256,87740,2,2,B|228:145|320:96|393:153|416:224,1,280
416,96,89054,1,0
352,64,89317,2,0,B|128:32,2,210
256,128,91157,1,2
192,128,91420,1,2
128,128,91683,1,2
128,256,92208,1,8
288,320,92734,5,8
256,256,92997,1,8
320,256,93260,2,2,B|480:256,1,140
256,192,94311,2,2,B|416:192,1,140
384,128,95100,1,8
320,128,95363,1,8
160,128,95889,1,8
160,192,96151,2,2,B|320:192,1,140
320,256,96940,5,0
384,256,97203,2,8,B|448:288,4,70
320,224,98780,1,0
192,224,99306,1,0
192,160,99569,2,2,B|352:160,1,140
352,96,100357,6,8,B|416:128,8,70
352,192,102986,1,0
256,192,103512,1,0
352,128,104563,5,2
256,128,104826,1,2
160,128,105089,1,2
0,160,105615,6,0,B|512:160,1,490
256,96,107718,1,0
224,177,108769,6,8,B|288:209,2,70
