osu file format v14

[General]
AudioFilename: Jap.mp3
AudioLeadIn: 2
PreviewTime: 90725
Countdown: 0
SampleSet: Soft
StackLeniency: 0.7
Mode: 3
LetterboxInBreaks: 0
SpecialStyle: 0
WidescreenStoryboard: 0

[Editor]
DistanceSpacing: 0.8
BeatDivisor: 4
GridSize: 32
TimelineZoom: 1.8

[Metadata]
Title:JAP
TitleUnicode:JAP
Artist:abingdon boys school
ArtistUnicode:abingdon boys school
Creator:-Troke-
Version:EZ
Source:戦国BASARA
Tags:Opening OP Sengoku Samurai Kings
BeatmapID:543382
BeatmapSetID:234239

[Difficulty]
HPDrainRate:7
CircleSize:4
OverallDifficulty:7
ApproachRate:10
SliderMultiplier:1.4
SliderTickRate:1

[Events]
//Background and Video events
0,0,"background.jpg",0,0
//Break Periods
//Storyboard Layer 0 (Background)
//Storyboard Layer 1 (Fail)
//Storyboard Layer 2 (Pass)
//Storyboard Layer 3 (Foreground)
//Storyboard Sound Samples

[TimingPoints]
3165,299.986500607473,4,2,1,39,1,0
52962,-100,4,2,1,39,0,1
72161,-100,4,2,1,39,0,0
91211,-100,4,2,1,39,0,1
110860,-100,4,2,1,39,0,0

[HitObjects]
64,192,3165,5,0,0:0:0:0:
448,192,3614,1,0,0:0:0:0:
192,192,4064,1,0,0:0:0:0:
64,192,4514,1,0,0:0:0:0:
448,192,4664,1,0,0:0:0:0:
320,192,4964,1,0,0:0:0:0:
192,192,5114,1,0,0:0:0:0:
64,192,5264,1,0,0:0:0:0:
448,192,5564,1,0,0:0:0:0:
192,192,6014,1,0,0:0:0:0:
320,192,6464,1,0,0:0:0:0:
448,192,6914,1,0,0:0:0:0:
64,192,7064,1,0,0:0:0:0:
192,192,7364,1,0,0:0:0:0:
320,192,7514,1,0,0:0:0:0:
192,192,7664,1,0,0:0:0:0:
448,192,7964,1,0,0:0:0:0:
64,192,7964,1,4,0:0:0:0:
320,192,8414,1,0,0:0:0:0:
448,192,8864,1,0,0:0:0:0:
64,192,9314,1,0,0:0:0:0:
320,192,9464,1,0,0:0:0:0:
448,192,9764,1,0,0:0:0:0:
64,192,9914,1,0,0:0:0:0:
320,192,10064,1,0,0:0:0:0:
192,192,10364,1,0,0:0:0:0:
320,192,10814,1,0,0:0:0:0:
448,192,11114,1,0,0:0:0:0:
64,192,11264,1,0,0:0:0:0:
192,192,11714,1,0,0:0:0:0:
448,192,11864,1,0,0:0:0:0:
64,192,12164,1,0,0:0:0:0:
320,192,12314,1,0,0:0:0:0:
192,192,12464,1,0,0:0:0:0:
320,192,12764,1,0,0:0:0:0:
448,192,12764,1,0,0:0:0:0:
192,192,13214,1,0,0:0:0:0:
64,192,13664,1,0,0:0:0:0:
320,192,14114,1,0,0:0:0:0:
192,192,14264,1,0,0:0:0:0:
64,192,14564,1,0,0:0:0:0:
192,192,14714,1,0,0:0:0:0:
448,192,14864,1,0,0:0:0:0:
64,192,15164,1,0,0:0:0:0:
320,192,15614,1,0,0:0:0:0:
192,192,16064,1,0,0:0:0:0:
64,192,16664,128,0,17564:0:0:0:0:
448,192,16664,1,0,0:0:0:0:
192,192,16964,1,0,0:0:0:0:
448,192,17264,1,0,0:0:0:0:
320,192,17564,128,0,18014:0:0:0:0:
448,192,18014,1,0,0:0:0:0:
64,192,18464,1,0,0:0:0:0:
448,192,18914,1,0,0:0:0:0:
192,192,19364,128,0,19664:0:0:0:0:
64,192,19664,1,0,0:0:0:0:
320,192,19964,1,0,0:0:0:0:
64,192,20414,1,0,0:0:0:0:
192,192,20864,1,0,0:0:0:0:
448,192,21314,1,0,0:0:0:0:
64,192,21464,1,0,0:0:0:0:
320,192,21614,1,0,0:0:0:0:
192,192,21764,1,0,0:0:0:0:
192,192,22064,1,0,0:0:0:0:
320,192,22364,1,0,0:0:0:0:
448,192,22664,1,0,0:0:0:0:
64,192,23264,1,0,0:0:0:0:
448,192,23714,1,0,0:0:0:0:
192,192,24164,1,0,0:0:0:0:
448,192,24464,1,0,0:0:0:0:
320,192,24764,128,0,25064:0:0:0:0:
192,192,25064,1,0,0:0:0:0:
64,192,25364,1,0,0:0:0:0:
192,192,25663,1,0,0:0:0:0:
320,192,25963,1,0,0:0:0:0:
192,192,26263,1,0,0:0:0:0:
64,192,26563,1,0,0:0:0:0:
448,192,26563,1,0,0:0:0:0:
64,192,26863,1,0,0:0:0:0:
448,192,26863,1,0,0:0:0:0:
192,192,27163,1,4,0:0:0:0:
320,192,27613,1,0,0:0:0:0:
448,192,28063,1,0,0:0:0:0:
64,192,28513,1,0,0:0:0:0:
192,192,28963,1,0,0:0:0:0:
64,192,29263,1,0,0:0:0:0:
448,192,29563,1,0,0:0:0:0:
320,192,30013,1,0,0:0:0:0:
448,192,30463,1,0,0:0:0:0:
64,192,30913,1,0,0:0:0:0:
320,192,31363,1,0,0:0:0:0:
64,192,31663,1,0,0:0:0:0:
448,192,31663,1,0,0:0:0:0:
192,192,31963,1,0,0:0:0:0:
64,192,32263,1,0,0:0:0:0:
320,192,32413,1,0,0:0:0:0:
192,192,32563,1,0,0:0:0:0:
64,192,32863,1,0,0:0:0:0:
192,192,33013,1,0,0:0:0:0:
448,192,33163,1,0,0:0:0:0:
192,192,33463,1,0,0:0:0:0:
320,192,33763,1,0,0:0:0:0:
192,192,34063,1,0,0:0:0:0:
448,192,34363,1,0,0:0:0:0:
320,192,34363,1,4,0:0:0:0:
64,192,34813,1,0,0:0:0:0:
192,192,35263,1,0,0:0:0:0:
320,192,35563,1,0,0:0:0:0:
64,192,35863,1,0,0:0:0:0:
448,192,36013,1,0,0:0:0:0:
192,192,36313,1,0,0:0:0:0:
64,0,36763,128,0,37213:1:0:0:0:
320,192,36763,1,4,0:0:0:0:
448,0,37213,128,0,37663:1:0:0:0:
192,192,37663,1,0,0:0:0:0:
64,192,37963,1,0,0:0:0:0:
192,192,38263,1,0,0:0:0:0:
320,192,38563,1,0,0:0:0:0:
448,192,38863,1,0,0:0:0:0:
320,0,39163,128,0,39613:1:0:0:0:
192,192,39163,1,4,0:0:0:0:
64,0,39613,128,0,40063:1:0:0:0:
448,192,40063,1,4,0:0:0:0:
192,192,40663,1,0,0:0:0:0:
320,192,40963,1,0,0:0:0:0:
448,192,41263,1,0,0:0:0:0:
64,0,41563,128,0,42013:1:0:0:0:
320,192,41563,1,4,0:0:0:0:
448,0,42013,128,0,42463:1:0:0:0:
192,192,42463,1,0,0:0:0:0:
64,192,42763,1,0,0:0:0:0:
192,192,43063,1,0,0:0:0:0:
320,192,43363,1,0,0:0:0:0:
64,192,43663,1,0,0:0:0:0:
448,0,43963,128,0,44413:1:0:0:0:
64,0,44413,128,0,44863:1:0:0:0:
448,192,44863,1,4,0:0:0:0:
448,192,45463,1,0,0:0:0:0:
320,192,45763,1,0,0:0:0:0:
192,192,46063,1,0,0:0:0:0:
64,0,46363,128,0,46813:1:0:0:0:
320,192,46363,1,4,0:0:0:0:
448,0,46813,128,0,47263:1:0:0:0:
192,192,47263,1,0,0:0:0:0:
320,192,47563,1,0,0:0:0:0:
64,192,48012,1,0,0:0:0:0:
320,192,48462,1,0,0:0:0:0:
192,0,48762,128,0,49212:1:0:0:0:
320,0,49212,128,0,49662:1:0:0:0:
448,192,49662,1,0,0:0:0:0:
64,192,49662,1,0,0:0:0:0:
192,192,50262,1,0,0:0:0:0:
448,192,50262,1,0,0:0:0:0:
320,192,50862,1,0,0:0:0:0:
64,192,51162,128,0,52362:0:0:0:0:
448,192,51162,1,0,0:0:0:0:
320,192,51462,1,0,0:0:0:0:
320,192,51762,1,0,0:0:0:0:
320,192,52062,1,0,0:0:0:0:
448,192,52362,1,0,0:0:0:0:
64,192,52962,1,0,0:0:0:0:
320,192,52962,1,4,0:0:0:0:
192,192,53262,1,0,0:0:0:0:
64,192,53562,1,0,0:0:0:0:
320,192,53862,1,0,0:0:0:0:
192,192,54162,1,0,0:0:0:0:
448,192,54462,1,0,0:0:0:0:
64,192,54762,1,0,0:0:0:0:
192,192,55062,1,0,0:0:0:0:
320,192,55362,1,0,0:0:0:0:
448,192,55662,1,0,0:0:0:0:
192,192,55962,1,0,0:0:0:0:
320,192,56262,1,0,0:0:0:0:
448,192,56562,1,0,0:0:0:0:
320,192,56862,1,0,0:0:0:0:
192,192,56862,1,0,0:0:0:0:
64,192,57162,1,0,0:0:0:0:
320,192,57462,1,0,0:0:0:0:
192,192,57462,1,0,0:0:0:0:
448,192,57762,1,0,0:0:0:0:
320,192,58062,1,0,0:0:0:0:
448,192,58362,1,0,0:0:0:0:
64,192,58662,1,0,0:0:0:0:
192,192,58962,1,0,0:0:0:0:
320,192,59262,1,0,0:0:0:0:
448,192,59562,1,0,0:0:0:0:
192,192,59862,1,0,0:0:0:0:
448,192,60162,1,0,0:0:0:0:
64,192,60162,1,0,0:0:0:0:
320,192,60462,1,0,0:0:0:0:
448,192,60762,1,0,0:0:0:0:
64,192,61062,1,0,0:0:0:0:
448,192,61362,1,0,0:0:0:0:
320,192,61362,1,0,0:0:0:0:
192,192,61662,1,0,0:0:0:0:
448,192,61962,1,0,0:0:0:0:
320,192,62262,1,0,0:0:0:0:
448,192,62562,1,0,0:0:0:0:
192,192,62562,1,4,0:0:0:0:
64,192,62862,1,0,0:0:0:0:
192,192,63162,1,0,0:0:0:0:
64,192,63462,1,0,0:0:0:0:
320,192,63762,1,0,0:0:0:0:
192,192,64062,1,0,0:0:0:0:
448,192,64362,1,0,0:0:0:0:
64,192,64662,1,0,0:0:0:0:
192,192,64962,1,0,0:0:0:0:
64,192,65262,1,0,0:0:0:0:
448,192,65562,1,0,0:0:0:0:
64,192,65862,1,0,0:0:0:0:
320,192,66162,1,0,0:0:0:0:
64,192,66462,1,0,0:0:0:0:
448,192,66462,1,0,0:0:0:0:
64,192,67062,1,0,0:0:0:0:
448,192,67062,1,0,0:0:0:0:
320,192,67362,1,0,0:0:0:0:
448,192,67662,1,0,0:0:0:0:
64,192,67962,1,0,0:0:0:0:
192,192,68262,1,0,0:0:0:0:
320,192,68562,1,0,0:0:0:0:
448,192,68862,1,0,0:0:0:0:
192,192,69162,1,0,0:0:0:0:
448,192,69462,1,0,0:0:0:0:
64,192,69762,1,0,0:0:0:0:
320,192,69762,1,4,0:0:0:0:
448,192,70061,1,0,0:0:0:0:
64,192,70361,1,0,0:0:0:0:
320,192,70361,1,4,0:0:0:0:
192,192,70661,1,0,0:0:0:0:
320,192,70961,1,0,0:0:0:0:
448,192,70961,1,4,0:0:0:0:
192,192,71261,1,0,0:0:0:0:
64,192,71561,1,0,0:0:0:0:
320,192,71861,1,0,0:0:0:0:
448,0,72161,128,0,72461:1:0:0:0:
64,192,72461,1,0,0:0:0:0:
192,192,72761,1,0,0:0:0:0:
64,192,73061,1,0,0:0:0:0:
320,0,73361,128,0,73961:1:0:0:0:
192,192,73961,1,0,0:0:0:0:
448,192,74261,1,0,0:0:0:0:
320,192,74561,1,0,0:0:0:0:
64,0,74711,128,0,75161:1:0:0:0:
448,192,75161,1,0,0:0:0:0:
192,192,75461,1,0,0:0:0:0:
320,192,75761,1,0,0:0:0:0:
64,192,76061,1,0,0:0:0:0:
448,192,76361,1,0,0:0:0:0:
192,192,76661,1,0,0:0:0:0:
64,192,76961,1,0,0:0:0:0:
320,192,76961,1,4,0:0:0:0:
192,192,77261,1,0,0:0:0:0:
320,192,77561,1,0,0:0:0:0:
192,192,77861,1,0,0:0:0:0:
320,192,78161,1,0,0:0:0:0:
448,192,78461,1,0,0:0:0:0:
64,192,78761,1,0,0:0:0:0:
320,192,79061,1,0,0:0:0:0:
192,192,79361,1,0,0:0:0:0:
448,192,79361,1,4,0:0:0:0:
320,192,79661,1,0,0:0:0:0:
192,192,79961,1,0,0:0:0:0:
448,192,80261,1,0,0:0:0:0:
64,192,80561,1,0,0:0:0:0:
192,192,80861,1,0,0:0:0:0:
64,192,81161,1,0,0:0:0:0:
320,192,81461,1,0,0:0:0:0:
64,192,81761,128,0,82211:0:0:0:0:
448,192,81761,1,0,0:0:0:0:
192,192,82211,128,0,83561:0:0:0:0:
320,192,83561,128,0,84161:0:0:0:0:
192,0,84161,128,0,84611:1:0:0:0:
320,0,84611,128,0,85061:1:0:0:0:
64,192,85061,128,0,85661:0:0:0:0:
192,192,85661,128,0,85961:0:0:0:0:
448,192,85961,128,0,86861:0:0:0:0:
64,192,86861,128,0,87161:0:0:0:0:
192,0,87161,128,0,88061:1:0:0:0:
320,192,88061,128,0,88361:0:0:0:0:
448,192,88361,128,0,88961:0:0:0:0:
192,192,88961,1,0,0:0:0:0:
320,192,89261,1,0,0:0:0:0:
192,192,89411,1,0,0:0:0:0:
448,192,89861,1,0,0:0:0:0:
64,192,90161,1,0,0:0:0:0:
320,192,90311,1,0,0:0:0:0:
192,192,90461,1,0,0:0:0:0:
448,0,90761,128,0,91211:1:0:0:0:
320,192,90761,1,4,0:0:0:0:
192,192,91211,1,4,0:0:0:0:
64,192,91661,1,0,0:0:0:0:
448,192,91961,1,0,0:0:0:0:
192,192,92260,1,0,0:0:0:0:
320,192,92560,1,0,0:0:0:0:
192,192,92860,1,0,0:0:0:0:
448,192,93160,1,0,0:0:0:0:
64,192,93460,1,0,0:0:0:0:
192,192,93760,1,0,0:0:0:0:
64,192,94060,1,0,0:0:0:0:
448,192,94360,1,0,0:0:0:0:
192,192,94660,1,0,0:0:0:0:
64,192,94960,1,0,0:0:0:0:
192,192,95260,1,0,0:0:0:0:
448,192,95560,1,0,0:0:0:0:
64,192,95860,1,0,0:0:0:0:
192,192,96160,1,0,0:0:0:0:
320,192,96460,1,0,0:0:0:0:
448,192,96760,1,0,0:0:0:0:
192,192,97060,1,0,0:0:0:0:
448,192,97360,1,0,0:0:0:0:
64,192,97660,1,0,0:0:0:0:
192,192,97960,1,0,0:0:0:0:
448,192,98260,1,0,0:0:0:0:
192,192,98560,1,0,0:0:0:0:
64,192,98860,1,0,0:0:0:0:
320,192,99160,1,0,0:0:0:0:
192,192,99460,1,0,0:0:0:0:
448,192,99760,1,0,0:0:0:0:
64,192,100060,1,0,0:0:0:0:
192,192,100360,1,0,0:0:0:0:
448,192,100660,1,0,0:0:0:0:
320,192,100960,1,0,0:0:0:0:
192,192,101260,1,0,0:0:0:0:
448,192,101260,1,8,0:0:0:0:
320,192,101560,1,0,0:0:0:0:
64,192,101860,1,0,0:0:0:0:
192,192,102160,1,0,0:0:0:0:
320,192,102460,1,0,0:0:0:0:
448,192,102760,1,0,0:0:0:0:
192,192,103060,1,0,0:0:0:0:
320,192,103360,1,0,0:0:0:0:
64,192,103660,1,0,0:0:0:0:
448,192,103960,1,0,0:0:0:0:
320,192,104260,1,0,0:0:0:0:
64,192,104560,1,0,0:0:0:0:
320,192,104860,1,0,0:0:0:0:
448,192,105160,1,0,0:0:0:0:
192,192,105460,1,0,0:0:0:0:
320,192,105760,1,0,0:0:0:0:
64,192,106060,1,0,0:0:0:0:
192,192,106360,1,0,0:0:0:0:
320,192,106660,1,0,0:0:0:0:
448,192,106960,1,0,0:0:0:0:
64,192,107260,1,0,0:0:0:0:
320,192,107560,1,0,0:0:0:0:
448,192,107860,1,0,0:0:0:0:
192,192,108160,1,0,0:0:0:0:
64,192,108460,1,0,0:0:0:0:
320,192,108760,1,0,0:0:0:0:
64,192,109060,1,0,0:0:0:0:
320,192,109360,1,0,0:0:0:0:
192,192,109660,1,0,0:0:0:0:
448,192,109960,1,0,0:0:0:0:
64,192,110110,128,0,110560:0:0:0:0:
320,192,110560,1,0,0:0:0:0:
192,192,110860,1,0,0:0:0:0:
448,192,111160,1,0,0:0:0:0:
320,192,111460,1,0,0:0:0:0:
64,192,111760,1,0,0:0:0:0:
320,192,112060,1,0,0:0:0:0:
448,192,112360,1,0,0:0:0:0:
320,192,112660,1,0,0:0:0:0:
64,192,112960,1,0,0:0:0:0:
192,192,113260,1,0,0:0:0:0:
320,192,113560,1,0,0:0:0:0:
192,192,113860,1,0,0:0:0:0:
64,192,114160,1,0,0:0:0:0:
192,192,114459,1,0,0:0:0:0:
320,192,114759,1,0,0:0:0:0:
192,192,115059,1,0,0:0:0:0:
448,192,115359,1,0,0:0:0:0:
192,192,115659,1,0,0:0:0:0:
320,192,115959,1,0,0:0:0:0:
64,192,116259,1,0,0:0:0:0:
320,192,116559,1,0,0:0:0:0:
192,192,116859,1,0,0:0:0:0:
320,192,117159,1,0,0:0:0:0:
64,192,117459,1,0,0:0:0:0:
192,192,117759,1,0,0:0:0:0:
320,192,118059,1,0,0:0:0:0:
448,192,118359,1,0,0:0:0:0:
192,192,118659,1,0,0:0:0:0:
448,192,118959,1,0,0:0:0:0:
320,192,119259,1,0,0:0:0:0:
192,192,119559,1,0,0:0:0:0:
320,192,119859,1,0,0:0:0:0:
448,192,120159,1,0,0:0:0:0:
192,192,120159,1,0,0:0:0:0:
320,192,120459,1,0,0:0:0:0:
64,192,120759,1,0,0:0:0:0:
192,192,121059,1,0,0:0:0:0:
320,192,121359,1,0,0:0:0:0:
448,192,121659,1,0,0:0:0:0:
64,192,121959,1,0,0:0:0:0:
192,192,122259,1,0,0:0:0:0:
320,192,122559,1,0,0:0:0:0:
64,192,122859,1,0,0:0:0:0:
448,192,123159,1,0,0:0:0:0:
192,192,123459,1,0,0:0:0:0:
320,192,123759,1,0,0:0:0:0:
64,192,124059,1,0,0:0:0:0:
448,192,124359,1,0,0:0:0:0:
192,192,124659,1,0,0:0:0:0:
320,192,124959,1,0,0:0:0:0:
192,192,125259,1,0,0:0:0:0:
448,192,125559,1,0,0:0:0:0:
320,192,125859,1,0,0:0:0:0:
64,192,126159,1,0,0:0:0:0:
192,192,126459,1,0,0:0:0:0:
448,192,126759,1,0,0:0:0:0:
320,192,127059,1,0,0:0:0:0:
64,192,127359,1,0,0:0:0:0:
448,192,127359,1,0,0:0:0:0:
192,192,127659,1,0,0:0:0:0:
448,192,127959,1,0,0:0:0:0:
320,192,128259,1,0,0:0:0:0:
192,192,128559,1,0,0:0:0:0:
320,192,128859,1,0,0:0:0:0:
192,192,129159,1,0,0:0:0:0:
320,192,129459,1,0,0:0:0:0:
64,192,129759,1,4,0:0:0:0:
448,192,129759,1,0,0:0:0:0:
320,192,130059,1,0,0:0:0:0:
448,192,130359,1,0,0:0:0:0:
192,192,130359,1,0,0:0:0:0:
64,192,130659,1,0,0:0:0:0:
192,192,130959,1,0,0:0:0:0:
320,192,131259,1,0,0:0:0:0:
64,192,131259,1,0,0:0:0:0:
448,192,131559,1,0,0:0:0:0:
64,192,131859,1,0,0:0:0:0:
448,192,132159,1,0,0:0:0:0:
320,192,132159,1,0,0:0:0:0:
192,192,132459,1,0,0:0:0:0:
448,192,132759,1,0,0:0:0:0:
64,192,132759,1,0,0:0:0:0:
64,192,133059,1,0,0:0:0:0:
448,192,133059,1,0,0:0:0:0:
64,192,133659,1,0,0:0:0:0:
448,192,133659,1,0,0:0:0:0:
64,192,134259,1,0,0:0:0:0:
448,192,134259,1,0,0:0:0:0:
