osu file format v14

[General]
AudioFilename: synesth.mp3
AudioLeadIn: 0
PreviewTime: 186390
Countdown: 1
SampleSet: None
StackLeniency: 0.7
Mode: 0
LetterboxInBreaks: 1
WidescreenStoryboard: 0

[Editor]
DistanceSpacing: 1
BeatDivisor: 4
GridSize: 4
TimelineZoom: 1

[Metadata]
Title:Synesthesia
TitleUnicode:Synesthesia
Artist:a_hisa
ArtistUnicode:a_hisa
Creator:lahphnya
Version:Arles
Source:
Tags:
BeatmapID:765018
BeatmapSetID:346591

[Difficulty]
HPDrainRate:4
CircleSize:4
OverallDifficulty:8
ApproachRate:10
SliderMultiplier:2
SliderTickRate:1

[Events]
//Background and Video events
0,0,"Konachan.com - 204509 dress grass idolmaster idolmaster_cinderella_girls long_hair night petals shimamura_uzuki yakka.jpg",0,0
//Break Periods
//Storyboard Layer 0 (Background)
//Storyboard Layer 1 (Fail)
//Storyboard Layer 2 (Pass)
//Storyboard Layer 3 (Foreground)
//Storyboard Sound Samples

[TimingPoints]
390.013513513514,315.789473684211,4,1,0,50,1,0
1653,-133.333333333333,4,1,0,50,0,0
21863,-111.111111111111,4,1,0,50,0,0
31968,-100,4,1,0,50,0,0
72390,-90.9090909090909,4,1,0,50,0,0
133021,-133.333333333333,4,1,0,50,0,0
143126,-86.9565217391304,4,1,0,50,0,0
173442,-83.3333333333333,4,1,0,50,0,0
193653,-74.0740740740741,4,1,0,50,0,0
203758,-66.6666666666667,4,1,0,50,0,0

[HitObjects]
364,132,1653,6,0,B|380:196|380:196|364:232|360:292,1,150.000005722046
304,360,2126,1,0,0:0:0:0:
304,360,2442,1,0,0:0:0:0:
192,324,2600,2,0,B|184:280|184:280|192:248|192:248|192:208|180:160,1,150.000005722046
248,64,3232,5,0,0:0:0:0:
192,152,3547,1,0,0:0:0:0:
292,164,3863,1,0,0:0:0:0:
248,64,4179,6,0,B|208:60|208:60|176:76|136:72|136:72|176:116,1,150.000005722046
252,168,4653,1,0,0:0:0:0:
252,168,4968,1,0,0:0:0:0:
352,188,5126,2,0,P|352:256|356:348,1,150.000005722046
104,252,6705,6,0,B|96:212|96:212|108:164|104:96,1,150.000005722046
196,48,7179,2,0,P|248:40|324:112,1,150.000005722046
320,204,7653,1,0,0:0:0:0:
320,204,8126,5,0,0:0:0:0:
408,164,8284,2,0,P|408:108|400:68,1,75.0000028610231
292,172,8600,2,0,P|300:244|316:272,1,75.0000028610231
388,300,8916,2,0,P|440:296|472:280,1,75.0000028610231
348,168,9232,6,0,P|292:164|252:176,1,75.0000028610231
184,224,9547,1,0,0:0:0:0:
296,348,9705,2,0,P|304:264|304:164,1,150.000005722046
256,104,10179,1,0,0:0:0:0:
136,232,11758,6,0,P|128:280|148:312,1,75.0000028610231
248,280,12074,1,0,0:0:0:0:
332,364,12232,1,0,0:0:0:0:
412,284,12390,2,0,P|416:216|408:192,1,75.0000028610231
320,148,12705,1,0,0:0:0:0:
320,148,13337,5,0,0:0:0:0:
236,212,13495,1,0,0:0:0:0:
392,196,13653,1,0,0:0:0:0:
200,124,13811,1,0,0:0:0:0:
336,68,13968,2,0,P|344:120|336:164,1,75.0000028610231
320,260,14284,6,0,B|276:272|276:272|248:264|248:264|204:280|156:268,1,150.000005722046
48,136,14758,1,0,0:0:0:0:
60,152,15074,1,0,0:0:0:0:
148,212,15232,1,0,0:0:0:0:
336,92,16811,6,0,B|348:132|348:132|352:176|352:176|344:212|348:264,1,150.000005722046
340,336,17284,1,0,0:0:0:0:
248,284,17442,1,0,0:0:0:0:
164,336,17600,1,0,0:0:0:0:
80,288,17758,2,0,P|64:232|64:196,1,75.0000028610231
164,72,18074,5,0,0:0:0:0:
240,160,18232,1,0,0:0:0:0:
240,160,18311,1,0,0:0:0:0:
240,160,18390,2,0,P|244:220|224:248,1,75.0000028610231
368,60,18705,2,0,L|392:232,1,150.000005722046
332,332,19337,5,0,0:0:0:0:
400,268,19495,1,0,0:0:0:0:
180,224,19653,1,0,0:0:0:0:
184,320,19811,2,0,P|112:316|56:232,1,150.000005722046
256,160,20284,1,0,0:0:0:0:
348,120,21863,6,0,P|352:184|352:240,1,89.9999972534181
212,176,22179,1,0,0:0:0:0:
252,316,22337,1,0,0:0:0:0:
252,316,22416,1,0,0:0:0:0:
252,316,22495,1,0,0:0:0:0:
272,84,22653,1,0,0:0:0:0:
132,256,22811,2,0,P|76:252|32:216,1,89.9999972534181
124,152,23126,6,0,P|184:156|228:196,1,89.9999972534181
272,344,23442,1,0,0:0:0:0:
336,124,23600,1,0,0:0:0:0:
376,116,23679,1,0,0:0:0:0:
416,124,23758,1,0,0:0:0:0:
452,140,23837,1,0,0:0:0:0:
480,172,23916,1,0,0:0:0:0:
424,304,24074,1,0,0:0:0:0:
284,252,24232,1,0,0:0:0:0:
176,336,24390,6,0,P|124:344|64:312,1,89.9999972534181
176,192,24705,1,0,0:0:0:0:
328,332,24863,1,0,0:0:0:0:
368,344,24942,1,0,0:0:0:0:
408,344,25021,1,0,0:0:0:0:
448,332,25100,1,0,0:0:0:0:
480,308,25179,1,0,0:0:0:0:
68,312,25337,1,0,0:0:0:0:
80,124,25495,1,0,0:0:0:0:
192,368,25653,6,0,P|196:304|176:240,1,89.9999972534181
308,132,25968,2,0,P|384:116|400:124,1,89.9999972534181
408,288,26284,2,0,P|352:300|316:292,1,89.9999972534181
228,264,26521,1,0,0:0:0:0:
176,256,26600,2,0,P|128:248|64:288,1,89.9999972534181
424,160,26916,5,0,0:0:0:0:
208,144,27074,1,0,0:0:0:0:
244,348,27232,1,0,0:0:0:0:
336,68,27390,1,0,0:0:0:0:
344,324,27547,1,0,0:0:0:0:
188,48,27705,1,0,0:0:0:0:
188,48,27784,1,0,0:0:0:0:
188,48,27863,2,0,P|116:44|72:72,1,89.9999972534181
32,188,28179,6,0,P|96:200|144:180,1,89.9999972534181
260,116,28495,1,0,0:0:0:0:
432,312,28653,1,0,0:0:0:0:
432,312,28732,1,0,0:0:0:0:
432,312,28811,1,0,0:0:0:0:
260,116,28968,1,0,0:0:0:0:
80,312,29126,2,0,B|48:276|48:276|32:224,1,89.9999972534181
192,148,29442,6,0,B|191:209|196:244|196:244|168:288|180:336,1,179.999994506836
364,196,29916,1,0,0:0:0:0:
364,196,29995,1,0,0:0:0:0:
364,196,30074,2,0,P|424:184|472:212,1,89.9999972534181
48,184,30390,1,0,0:0:0:0:
256,152,30547,1,0,0:0:0:0:
180,352,30705,5,0,0:0:0:0:
180,352,31021,6,0,P|164:296|176:240,1,89.9999972534181
440,184,31337,2,0,P|448:224|440:248,1,44.999998626709
368,312,31495,2,0,P|324:320|304:316,1,44.999998626709
232,244,31653,2,0,P|168:236|120:256,1,89.9999972534181
32,324,31968,5,0,0:0:0:0:
80,108,32126,1,0,0:0:0:0:
180,344,32284,1,0,0:0:0:0:
232,112,32442,1,0,0:0:0:0:
232,112,32521,1,0,0:0:0:0:
232,112,32600,1,0,0:0:0:0:
28,208,32758,1,0,0:0:0:0:
192,360,32916,2,0,P|272:360|308:340,1,100
376,252,33232,6,0,P|464:244|496:272,1,100
20,224,33547,1,0,0:0:0:0:
256,48,33705,1,0,0:0:0:0:
256,92,33784,1,0,0:0:0:0:
256,136,33863,1,0,0:0:0:0:
256,180,33942,1,0,0:0:0:0:
256,224,34021,1,0,0:0:0:0:
124,136,34179,1,0,0:0:0:0:
352,312,34337,1,0,0:0:0:0:
392,32,34495,6,0,P|336:24|268:56,1,100
168,352,34811,1,0,0:0:0:0:
172,72,34968,1,0,0:0:0:0:
292,344,35126,1,0,0:0:0:0:
48,232,35284,1,0,0:0:0:0:
48,232,35363,1,0,0:0:0:0:
48,232,35442,1,0,0:0:0:0:
360,120,35600,1,0,0:0:0:0:
180,152,35758,5,0,0:0:0:0:
456,184,35916,1,0,0:0:0:0:
256,28,36074,2,0,L|256:160,1,100
168,336,36390,1,0,0:0:0:0:
128,152,36547,1,0,0:0:0:0:
316,112,36705,1,0,0:0:0:0:
352,304,36863,1,0,0:0:0:0:
192,48,37021,5,0,0:0:0:0:
276,368,37179,1,0,0:0:0:0:
276,368,37258,1,0,0:0:0:0:
276,368,37337,1,0,0:0:0:0:
324,96,37495,1,0,0:0:0:0:
144,240,37653,2,0,P|76:248|8:232,1,100
8,120,37968,2,0,P|64:120|112:152,1,100
252,360,38284,6,0,P|256:296|248:248,1,100
240,48,38600,1,0,0:0:0:0:
460,144,38758,1,0,0:0:0:0:
464,188,38837,1,0,0:0:0:0:
452,232,38916,1,0,0:0:0:0:
420,264,38995,1,0,0:0:0:0:
376,276,39074,1,0,0:0:0:0:
172,224,39232,1,0,0:0:0:0:
376,176,39390,1,0,0:0:0:0:
364,356,39547,5,0,0:0:0:0:
316,64,39705,1,0,0:0:0:0:
248,336,39863,1,0,0:0:0:0:
164,92,40021,1,0,0:0:0:0:
164,92,40100,1,0,0:0:0:0:
164,92,40179,1,0,0:0:0:0:
56,256,40337,1,0,0:0:0:0:
232,372,40495,2,0,P|228:296|224:252,1,100
280,24,40811,5,0,0:0:0:0:
424,160,40968,1,0,0:0:0:0:
436,204,41047,1,0,0:0:0:0:
432,248,41126,1,0,0:0:0:0:
248,360,41284,1,0,0:0:0:0:
236,316,41363,1,0,0:0:0:0:
240,272,41442,1,0,0:0:0:0:
316,116,41600,1,0,0:0:0:0:
272,112,41679,1,0,0:0:0:0:
228,116,41758,1,0,0:0:0:0:
184,124,41837,1,0,0:0:0:0:
140,140,41916,1,0,0:0:0:0:
100,160,41995,1,0,0:0:0:0:
60,180,42074,5,0,0:0:0:0:
188,232,42232,1,0,0:0:0:0:
32,80,42390,1,0,0:0:0:0:
124,316,42547,2,0,P|60:336|28:324,1,100
256,44,42863,1,0,0:0:0:0:
452,148,43021,1,0,0:0:0:0:
468,188,43100,1,0,0:0:0:0:
468,232,43179,1,0,0:0:0:0:
452,276,43258,1,0,0:0:0:0:
416,304,43337,5,0,0:0:0:0:
32,212,43495,2,0,P|96:204|128:232,1,100
236,332,43811,1,0,0:0:0:0:
340,124,43968,1,0,0:0:0:0:
344,372,44126,1,0,0:0:0:0:
256,36,44284,1,0,0:0:0:0:
136,328,44442,1,0,0:0:0:0:
352,248,44600,6,0,P|352:176|336:132,1,100
464,44,44916,1,0,0:0:0:0:
272,72,45074,1,0,0:0:0:0:
228,80,45153,1,0,0:0:0:0:
184,76,45232,1,0,0:0:0:0:
24,36,45390,1,0,0:0:0:0:
204,24,45547,2,0,P|212:88|204:180,1,150
184,256,45863,5,0,0:0:0:0:
60,216,46021,2,0,P|52:284|84:340,1,100
220,360,46337,1,0,0:0:0:0:
264,348,46416,1,0,0:0:0:0:
308,336,46495,1,0,0:0:0:0:
352,328,46574,1,0,0:0:0:0:
396,316,46653,1,0,0:0:0:0:
28,160,46811,1,0,0:0:0:0:
316,144,46968,1,0,0:0:0:0:
84,64,47126,5,0,0:0:0:0:
200,328,47284,1,0,0:0:0:0:
232,16,47442,1,0,0:0:0:0:
60,276,47600,1,0,0:0:0:0:
296,352,47758,2,0,P|376:352|424:332,1,100
464,296,47995,1,0,0:0:0:0:
464,296,48074,1,0,0:0:0:0:
360,116,48232,1,0,0:0:0:0:
260,252,48390,6,0,P|256:320|272:368,1,100
308,364,48626,1,0,0:0:0:0:
352,360,48705,1,0,0:0:0:0:
392,340,48784,1,0,0:0:0:0:
412,300,48863,1,0,0:0:0:0:
56,232,49021,1,0,0:0:0:0:
148,372,49179,1,0,0:0:0:0:
232,20,49337,1,0,0:0:0:0:
220,280,49495,1,0,0:0:0:0:
56,124,49653,5,0,0:0:0:0:
384,160,49811,1,0,0:0:0:0:
212,376,49968,1,0,0:0:0:0:
168,72,50126,1,0,0:0:0:0:
168,72,50205,1,0,0:0:0:0:
168,72,50284,2,0,L|280:44,1,100
488,320,50600,2,0,L|380:344,1,100
228,164,50916,5,0,0:0:0:0:
280,352,51074,1,0,0:0:0:0:
296,44,51232,1,0,0:0:0:0:
180,320,51390,1,0,0:0:0:0:
424,60,51547,1,0,0:0:0:0:
452,352,51705,1,0,0:0:0:0:
452,352,51784,1,0,0:0:0:0:
452,352,51863,1,0,0:0:0:0:
116,96,52021,1,0,0:0:0:0:
164,296,52179,6,0,P|100:316|40:300,1,100
280,176,52495,2,0,P|340:168|400:204,1,100
448,256,52732,1,0,0:0:0:0:
468,232,52811,2,0,P|472:164|464:108,1,100
216,172,53126,1,0,0:0:0:0:
248,368,53284,1,0,0:0:0:0:
304,52,53442,5,0,0:0:0:0:
368,332,53600,1,0,0:0:0:0:
412,340,53679,1,0,0:0:0:0:
456,328,53758,1,0,0:0:0:0:
448,160,53916,1,0,0:0:0:0:
404,156,53995,1,0,0:0:0:0:
360,164,54074,1,0,0:0:0:0:
316,176,54153,1,0,0:0:0:0:
276,196,54232,1,0,0:0:0:0:
148,360,54390,2,0,L|32:344,1,100
420,248,54705,5,0,0:0:0:0:
232,360,54863,1,0,0:0:0:0:
112,92,55021,1,0,0:0:0:0:
328,16,55179,1,0,0:0:0:0:
328,16,55258,1,0,0:0:0:0:
328,16,55337,2,0,P|340:80|336:132,1,100
216,204,55653,1,0,0:0:0:0:
444,132,55811,1,0,0:0:0:0:
148,368,55968,5,0,0:0:0:0:
112,60,56126,1,0,0:0:0:0:
296,292,56284,1,0,0:0:0:0:
24,256,56442,1,0,0:0:0:0:
248,68,56600,1,0,0:0:0:0:
296,56,56679,1,0,0:0:0:0:
348,56,56758,1,0,0:0:0:0:
396,64,56837,1,0,0:0:0:0:
440,88,56916,2,0,B|472:132|472:132|496:196,1,100
256,356,57232,6,0,L|256:240,1,100
352,12,57547,2,0,P|364:88|364:136,1,100
336,200,57784,1,0,0:0:0:0:
336,200,57863,1,0,0:0:0:0:
192,88,58021,1,0,0:0:0:0:
288,316,58179,1,0,0:0:0:0:
436,136,58337,1,0,0:0:0:0:
112,200,58495,5,0,0:0:0:0:
424,280,58653,1,0,0:0:0:0:
200,364,58811,1,0,0:0:0:0:
192,88,58968,1,0,0:0:0:0:
192,88,59047,1,0,0:0:0:0:
192,88,59126,1,0,0:0:0:0:
428,156,59284,2,0,P|436:184|440:228,1,50
424,280,59442,2,0,L|292:276,1,100
24,240,59758,6,0,P|84:236|132:256,1,100
276,120,60074,1,0,0:0:0:0:
216,332,60232,1,0,0:0:0:0:
200,28,60390,1,0,0:0:0:0:
336,288,60547,1,0,0:0:0:0:
336,288,60626,1,0,0:0:0:0:
336,288,60705,2,0,P|352:288|400:280,1,50
484,180,60863,2,0,P|440:176|408:180,1,50
240,200,61021,5,0,0:0:0:0:
408,360,61179,1,0,0:0:0:0:
368,72,61337,1,0,0:0:0:0:
260,340,61495,1,0,0:0:0:0:
96,32,61653,1,0,0:0:0:0:
20,216,61811,1,0,0:0:0:0:
60,244,61890,1,0,0:0:0:0:
108,252,61968,1,0,0:0:0:0:
156,244,62047,1,0,0:0:0:0:
204,228,62126,1,0,0:0:0:0:
244,200,62205,1,0,0:0:0:0:
268,156,62284,6,0,B|324:148|324:148|376:164|424:156,1,150
500,136,62600,1,0,0:0:0:0:
360,328,62758,2,0,P|300:328|260:316,1,100
148,124,63074,2,0,P|80:120|24:164,1,100
256,24,63390,1,0,0:0:0:0:
256,24,63468,1,0,0:0:0:0:
256,24,63547,5,0,0:0:0:0:
104,212,63705,2,0,L|124:300,1,50
152,344,63863,2,0,L|152:220,1,100
316,100,64179,1,0,0:0:0:0:
300,332,64337,1,0,0:0:0:0:
180,32,64495,1,0,0:0:0:0:
200,264,64653,1,0,0:0:0:0:
296,148,64811,5,0,0:0:0:0:
68,288,64968,1,0,0:0:0:0:
304,308,65126,1,0,0:0:0:0:
240,92,65284,1,0,0:0:0:0:
240,92,65363,1,0,0:0:0:0:
240,92,65442,1,0,0:0:0:0:
464,344,65600,1,0,0:0:0:0:
256,376,65758,1,0,0:0:0:0:
56,160,65916,1,0,0:0:0:0:
48,340,66074,6,0,P|104:348|152:336,1,100
408,180,66390,1,0,0:0:0:0:
144,76,66547,1,0,0:0:0:0:
120,120,66626,1,0,0:0:0:0:
120,172,66705,1,0,0:0:0:0:
136,220,66784,1,0,0:0:0:0:
172,256,66863,1,0,0:0:0:0:
316,104,67021,1,0,0:0:0:0:
280,320,67179,1,0,0:0:0:0:
120,184,67337,5,0,0:0:0:0:
440,144,67495,1,0,0:0:0:0:
208,352,67653,1,0,0:0:0:0:
180,44,67811,1,0,0:0:0:0:
180,44,67890,1,0,0:0:0:0:
180,44,67968,2,0,P|228:40|256:40,1,50
324,48,68126,1,0,0:0:0:0:
56,116,68284,2,0,L|68:256,1,100
416,136,68600,5,0,0:0:0:0:
368,360,68758,1,0,0:0:0:0:
208,40,68916,1,0,0:0:0:0:
200,256,69074,1,0,0:0:0:0:
156,280,69153,1,0,0:0:0:0:
104,280,69232,1,0,0:0:0:0:
56,260,69311,1,0,0:0:0:0:
28,220,69390,1,0,0:0:0:0:
256,132,69547,1,0,0:0:0:0:
200,368,69705,1,0,0:0:0:0:
96,72,69863,5,0,0:0:0:0:
320,288,70021,1,0,0:0:0:0:
320,288,70100,1,0,0:0:0:0:
320,288,70179,2,0,L|376:280,1,50
504,248,70337,2,0,L|444:236,1,50
260,112,70495,1,0,0:0:0:0:
236,156,70574,1,0,0:0:0:0:
232,204,70653,1,0,0:0:0:0:
240,252,70732,1,0,0:0:0:0:
264,296,70811,2,0,B|312:316|312:316|372:320,1,100
168,56,71126,5,0,0:0:0:0:
32,240,71284,1,0,0:0:0:0:
320,132,71442,1,0,0:0:0:0:
68,104,71600,1,0,0:0:0:0:
60,152,71679,1,0,0:0:0:0:
60,204,71758,1,0,0:0:0:0:
68,252,71837,1,0,0:0:0:0:
80,300,71916,1,0,0:0:0:0:
336,56,72074,1,0,0:0:0:0:
300,324,72232,1,0,0:0:0:0:
300,324,72311,1,0,0:0:0:0:
300,324,72390,6,0,P|208:324|164:316,1,110.000003356934
456,136,72705,1,0,0:0:0:0:
224,200,72863,1,0,0:0:0:0:
408,352,73021,2,0,P|412:264|400:220,1,110.000003356934
56,56,73337,1,0,0:0:0:0:
92,264,73495,1,0,0:0:0:0:
92,264,73574,1,0,0:0:0:0:
92,264,73653,6,0,L|208:248,1,110.000003356934
376,52,73968,1,0,0:0:0:0:
384,332,74126,1,0,0:0:0:0:
124,336,74284,2,0,P|112:256|120:216,1,110.000003356934
268,36,74600,1,0,0:0:0:0:
324,36,74679,1,0,0:0:0:0:
380,44,74758,1,0,0:0:0:0:
432,56,74837,1,0,0:0:0:0:
484,72,74916,5,0,0:0:0:0:
264,184,75074,2,0,L|204:176,1,55.0000016784668
108,144,75232,2,0,P|96:224|132:284,1,110.000003356934
304,344,75547,1,0,0:0:0:0:
220,44,75705,1,0,0:0:0:0:
220,44,75784,1,0,0:0:0:0:
220,44,75863,1,0,0:0:0:0:
192,332,76021,1,0,0:0:0:0:
404,192,76179,5,0,0:0:0:0:
108,112,76337,1,0,0:0:0:0:
224,360,76495,2,0,P|304:368|364:344,1,110.000003356934
396,356,76732,1,0,0:0:0:0:
420,308,76811,1,0,0:0:0:0:
424,252,76890,1,0,0:0:0:0:
412,200,76968,1,0,0:0:0:0:
100,268,77126,2,0,B|92:324|92:324|112:380,1,110.000003356934
336,52,77442,5,0,0:0:0:0:
268,328,77600,1,0,0:0:0:0:
56,160,77758,2,0,P|64:72|80:32,1,110.000003356934
472,168,78074,1,0,0:0:0:0:
136,280,78232,1,0,0:0:0:0:
352,368,78390,2,0,P|356:292|340:240,1,110.000003356934
304,228,78626,1,0,0:0:0:0:
296,172,78705,1,0,0:0:0:0:
332,132,78784,1,0,0:0:0:0:
388,124,78863,5,0,0:0:0:0:
444,320,79021,2,0,L|328:304,1,110.000003356934
200,272,79258,1,0,0:0:0:0:
160,292,79337,2,0,P|92:296|48:264,1,110.000003356934
288,56,79653,1,0,0:0:0:0:
264,356,79811,1,0,0:0:0:0:
104,136,79968,5,0,0:0:0:0:
384,76,80126,1,0,0:0:0:0:
392,368,80284,1,0,0:0:0:0:
88,224,80442,1,0,0:0:0:0:
88,224,80521,1,0,0:0:0:0:
88,224,80600,1,0,0:0:0:0:
468,156,80758,1,0,0:0:0:0:
256,64,80916,1,0,0:0:0:0:
256,352,81074,1,0,0:0:0:0:
256,352,82021,5,0,0:0:0:0:
256,192,82179,1,0,0:0:0:0:
256,32,82337,1,0,0:0:0:0:
408,160,82495,6,0,P|408:228|396:276,1,110.000003356934
120,68,82811,1,0,0:0:0:0:
48,248,82968,1,0,0:0:0:0:
96,276,83047,1,0,0:0:0:0:
152,284,83126,1,0,0:0:0:0:
204,272,83205,1,0,0:0:0:0:
248,240,83284,1,0,0:0:0:0:
384,60,83442,1,0,0:0:0:0:
456,240,83600,1,0,0:0:0:0:
76,144,83758,5,0,0:0:0:0:
184,368,83916,1,0,0:0:0:0:
184,368,83995,1,0,0:0:0:0:
184,368,84074,2,0,P|80:384|40:372,1,110.000003356934
392,200,84390,2,0,L|392:268,1,55.0000016784668
284,376,84547,2,0,P|272:332|272:296,1,55.0000016784668
304,112,84705,1,0,0:0:0:0:
396,360,84863,1,0,0:0:0:0:
124,204,85021,6,0,P|104:144|120:92,1,110.000003356934
56,304,85337,1,0,0:0:0:0:
200,136,85495,1,0,0:0:0:0:
256,128,85574,1,0,0:0:0:0:
312,124,85653,1,0,0:0:0:0:
368,128,85732,1,0,0:0:0:0:
424,132,85811,1,0,0:0:0:0:
300,352,85968,1,0,0:0:0:0:
188,132,86126,1,0,0:0:0:0:
136,376,86284,5,0,0:0:0:0:
64,84,86442,1,0,0:0:0:0:
312,32,86600,1,0,0:0:0:0:
156,264,86758,2,0,P|80:268|24:260,1,110.000003356934
400,364,87074,1,0,0:0:0:0:
448,336,87153,1,0,0:0:0:0:
468,284,87232,1,0,0:0:0:0:
468,228,87311,1,0,0:0:0:0:
452,176,87390,1,0,0:0:0:0:
272,288,87547,5,0,0:0:0:0:
248,60,87705,1,0,0:0:0:0:
48,224,87863,1,0,0:0:0:0:
280,312,88021,1,0,0:0:0:0:
280,312,88100,1,0,0:0:0:0:
280,312,88179,2,0,L|356:304,1,55.0000016784668
404,208,88337,2,0,L|424:140,1,55.0000016784668
340,60,88495,2,0,L|212:32,1,110.000003356934
80,188,88811,6,0,P|76:256|100:312,1,110.000003356934
452,272,89126,1,0,0:0:0:0:
256,40,89284,1,0,0:0:0:0:
256,96,89363,1,0,0:0:0:0:
256,152,89442,1,0,0:0:0:0:
256,208,89521,1,0,0:0:0:0:
256,264,89600,1,0,0:0:0:0:
80,112,89758,1,0,0:0:0:0:
256,360,89916,1,0,0:0:0:0:
432,112,90074,5,0,0:0:0:0:
256,360,90232,1,0,0:0:0:0:
80,112,90390,1,0,0:0:0:0:
256,360,90547,1,0,0:0:0:0:
256,360,90626,1,0,0:0:0:0:
256,360,90705,2,0,L|256:212,1,110.000003356934
256,40,91021,1,0,0:0:0:0:
256,360,91179,1,0,0:0:0:0:
432,112,91337,5,0,0:0:0:0:
96,264,91495,1,0,0:0:0:0:
48,32,91653,1,0,0:0:0:0:
248,152,91811,2,0,P|256:228|248:352,1,165.000005035401
184,360,92126,1,0,0:0:0:0:
236,344,92205,1,0,0:0:0:0:
292,340,92284,1,0,0:0:0:0:
348,340,92363,1,0,0:0:0:0:
404,348,92442,1,0,0:0:0:0:
472,200,92600,6,0,B|480:144|480:144|468:80,1,110.000003356934
252,196,92916,2,0,B|248:252|248:252|264:312,1,110.000003356934
284,356,93153,1,0,0:0:0:0:
232,380,93232,1,0,0:0:0:0:
176,376,93311,1,0,0:0:0:0:
132,340,93390,1,0,0:0:0:0:
436,272,93547,1,0,0:0:0:0:
32,256,93705,1,0,0:0:0:0:
380,160,93863,5,0,0:0:0:0:
88,364,94021,1,0,0:0:0:0:
88,364,94100,1,0,0:0:0:0:
88,364,94179,2,0,L|64:288,1,55.0000016784668
136,164,94337,2,0,L|160:232,1,55.0000016784668
32,356,94495,2,0,P|16:292|32:212,1,110.000003356934
392,252,94811,2,0,P|392:324|368:364,1,110.000003356934
172,72,95126,5,0,0:0:0:0:
216,292,95284,1,0,0:0:0:0:
376,88,95442,1,0,0:0:0:0:
304,368,95600,1,0,0:0:0:0:
304,368,95679,1,0,0:0:0:0:
304,368,95758,1,0,0:0:0:0:
264,32,95916,1,0,0:0:0:0:
188,348,96074,2,0,P|112:352|64:320,1,110.000003356934
376,200,96390,5,0,0:0:0:0:
76,100,96547,2,0,P|64:168|88:224,1,110.000003356934
304,320,96863,2,0,P|308:220|296:132,1,165.000005035401
260,64,97179,2,0,P|216:60|188:68,1,55.0000016784668
184,160,97337,2,0,P|256:160|332:128,1,110.000003356934
452,80,97653,6,0,B|468:136|468:136|456:232,1,110.000003356934
16,192,97968,1,0,0:0:0:0:
192,108,98126,1,0,0:0:0:0:
192,108,98205,1,0,0:0:0:0:
192,108,98284,1,0,0:0:0:0:
128,340,98442,1,0,0:0:0:0:
68,44,98600,1,0,0:0:0:0:
204,200,98758,1,0,0:0:0:0:
484,40,98916,5,0,0:0:0:0:
156,40,99074,1,0,0:0:0:0:
132,92,99153,1,0,0:0:0:0:
128,148,99232,1,0,0:0:0:0:
148,200,99311,1,0,0:0:0:0:
184,240,99390,1,0,0:0:0:0:
380,352,99547,2,0,P|388:276|384:208,1,110.000003356934
428,204,99784,1,0,0:0:0:0:
440,152,99863,1,0,0:0:0:0:
432,96,99942,1,0,0:0:0:0:
412,44,100021,1,0,0:0:0:0:
44,208,100179,6,0,B|40:264|40:264|64:336,1,110.000003356934
392,96,100495,1,0,0:0:0:0:
136,256,100653,1,0,0:0:0:0:
352,360,100811,2,0,P|420:356|480:340,1,110.000003356934
200,36,101126,1,0,0:0:0:0:
152,336,101284,1,0,0:0:0:0:
152,336,101363,1,0,0:0:0:0:
152,336,101442,6,0,P|108:260|128:184,1,165.000005035401
172,120,101758,2,0,L|268:148,1,55.0000016784668
492,256,101916,2,0,L|408:232,1,55.0000016784668
192,360,102074,1,0,0:0:0:0:
180,308,102153,1,0,0:0:0:0:
168,256,102232,1,0,0:0:0:0:
152,204,102311,1,0,0:0:0:0:
132,152,102390,2,0,P|124:100|124:80,1,55.0000016784668
324,32,102547,2,0,P|368:24|400:36,1,55.0000016784668
488,180,102705,6,0,L|476:308,1,110.000003356934
260,120,103021,1,0,0:0:0:0:
308,356,103179,1,0,0:0:0:0:
308,356,103258,1,0,0:0:0:0:
308,356,103337,1,0,0:0:0:0:
408,72,103495,1,0,0:0:0:0:
72,284,103653,1,0,0:0:0:0:
40,48,103811,1,0,0:0:0:0:
236,352,103968,5,0,0:0:0:0:
192,76,104126,1,0,0:0:0:0:
412,352,104284,1,0,0:0:0:0:
428,64,104442,1,0,0:0:0:0:
376,44,104521,1,0,0:0:0:0:
320,44,104600,1,0,0:0:0:0:
268,60,104679,1,0,0:0:0:0:
224,92,104758,1,0,0:0:0:0:
148,256,104916,2,0,P|64:260|24:236,1,110.000003356934
60,40,105232,6,0,B|120:36|120:36|164:60|164:60|208:60,1,110.000003356934
216,72,105468,1,0,0:0:0:0:
272,80,105547,1,0,0:0:0:0:
464,352,105705,2,0,P|472:272|456:224,1,110.000003356934
132,24,106021,1,0,0:0:0:0:
196,296,106179,1,0,0:0:0:0:
412,128,106337,1,0,0:0:0:0:
120,368,106495,5,0,0:0:0:0:
416,252,106653,1,0,0:0:0:0:
32,236,106811,1,0,0:0:0:0:
376,364,106968,1,0,0:0:0:0:
416,324,107047,1,0,0:0:0:0:
436,272,107126,1,0,0:0:0:0:
432,216,107205,1,0,0:0:0:0:
404,168,107284,2,0,L|332:148,1,55.0000016784668
232,192,107442,2,0,L|248:336,1,110.000003356934
76,48,107758,6,0,P|76:120|68:172,1,110.000003356934
376,136,108074,1,0,0:0:0:0:
128,248,108232,2,0,P|132:328|152:368,1,110.000003356934
480,244,108547,1,0,0:0:0:0:
480,244,108626,1,0,0:0:0:0:
480,244,108705,2,0,L|392:244,1,55.0000016784668
236,244,108863,1,0,0:0:0:0:
488,136,109021,5,0,0:0:0:0:
120,164,109179,1,0,0:0:0:0:
92,212,109258,1,0,0:0:0:0:
96,268,109337,1,0,0:0:0:0:
124,316,109416,1,0,0:0:0:0:
172,344,109495,1,0,0:0:0:0:
348,212,109653,2,0,L|328:80,1,110.000003356934
320,92,109863,1,0,0:0:0:0:
304,84,109916,1,0,0:0:0:0:
284,76,109968,2,0,P|216:84|168:68,1,110.000003356934
260,348,110284,5,0,0:0:0:0:
332,360,110390,1,0,0:0:0:0:
404,340,110495,1,0,0:0:0:0:
464,300,110600,2,0,P|472:244|468:220,2,73.3333355712891
228,140,110916,1,0,0:0:0:0:
228,140,110995,1,0,0:0:0:0:
228,140,111074,2,0,L|236:204,1,55.0000016784668
268,284,111232,2,0,L|272:128,1,110.000003356934
40,304,111547,5,0,0:0:0:0:
344,248,111705,1,0,0:0:0:0:
296,24,111863,1,0,0:0:0:0:
96,200,112021,1,0,0:0:0:0:
84,252,112100,1,0,0:0:0:0:
104,304,112179,1,0,0:0:0:0:
148,340,112258,1,0,0:0:0:0:
200,352,112337,1,0,0:0:0:0:
496,200,112495,2,0,P|432:192|348:200,1,110.000003356934
24,280,112811,6,0,P|72:288|112:276,1,73.3333355712891
204,208,113021,1,0,0:0:0:0:
308,124,113126,2,0,P|368:116|416:140,1,73.3333355712891
464,264,113337,1,0,0:0:0:0:
208,348,113442,2,0,L|196:264,1,73.3333355712891
220,144,113653,1,0,0:0:0:0:
360,24,113758,2,0,L|372:216,1,146.666671142578
380,300,114074,5,0,0:0:0:0:
220,248,114232,1,0,0:0:0:0:
72,352,114390,1,0,0:0:0:0:
340,368,114547,2,0,P|344:308|304:208,1,165.000005035401
208,152,114863,2,0,L|224:248,1,55.0000016784668
232,308,115021,2,0,L|372:248,1,110.000003356934
344,248,115232,1,0,0:0:0:0:
352,232,115284,1,0,0:0:0:0:
360,220,115337,6,0,P|412:208|460:224,1,73.3333355712891
272,352,115547,2,0,P|228:360|192:348,1,73.3333355712891
268,184,115758,2,0,P|316:144|356:136,1,73.3333355712891
384,316,115968,2,0,P|376:360|352:384,1,73.3333355712891
184,248,116179,2,0,P|180:192|180:152,1,73.3333355712891
440,224,116390,2,0,P|456:276|460:320,1,73.3333355712891
160,344,116600,6,0,P|120:320|92:236,1,110.000003356934
140,52,116916,1,0,0:0:0:0:
320,168,117074,2,0,L|308:312,1,110.000003356934
124,196,117390,1,0,0:0:0:0:
124,196,117468,1,0,0:0:0:0:
124,196,117547,2,0,L|120:128,1,55.0000016784668
208,44,117705,1,0,0:0:0:0:
228,336,117863,5,0,0:0:0:0:
452,172,118021,1,0,0:0:0:0:
452,172,118100,1,0,0:0:0:0:
452,172,118179,2,0,P|456:104|428:56,1,110.000003356934
48,280,118495,1,0,0:0:0:0:
348,324,118653,1,0,0:0:0:0:
384,28,118811,2,0,P|324:16|264:24,1,110.000003356934
220,28,119047,1,0,0:0:0:0:
184,72,119126,1,0,0:0:0:0:
176,128,119205,1,0,0:0:0:0:
200,180,119284,1,0,0:0:0:0:
32,40,119442,5,0,0:0:0:0:
184,340,119600,1,0,0:0:0:0:
184,340,119679,1,0,0:0:0:0:
184,340,119758,2,0,L|296:320,1,110.000003356934
476,64,120074,2,0,L|348:88,1,110.000003356934
36,244,120390,5,0,0:0:0:0:
440,248,120547,1,0,0:0:0:0:
68,136,120705,1,0,0:0:0:0:
496,144,120863,1,0,0:0:0:0:
132,44,121021,1,0,0:0:0:0:
312,368,121179,1,0,0:0:0:0:
312,368,121258,1,0,0:0:0:0:
312,368,121337,1,0,0:0:0:0:
480,24,121495,1,0,0:0:0:0:
300,216,121653,6,0,P|228:224|176:188,1,110.000003356934
160,168,121890,1,0,0:0:0:0:
104,168,121968,1,0,0:0:0:0:
64,208,122047,1,0,0:0:0:0:
60,264,122126,1,0,0:0:0:0:
312,312,122284,2,0,P|304:228|280:176,1,110.000003356934
264,104,122521,2,0,P|320:72|400:92,1,110.000003356934
472,136,122758,2,0,L|456:216,1,55.0000016784668
444,288,122916,6,0,P|376:296|312:272,1,110.000003356934
236,268,123153,1,0,0:0:0:0:
236,268,123232,1,0,0:0:0:0:
296,80,123390,1,0,0:0:0:0:
296,352,123547,1,0,0:0:0:0:
448,72,123705,1,0,0:0:0:0:
124,208,123863,1,0,0:0:0:0:
488,200,124021,2,0,P|488:272|472:324,1,110.000003356934
324,36,124337,5,0,0:0:0:0:
268,44,124416,1,0,0:0:0:0:
232,84,124495,1,0,0:0:0:0:
288,316,124653,2,0,B|232:328|232:328|180:312|180:312|128:332,1,165.000005035401
40,304,124968,1,0,0:0:0:0:
20,252,125047,1,0,0:0:0:0:
32,200,125126,1,0,0:0:0:0:
84,176,125205,1,0,0:0:0:0:
100,124,125284,1,0,0:0:0:0:
92,68,125363,1,0,0:0:0:0:
56,24,125442,6,0,P|60:88|112:120,1,110.000003356934
192,116,125679,1,0,0:0:0:0:
192,116,125758,1,0,0:0:0:0:
412,40,125916,2,0,L|400:180,1,110.000003356934
16,104,126232,1,0,0:0:0:0:
252,288,126390,1,0,0:0:0:0:
284,16,126547,1,0,0:0:0:0:
240,376,126705,5,0,0:0:0:0:
448,136,126863,1,0,0:0:0:0:
472,188,126942,1,0,0:0:0:0:
472,244,127021,1,0,0:0:0:0:
460,296,127100,1,0,0:0:0:0:
424,340,127179,2,0,L|284:320,1,110.000003356934
308,60,127495,1,0,0:0:0:0:
308,60,127574,1,0,0:0:0:0:
308,60,127653,2,0,L|424:40,1,110.000003356934
328,188,127968,6,0,B|272:196|272:196|200:184,1,110.000003356934
80,104,128284,1,0,0:0:0:0:
184,320,128442,2,0,P|196:256|180:184,1,110.000003356934
20,32,128758,1,0,0:0:0:0:
20,32,128837,1,0,0:0:0:0:
20,32,128916,2,0,L|32:112,1,55.0000016784668
68,188,129074,2,0,L|196:152,1,110.000003356934
496,252,129390,5,0,0:0:0:0:
200,244,129547,1,0,0:0:0:0:
460,336,129705,1,0,0:0:0:0:
476,284,129784,1,0,0:0:0:0:
472,228,129863,1,0,0:0:0:0:
448,176,129942,1,0,0:0:0:0:
412,132,130021,1,0,0:0:0:0:
148,344,130179,1,0,0:0:0:0:
504,84,130337,1,0,0:0:0:0:
40,136,130495,5,0,0:0:0:0:
288,328,130653,1,0,0:0:0:0:
312,20,130811,1,0,0:0:0:0:
116,196,130968,2,0,L|124:272,1,55.0000016784668
128,344,131126,1,0,0:0:0:0:
184,352,131205,1,0,0:0:0:0:
236,332,131284,2,0,L|312:280,1,55.0000016784668
428,176,131442,2,0,L|420:264,1,55.0000016784668
400,336,131600,1,0,0:0:0:0:
300,248,131758,6,0,P|228:232|172:248,1,110.000003356934
84,48,132074,1,0,0:0:0:0:
256,132,132232,1,0,0:0:0:0:
256,132,132705,1,0,0:0:0:0:
256,152,132784,1,0,0:0:0:0:
256,168,132863,1,0,0:0:0:0:
256,184,132942,1,0,0:0:0:0:
256,200,133021,5,0,0:0:0:0:
312,300,133179,1,0,0:0:0:0:
420,320,133337,1,0,0:0:0:0:
496,240,133495,1,0,0:0:0:0:
504,204,133574,1,0,0:0:0:0:
496,168,133653,1,0,0:0:0:0:
404,88,133811,1,0,0:0:0:0:
292,160,133968,1,0,0:0:0:0:
272,192,134047,1,0,0:0:0:0:
272,228,134126,1,0,0:0:0:0:
288,264,134205,1,0,0:0:0:0:
316,288,134284,5,0,0:0:0:0:
152,352,134442,2,0,L|60:344,1,75.0000028610231
360,208,134758,1,0,0:0:0:0:
388,232,134837,1,0,0:0:0:0:
400,268,134916,1,0,0:0:0:0:
328,360,135074,1,0,0:0:0:0:
216,348,135232,1,0,0:0:0:0:
172,236,135390,1,0,0:0:0:0:
308,48,135547,5,0,0:0:0:0:
308,160,135705,1,0,0:0:0:0:
224,248,135863,1,0,0:0:0:0:
104,244,136021,1,0,0:0:0:0:
68,232,136100,1,0,0:0:0:0:
48,200,136179,1,0,0:0:0:0:
44,164,136258,1,0,0:0:0:0:
52,128,136337,1,0,0:0:0:0:
224,156,136495,1,0,0:0:0:0:
224,320,136653,1,0,0:0:0:0:
96,244,136811,6,0,P|80:176|100:132,1,112.500004291535
168,76,137126,1,0,0:0:0:0:
300,100,137284,1,0,0:0:0:0:
324,128,137363,1,0,0:0:0:0:
332,164,137442,1,0,0:0:0:0:
288,300,137600,1,0,0:0:0:0:
148,336,137758,1,0,0:0:0:0:
116,316,137837,1,0,0:0:0:0:
92,288,137916,1,0,0:0:0:0:
84,252,137995,1,0,0:0:0:0:
88,216,138074,5,0,0:0:0:0:
184,84,138232,1,0,0:0:0:0:
308,196,138390,1,0,0:0:0:0:
232,332,138547,1,0,0:0:0:0:
196,344,138626,1,0,0:0:0:0:
160,344,138705,1,0,0:0:0:0:
56,272,138863,1,0,0:0:0:0:
64,128,139021,2,0,P|108:64|132:56,1,75.0000028610231
396,260,139337,6,0,P|372:308|348:324,1,75.0000028610231
212,320,139653,1,0,0:0:0:0:
136,200,139811,1,0,0:0:0:0:
128,164,139890,1,0,0:0:0:0:
136,128,139968,1,0,0:0:0:0:
156,96,140047,1,0,0:0:0:0:
188,76,140126,1,0,0:0:0:0:
320,76,140284,2,0,L|412:80,1,75.0000028610231
348,348,140600,5,0,0:0:0:0:
236,304,140758,1,0,0:0:0:0:
216,272,140837,1,0,0:0:0:0:
216,236,140916,1,0,0:0:0:0:
280,120,141074,1,0,0:0:0:0:
412,104,141232,1,0,0:0:0:0:
348,348,141390,1,0,0:0:0:0:
312,352,141468,1,0,0:0:0:0:
276,348,141547,1,0,0:0:0:0:
152,300,141705,1,0,0:0:0:0:
124,152,141863,5,0,0:0:0:0:
232,44,142021,1,0,0:0:0:0:
368,80,142179,1,0,0:0:0:0:
444,208,142337,2,0,P|452:264|440:304,1,75.0000028610231
100,344,142653,1,0,0:0:0:0:
32,228,142811,1,0,0:0:0:0:
24,192,142890,1,0,0:0:0:0:
28,156,142968,1,0,0:0:0:0:
44,124,143047,1,0,0:0:0:0:
72,100,143126,6,0,B|128:84|128:84|200:96,1,115.000002193451
236,372,143442,1,0,0:0:0:0:
444,216,143600,1,0,0:0:0:0:
452,160,143679,1,0,0:0:0:0:
432,108,143758,1,0,0:0:0:0:
392,68,143837,1,0,0:0:0:0:
336,52,143916,1,0,0:0:0:0:
116,340,144074,1,0,0:0:0:0:
68,88,144232,1,0,0:0:0:0:
356,200,144390,6,0,P|356:268|340:312,1,115.000002193451
232,364,144626,1,0,0:0:0:0:
184,356,144705,2,0,P|160:320|160:280,1,57.5000010967255
244,184,144863,2,0,P|252:136|248:96,1,57.5000010967255
108,28,145021,2,0,P|104:76|112:104,1,57.5000010967255
284,236,145179,2,0,P|288:184|284:160,1,57.5000010967255
56,20,145337,2,0,P|64:92|72:156,1,115.000002193451
356,32,145653,5,0,0:0:0:0:
228,320,145811,1,0,0:0:0:0:
128,92,145968,1,0,0:0:0:0:
376,312,146126,1,0,0:0:0:0:
432,296,146205,1,0,0:0:0:0:
476,256,146284,1,0,0:0:0:0:
496,200,146363,1,0,0:0:0:0:
496,144,146442,1,0,0:0:0:0:
112,360,146600,1,0,0:0:0:0:
44,112,146758,1,0,0:0:0:0:
308,268,146916,6,0,P|308:308|300:348,1,57.5000010967255
152,336,147074,1,0,0:0:0:0:
108,300,147153,1,0,0:0:0:0:
84,248,147232,2,0,P|76:200|80:176,1,57.5000010967255
260,28,147390,1,0,0:0:0:0:
292,76,147468,1,0,0:0:0:0:
316,128,147547,2,0,P|324:184|320:216,1,57.5000010967255
248,352,147705,2,0,P|240:292|240:264,1,57.5000010967255
352,96,147863,2,0,P|356:176|364:240,1,115.000002193451
100,260,148179,5,0,0:0:0:0:
96,32,148337,1,0,0:0:0:0:
320,368,148495,1,0,0:0:0:0:
476,128,148653,1,0,0:0:0:0:
444,80,148732,1,0,0:0:0:0:
392,56,148811,1,0,0:0:0:0:
336,56,148890,1,0,0:0:0:0:
284,76,148968,1,0,0:0:0:0:
176,300,149126,2,0,P|104:316|40:300,1,115.000002193451
464,256,149442,5,0,0:0:0:0:
256,180,149600,1,0,0:0:0:0:
256,364,149758,1,0,0:0:0:0:
464,168,149916,1,0,0:0:0:0:
456,112,149995,1,0,0:0:0:0:
416,72,150074,1,0,0:0:0:0:
360,56,150153,1,0,0:0:0:0:
304,64,150232,1,0,0:0:0:0:
256,364,150390,1,0,0:0:0:0:
48,172,150547,1,0,0:0:0:0:
256,32,150705,6,0,B|272:96|272:96|256:172,1,115.000002193451
416,232,151021,1,0,0:0:0:0:
96,296,151179,1,0,0:0:0:0:
408,356,151337,1,0,0:0:0:0:
412,84,151495,1,0,0:0:0:0:
92,92,151653,1,0,0:0:0:0:
256,364,151811,1,0,0:0:0:0:
256,364,151890,1,0,0:0:0:0:
256,364,151968,6,0,L|328:360,1,57.5000010967255
408,280,152126,2,0,L|336:280,1,57.5000010967255
100,288,152284,2,0,P|176:288|244:252,1,115.000002193451
420,92,152600,1,0,0:0:0:0:
156,28,152758,1,0,0:0:0:0:
92,292,152916,1,0,0:0:0:0:
348,356,153074,1,0,0:0:0:0:
44,160,153232,6,0,P|40:244|88:312,1,115.000002193451
136,336,153468,1,0,0:0:0:0:
184,324,153547,2,0,P|256:312|332:336,1,115.000002193451
476,192,153863,1,0,0:0:0:0:
436,232,153942,1,0,0:0:0:0:
380,244,154021,1,0,0:0:0:0:
324,236,154100,1,0,0:0:0:0:
272,212,154179,1,0,0:0:0:0:
124,76,154337,1,0,0:0:0:0:
392,16,154495,6,0,P|408:84|400:152,1,115.000002193451
280,356,154732,1,0,0:0:0:0:
240,340,154811,2,0,P|224:260|256:204,1,115.000002193451
336,164,155047,1,0,0:0:0:0:
348,220,155126,5,0,0:0:0:0:
328,272,155205,1,0,0:0:0:0:
276,296,155284,1,0,0:0:0:0:
220,288,155363,1,0,0:0:0:0:
176,252,155442,1,0,0:0:0:0:
120,236,155521,1,0,0:0:0:0:
68,260,155600,1,0,0:0:0:0:
40,312,155679,1,0,0:0:0:0:
48,368,155758,6,0,L|24:236,1,115.000002193451
88,44,155995,1,0,0:0:0:0:
132,72,156074,2,0,L|160:208,1,115.000002193451
168,352,156311,1,0,0:0:0:0:
224,368,156390,1,0,0:0:0:0:
276,352,156468,1,0,0:0:0:0:
312,308,156547,1,0,0:0:0:0:
316,252,156626,1,0,0:0:0:0:
284,204,156705,1,0,0:0:0:0:
280,148,156784,1,0,0:0:0:0:
324,108,156863,1,0,0:0:0:0:
380,104,156942,1,0,0:0:0:0:
420,148,157021,5,0,0:0:0:0:
392,200,157100,1,0,0:0:0:0:
340,224,157179,1,0,0:0:0:0:
284,224,157258,1,0,0:0:0:0:
232,200,157337,1,0,0:0:0:0:
176,188,157416,1,0,0:0:0:0:
120,192,157495,1,0,0:0:0:0:
68,216,157574,1,0,0:0:0:0:
40,268,157653,1,0,0:0:0:0:
88,236,157732,1,0,0:0:0:0:
96,180,157811,1,0,0:0:0:0:
76,124,157890,1,0,0:0:0:0:
40,80,157968,1,0,0:0:0:0:
56,24,158047,1,0,0:0:0:0:
112,4,158126,1,0,0:0:0:0:
156,40,158205,1,0,0:0:0:0:
168,96,158284,6,0,B|184:152|184:152|184:240,1,115.000002193451
236,312,158521,2,0,B|292:328|292:328|388:320,1,115.000002193451
452,280,158758,2,0,L|456:208,1,57.5000010967255
320,40,158916,2,0,B|312:96|312:96|336:152|336:152|320:248,1,172.500003290176
292,292,159232,2,0,L|156:272,1,115.000002193451
68,244,159468,1,0,0:0:0:0:
32,212,159547,6,0,P|28:136|64:104,1,115.000002193451
256,196,159784,1,0,0:0:0:0:
284,240,159863,2,0,L|264:380,1,115.000002193451
152,244,160100,1,0,0:0:0:0:
168,188,160179,1,0,0:0:0:0:
216,156,160258,1,0,0:0:0:0:
272,160,160337,1,0,0:0:0:0:
324,184,160416,1,0,0:0:0:0:
380,204,160495,1,0,0:0:0:0:
436,196,160574,1,0,0:0:0:0:
480,160,160653,1,0,0:0:0:0:
488,104,160732,1,0,0:0:0:0:
456,56,160811,6,0,P|448:96|452:132,1,57.5000010967255
356,364,160968,2,0,P|356:304|352:288,1,57.5000010967255
296,20,161126,2,0,P|292:80|292:88,1,57.5000010967255
236,372,161284,2,0,P|232:316|228:288,1,57.5000010967255
44,168,161442,2,0,L|120:156,1,57.5000010967255
332,124,161600,2,0,L|264:140,1,57.5000010967255
100,280,161758,2,0,L|180:260,1,57.5000010967255
408,240,161916,2,0,L|332:256,1,57.5000010967255
152,376,162074,5,0,0:0:0:0:
120,328,162153,1,0,0:0:0:0:
124,272,162232,1,0,0:0:0:0:
160,228,162311,1,0,0:0:0:0:
216,216,162390,1,0,0:0:0:0:
264,244,162468,1,0,0:0:0:0:
284,296,162547,1,0,0:0:0:0:
332,328,162626,1,0,0:0:0:0:
388,324,162705,1,0,0:0:0:0:
432,284,162784,1,0,0:0:0:0:
440,228,162863,1,0,0:0:0:0:
424,172,162942,1,0,0:0:0:0:
376,140,163021,1,0,0:0:0:0:
320,144,163100,1,0,0:0:0:0:
272,176,163179,1,0,0:0:0:0:
252,232,163258,1,0,0:0:0:0:
268,288,163337,6,0,B|312:336|312:336|384:352,1,115.000002193451
456,292,163574,1,0,0:0:0:0:
472,236,163653,1,0,0:0:0:0:
460,180,163732,1,0,0:0:0:0:
436,128,163811,1,0,0:0:0:0:
436,72,163890,1,0,0:0:0:0:
468,24,163968,2,0,L|384:52,1,57.5000010967255
264,88,164126,2,0,P|204:96|172:96,1,57.5000010967255
56,60,164284,2,0,L|72:192,1,115.000002193451
276,372,164600,5,0,0:0:0:0:
168,36,164758,1,0,0:0:0:0:
156,92,164837,1,0,0:0:0:0:
172,148,164916,1,0,0:0:0:0:
212,188,164995,1,0,0:0:0:0:
268,196,165074,1,0,0:0:0:0:
324,180,165153,1,0,0:0:0:0:
364,136,165232,2,0,P|436:124|488:156,1,115.000002193451
296,320,165547,2,0,P|216:328|168:296,1,115.000002193451
32,140,165863,5,0,0:0:0:0:
300,28,166021,1,0,0:0:0:0:
328,80,166100,1,0,0:0:0:0:
336,136,166179,1,0,0:0:0:0:
320,192,166258,1,0,0:0:0:0:
292,240,166337,1,0,0:0:0:0:
284,296,166416,1,0,0:0:0:0:
308,348,166495,1,0,0:0:0:0:
364,368,166574,1,0,0:0:0:0:
420,360,166653,1,0,0:0:0:0:
452,312,166732,1,0,0:0:0:0:
448,256,166811,2,0,B|440:196|440:196|448:120,1,115.000002193451
66,141,167126,6,0,B|72:196|72:196|64:256,1,115.000002193451
260,48,167442,1,0,0:0:0:0:
232,328,167600,1,0,0:0:0:0:
176,344,167679,1,0,0:0:0:0:
120,340,167758,1,0,0:0:0:0:
72,304,167837,1,0,0:0:0:0:
56,248,167916,1,0,0:0:0:0:
312,164,168074,2,0,L|316:248,1,57.5000010967255
192,292,168232,2,0,P|196:336|208:372,1,57.5000010967255
336,356,168390,6,0,P|408:360|464:320,1,115.000002193451
448,232,168626,1,0,0:0:0:0:
392,216,168705,1,0,0:0:0:0:
336,224,168784,1,0,0:0:0:0:
284,252,168863,1,0,0:0:0:0:
228,264,168942,1,0,0:0:0:0:
172,256,169021,1,0,0:0:0:0:
120,228,169100,1,0,0:0:0:0:
96,176,169179,1,0,0:0:0:0:
116,120,169258,1,0,0:0:0:0:
156,80,169337,1,0,0:0:0:0:
296,232,169495,1,0,0:0:0:0:
92,344,169653,5,0,0:0:0:0:
204,168,169811,1,0,0:0:0:0:
256,140,169890,1,0,0:0:0:0:
312,144,169968,1,0,0:0:0:0:
360,172,170047,1,0,0:0:0:0:
416,176,170126,1,0,0:0:0:0:
468,148,170205,1,0,0:0:0:0:
488,96,170284,2,0,L|484:184,1,57.5000010967255
328,264,170442,2,0,L|348:344,1,57.5000010967255
152,136,170600,2,0,P|152:208|164:276,1,115.000002193451
24,24,170916,5,0,0:0:0:0:
24,80,170995,1,0,0:0:0:0:
52,128,171074,1,0,0:0:0:0:
108,148,171153,1,0,0:0:0:0:
160,124,171232,1,0,0:0:0:0:
212,96,171311,1,0,0:0:0:0:
268,100,171390,1,0,0:0:0:0:
320,124,171468,1,0,0:0:0:0:
356,168,171547,1,0,0:0:0:0:
344,112,171626,1,0,0:0:0:0:
380,68,171705,1,0,0:0:0:0:
436,64,171784,1,0,0:0:0:0:
480,100,171863,1,0,0:0:0:0:
480,156,171942,1,0,0:0:0:0:
448,204,172021,1,0,0:0:0:0:
448,204,172968,5,0,0:0:0:0:
312,292,173126,1,0,0:0:0:0:
152,268,173284,1,0,0:0:0:0:
24,132,173442,6,0,P|12:204|40:280,1,119.999996337891
416,40,173758,1,0,0:0:0:0:
316,332,173916,1,0,0:0:0:0:
256,348,173995,1,0,0:0:0:0:
196,340,174074,1,0,0:0:0:0:
148,304,174153,1,0,0:0:0:0:
124,248,174232,1,0,0:0:0:0:
308,100,174390,1,0,0:0:0:0:
124,20,174547,1,0,0:0:0:0:
272,328,174705,5,0,0:0:0:0:
260,8,174863,1,0,0:0:0:0:
412,344,175021,1,0,0:0:0:0:
28,216,175179,1,0,0:0:0:0:
88,212,175258,1,0,0:0:0:0:
148,200,175337,1,0,0:0:0:0:
204,180,175416,1,0,0:0:0:0:
252,148,175495,1,0,0:0:0:0:
500,264,175653,2,0,B|464:324|464:324|412:348,1,119.999996337891
120,116,175968,6,0,L|136:272,1,119.999996337891
480,120,176284,1,0,0:0:0:0:
180,20,176442,1,0,0:0:0:0:
152,72,176521,1,0,0:0:0:0:
156,132,176600,1,0,0:0:0:0:
192,180,176679,1,0,0:0:0:0:
248,204,176758,1,0,0:0:0:0:
384,44,176916,1,0,0:0:0:0:
244,348,177074,1,0,0:0:0:0:
232,96,177232,5,0,0:0:0:0:
448,276,177390,1,0,0:0:0:0:
68,232,177547,1,0,0:0:0:0:
344,20,177705,1,0,0:0:0:0:
344,20,177784,1,0,0:0:0:0:
344,20,177863,1,0,0:0:0:0:
256,360,178021,1,0,0:0:0:0:
168,20,178179,1,0,0:0:0:0:
256,360,178337,1,0,0:0:0:0:
28,128,178495,6,0,P|28:192|88:244,1,119.999996337891
468,136,178811,1,0,0:0:0:0:
256,32,178968,1,0,0:0:0:0:
256,92,179047,1,0,0:0:0:0:
256,152,179126,1,0,0:0:0:0:
256,212,179205,1,0,0:0:0:0:
256,272,179284,1,0,0:0:0:0:
384,52,179442,1,0,0:0:0:0:
100,204,179600,1,0,0:0:0:0:
252,24,179758,5,0,0:0:0:0:
424,292,179916,1,0,0:0:0:0:
424,292,179995,1,0,0:0:0:0:
424,292,180074,2,0,P|436:220|424:164,1,119.999996337891
344,128,180311,1,0,0:0:0:0:
288,152,180390,1,0,0:0:0:0:
228,152,180468,1,0,0:0:0:0:
176,124,180547,1,0,0:0:0:0:
200,352,180705,1,0,0:0:0:0:
244,32,180863,1,0,0:0:0:0:
484,192,181021,5,0,0:0:0:0:
56,224,181179,1,0,0:0:0:0:
112,24,181337,1,0,0:0:0:0:
272,180,181495,1,0,0:0:0:0:
288,236,181574,1,0,0:0:0:0:
280,296,181653,1,0,0:0:0:0:
248,348,181732,1,0,0:0:0:0:
192,372,181811,1,0,0:0:0:0:
348,124,181968,2,0,B|408:112|408:112|472:124,1,119.999996337891
176,260,182284,6,0,B|116:272|116:272|52:260,1,119.999996337891
48,248,182495,1,0,0:0:0:0:
40,232,182547,1,0,0:0:0:0:
32,216,182600,1,0,0:0:0:0:
152,52,182758,1,0,0:0:0:0:
208,240,182916,2,0,P|220:320|220:376,1,119.999996337891
392,48,183232,1,0,0:0:0:0:
392,48,183311,1,0,0:0:0:0:
392,48,183390,1,0,0:0:0:0:
392,48,183468,1,0,0:0:0:0:
392,48,183547,6,0,B|416:108|416:108|412:180,1,119.999996337891
12,248,183863,1,0,0:0:0:0:
184,80,184021,1,0,0:0:0:0:
244,92,184100,1,0,0:0:0:0:
304,92,184179,1,0,0:0:0:0:
364,76,184258,1,0,0:0:0:0:
420,48,184337,1,0,0:0:0:0:
436,336,184495,1,0,0:0:0:0:
144,280,184653,1,0,0:0:0:0:
328,20,184811,5,0,0:0:0:0:
208,360,184968,1,0,0:0:0:0:
80,76,185126,1,0,0:0:0:0:
320,268,185284,1,0,0:0:0:0:
380,276,185363,1,0,0:0:0:0:
436,260,185442,1,0,0:0:0:0:
480,220,185521,1,0,0:0:0:0:
504,164,185600,1,0,0:0:0:0:
192,128,185758,2,0,P|184:172|192:204,1,59.9999981689454
304,352,185916,2,0,P|312:308|308:272,1,59.9999981689454
148,116,186074,6,0,L|160:248,1,119.999996337891
24,40,186390,1,0,0:0:0:0:
192,276,186547,1,0,0:0:0:0:
252,288,186626,1,0,0:0:0:0:
312,280,186705,1,0,0:0:0:0:
364,248,186784,1,0,0:0:0:0:
396,200,186863,1,0,0:0:0:0:
80,176,187021,1,0,0:0:0:0:
428,204,187179,1,0,0:0:0:0:
244,352,187337,5,0,0:0:0:0:
220,20,187495,1,0,0:0:0:0:
404,64,187653,1,0,0:0:0:0:
80,176,187811,1,0,0:0:0:0:
76,236,187890,1,0,0:0:0:0:
112,284,187968,1,0,0:0:0:0:
160,316,188047,1,0,0:0:0:0:
220,320,188126,1,0,0:0:0:0:
440,160,188284,2,0,B|444:224|444:224|432:304,1,119.999996337891
72,244,188600,5,0,0:0:0:0:
368,356,188758,1,0,0:0:0:0:
292,28,188916,1,0,0:0:0:0:
256,356,189074,1,0,0:0:0:0:
256,356,189153,1,0,0:0:0:0:
256,356,189232,1,0,0:0:0:0:
452,96,189390,1,0,0:0:0:0:
128,164,189547,1,0,0:0:0:0:
484,272,189705,1,0,0:0:0:0:
272,16,189863,5,0,0:0:0:0:
248,72,189942,1,0,0:0:0:0:
256,132,190021,1,0,0:0:0:0:
288,184,190100,1,0,0:0:0:0:
312,240,190179,1,0,0:0:0:0:
304,300,190258,1,0,0:0:0:0:
272,352,190337,1,0,0:0:0:0:
212,364,190416,1,0,0:0:0:0:
156,344,190495,2,0,B|108:308|108:308|72:236,1,119.999996337891
430,254,190811,2,0,B|404:308|404:308|356:344,1,119.999996337891
256,16,191126,6,0,L|256:144,1,119.999996337891
296,228,191363,1,0,0:0:0:0:
340,268,191442,1,0,0:0:0:0:
400,268,191521,1,0,0:0:0:0:
452,240,191600,1,0,0:0:0:0:
468,184,191679,1,0,0:0:0:0:
448,128,191758,2,0,B|408:84|408:84|320:56,1,119.999996337891
248,116,191995,1,0,0:0:0:0:
196,144,192074,1,0,0:0:0:0:
136,148,192153,1,0,0:0:0:0:
80,128,192232,1,0,0:0:0:0:
44,80,192311,1,0,0:0:0:0:
44,20,192390,6,0,P|108:24|120:28,1,59.9999981689454
248,116,192547,2,0,P|312:120|328:112,1,59.9999981689454
464,32,192705,1,0,0:0:0:0:
452,92,192784,1,0,0:0:0:0:
440,152,192863,1,0,0:0:0:0:
428,212,192942,1,0,0:0:0:0:
412,272,193021,1,0,0:0:0:0:
352,264,193100,1,0,0:0:0:0:
292,276,193179,1,0,0:0:0:0:
236,300,193258,1,0,0:0:0:0:
188,340,193337,2,0,L|104:332,1,59.9999981689454
8,144,193495,2,0,L|104:156,1,59.9999981689454
252,184,193653,6,0,L|268:348,1,135.000000514984
468,116,193968,1,0,0:0:0:0:
408,84,194047,1,0,0:0:0:0:
340,80,194126,1,0,0:0:0:0:
276,104,194205,1,0,0:0:0:0:
232,156,194284,2,0,L|144:160,1,67.5000002574921
16,60,194442,2,0,L|88:52,1,67.5000002574921
248,92,194600,2,0,L|252:260,1,135.000000514984
68,224,194916,5,0,0:0:0:0:
88,288,194995,1,0,0:0:0:0:
144,324,195074,1,0,0:0:0:0:
212,324,195153,1,0,0:0:0:0:
272,288,195232,1,0,0:0:0:0:
332,260,195311,1,0,0:0:0:0:
400,272,195390,1,0,0:0:0:0:
452,312,195468,1,0,0:0:0:0:
472,376,195547,1,0,0:0:0:0:
424,328,195626,1,0,0:0:0:0:
412,260,195705,1,0,0:0:0:0:
432,196,195784,1,0,0:0:0:0:
476,144,195863,2,0,L|472:52,1,67.5000002574921
300,56,196021,2,0,L|304:156,1,67.5000002574921
136,184,196179,6,0,B|116:120|116:120|128:40,1,135.000000514984
324,188,196495,1,0,0:0:0:0:
344,252,196574,1,0,0:0:0:0:
324,316,196653,1,0,0:0:0:0:
268,356,196732,1,0,0:0:0:0:
200,356,196811,1,0,0:0:0:0:
48,108,196968,1,0,0:0:0:0:
268,356,197126,1,0,0:0:0:0:
328,20,197284,1,0,0:0:0:0:
48,108,197442,5,0,0:0:0:0:
108,136,197521,1,0,0:0:0:0:
176,132,197600,1,0,0:0:0:0:
228,92,197679,1,0,0:0:0:0:
260,32,197758,1,0,0:0:0:0:
324,4,197837,1,0,0:0:0:0:
392,16,197916,1,0,0:0:0:0:
420,76,197995,1,0,0:0:0:0:
416,144,198074,1,0,0:0:0:0:
372,196,198153,1,0,0:0:0:0:
304,212,198232,1,0,0:0:0:0:
248,176,198311,1,0,0:0:0:0:
216,116,198390,2,0,B|232:48|232:48|324:0,1,135.000000514984
480,280,198705,6,0,B|456:344|456:344|396:376,1,135.000000514984
356,320,198942,1,0,0:0:0:0:
292,296,199021,1,0,0:0:0:0:
224,288,199100,1,0,0:0:0:0:
156,288,199179,1,0,0:0:0:0:
88,300,199258,1,0,0:0:0:0:
28,332,199337,2,0,P|28:260|32:248,1,67.5000002574921
168,148,199495,2,0,P|172:212|168:240,1,67.5000002574921
360,360,199653,1,0,0:0:0:0:
428,368,199732,1,0,0:0:0:0:
488,340,199811,1,0,0:0:0:0:
504,276,199890,1,0,0:0:0:0:
488,212,199968,6,0,L|464:116,1,67.5000002574921
200,48,200126,2,0,L|224:136,1,67.5000002574921
208,360,200284,1,0,0:0:0:0:
140,364,200363,1,0,0:0:0:0:
84,328,200442,1,0,0:0:0:0:
64,264,200521,1,0,0:0:0:0:
76,196,200600,1,0,0:0:0:0:
284,208,200758,1,0,0:0:0:0:
300,144,200837,1,0,0:0:0:0:
280,80,200916,1,0,0:0:0:0:
40,40,201074,1,0,0:0:0:0:
44,108,201153,1,0,0:0:0:0:
100,144,201232,6,0,L|248:116,1,135.000000514984
284,76,201468,1,0,0:0:0:0:
348,52,201547,1,0,0:0:0:0:
408,84,201626,1,0,0:0:0:0:
424,148,201705,1,0,0:0:0:0:
392,208,201784,1,0,0:0:0:0:
328,232,201863,1,0,0:0:0:0:
268,204,201942,1,0,0:0:0:0:
228,148,202021,1,0,0:0:0:0:
160,148,202100,1,0,0:0:0:0:
108,192,202179,1,0,0:0:0:0:
96,260,202258,1,0,0:0:0:0:
144,308,202337,1,0,0:0:0:0:
212,320,202416,1,0,0:0:0:0:
276,296,202495,5,0,0:0:0:0:
284,228,202574,1,0,0:0:0:0:
332,180,202653,1,0,0:0:0:0:
400,172,202732,1,0,0:0:0:0:
456,208,202811,1,0,0:0:0:0:
480,272,202890,1,0,0:0:0:0:
468,336,202968,1,0,0:0:0:0:
428,376,203047,1,0,0:0:0:0:
360,380,203126,1,0,0:0:0:0:
296,352,203205,1,0,0:0:0:0:
276,288,203284,1,0,0:0:0:0:
292,224,203363,1,0,0:0:0:0:
332,180,203442,1,0,0:0:0:0:
348,116,203521,1,0,0:0:0:0:
328,52,203600,1,0,0:0:0:0:
272,16,203679,1,0,0:0:0:0:
204,20,203758,6,0,B|128:28|128:28|28:76,1,150.000005722046
384,288,204074,2,0,L|472:276,1,75.0000028610231
416,176,204232,2,0,L|504:168,1,75.0000028610231
224,72,204390,2,0,L|244:264,1,150.000005722046
208,320,204626,1,0,0:0:0:0:
140,348,204705,1,0,0:0:0:0:
64,344,204784,1,0,0:0:0:0:
20,284,204863,1,0,0:0:0:0:
476,296,205021,6,0,B|400:316|400:316|328:304|328:304|236:312,1,225.000008583069
100,192,205337,1,0,0:0:0:0:
76,120,205416,1,0,0:0:0:0:
116,56,205495,1,0,0:0:0:0:
184,24,205574,1,0,0:0:0:0:
256,48,205653,1,0,0:0:0:0:
300,108,205732,1,0,0:0:0:0:
372,124,205811,1,0,0:0:0:0:
444,108,205890,1,0,0:0:0:0:
492,52,205968,2,0,P|468:140|472:224,1,150.000005722046
256,360,206284,6,0,L|256:200,1,150.000005722046
36,32,206600,1,0,0:0:0:0:
40,108,206679,1,0,0:0:0:0:
52,180,206758,1,0,0:0:0:0:
80,248,206837,1,0,0:0:0:0:
124,308,206916,2,0,P|168:298|204:292,1,75.0000028610231
372,192,207074,2,0,P|416:192|448:184,1,75.0000028610231
208,32,207232,2,0,B|128:28|128:28|40:56,1,150.000005722046
304,352,207547,6,0,B|384:356|384:356|472:328,1,150.000005722046
480,264,207784,1,0,0:0:0:0:
472,188,207863,1,0,0:0:0:0:
420,136,207942,1,0,0:0:0:0:
344,128,208021,1,0,0:0:0:0:
32,240,208179,1,0,0:0:0:0:
88,292,208258,1,0,0:0:0:0:
164,300,208337,1,0,0:0:0:0:
236,284,208416,1,0,0:0:0:0:
296,240,208495,2,0,P|304:196|304:144,1,75.0000028610231
116,40,208653,2,0,P|112:100|112:128,1,75.0000028610231
328,272,208811,6,0,P|336:172|328:96,1,150.000005722046
224,32,209047,1,0,0:0:0:0:
192,100,209126,1,0,0:0:0:0:
208,172,209205,1,0,0:0:0:0:
260,224,209284,1,0,0:0:0:0:
272,300,209363,1,0,0:0:0:0:
232,364,209442,1,0,0:0:0:0:
68,120,209600,1,0,0:0:0:0:
372,108,209758,1,0,0:0:0:0:
232,364,209916,1,0,0:0:0:0:
288,24,210074,5,0,0:0:0:0:
80,204,210232,1,0,0:0:0:0:
92,276,210311,1,0,0:0:0:0:
152,324,210390,1,0,0:0:0:0:
224,328,210468,1,0,0:0:0:0:
288,288,210547,1,0,0:0:0:0:
364,280,210626,1,0,0:0:0:0:
432,308,210705,1,0,0:0:0:0:
212,140,210863,1,0,0:0:0:0:
200,120,210942,1,0,0:0:0:0:
208,96,211021,1,0,0:0:0:0:
228,84,211100,1,0,0:0:0:0:
248,92,211179,1,0,0:0:0:0:
508,196,211337,5,0,0:0:0:0:
440,228,211416,1,0,0:0:0:0:
364,232,211495,1,0,0:0:0:0:
292,220,211574,1,0,0:0:0:0:
224,188,211653,1,0,0:0:0:0:
152,176,211732,1,0,0:0:0:0:
80,196,211811,1,0,0:0:0:0:
24,248,211890,1,0,0:0:0:0:
20,324,211968,2,0,L|20:136,1,150.000005722046
92,56,212205,1,0,0:0:0:0:
160,88,212284,1,0,0:0:0:0:
192,156,212363,1,0,0:0:0:0:
260,184,212442,1,0,0:0:0:0:
332,168,212521,1,0,0:0:0:0:
380,108,212600,6,0,P|468:84|512:116,1,150.000005722046
360,324,212837,2,0,P|280:340|216:288,1,150.000005722046
80,172,213074,2,0,L|64:64,1,75.0000028610231
320,40,213232,1,0,0:0:0:0:
316,64,213311,1,0,0:0:0:0:
312,84,213390,1,0,0:0:0:0:
308,108,213468,1,0,0:0:0:0:
304,128,213547,1,0,0:0:0:0:
300,148,213626,1,0,0:0:0:0:
296,168,213705,1,0,0:0:0:0:
292,188,213784,1,0,0:0:0:0:
288,208,213863,5,0,0:0:0:0:
