osu file format v12

[General]
AudioFilename: Magic Logic Labyrinth.mp3
AudioLeadIn: 2000
PreviewTime: 54848
Countdown: 0
SampleSet: Normal
StackLeniency: 0.7
Mode: 0
LetterboxInBreaks: 1
WidescreenStoryboard: 0

[Editor]
DistanceSpacing: 0.8
BeatDivisor: 6
GridSize: 8

[Metadata]
Title:Magic Logic Labyrinth
TitleUnicode:Magic Logic Labyrinth
Artist:a_hisa
ArtistUnicode:a_hisa
Creator:Muya
Version:Easy
Source:
Tags:Gothic Metal
BeatmapID:275803
BeatmapSetID:103372

[Difficulty]
HPDrainRate:3
CircleSize:3
OverallDifficulty:3
ApproachRate:4
SliderMultiplier:1.1
SliderTickRate:1

[Events]
//Background and Video events
0,0,"bg.jpg",0,0
//Break Periods
2,11209,15023
2,76543,81690
//Storyboard Layer 0 (Background)
//Storyboard Layer 1 (Fail)
//Storyboard Layer 2 (Pass)
//Storyboard Layer 3 (Foreground)
//Storyboard Sound Samples
//Background Colour Transformations
3,100,163,162,255

[TimingPoints]
344,333.333333333333,4,2,0,60,1,0
5260,-100,4,1,1,80,0,0
11093,-100,4,2,1,80,0,0
21677,-100,4,1,1,80,0,0
48343,-100,4,2,1,80,0,0
51010,-100,4,1,1,80,0,0
52427,-100,4,2,1,80,0,0
53677,-100,4,1,1,80,0,0
55010,-100,4,1,1,80,0,1
65593,-100,4,1,1,80,0,0
65677,-100,4,1,1,80,0,1
76260,-100,4,1,1,80,0,0
76343,-100,4,1,1,80,0,1
76427,-100,4,1,1,80,0,0
125010,333.333333333333,4,1,1,80,1,0
135593,-100,4,2,0,80,0,0
136843,-100,4,1,1,80,0,0
138343,-133.333333333333,4,2,0,80,0,0
139676,-133.333333333333,4,2,0,80,0,0
150009,-100,4,1,1,80,0,0
150343,-100,4,1,1,80,0,1
160926,-100,4,1,1,80,0,0
162343,-133.333333333333,4,1,1,80,0,1
163065,-100,4,1,1,80,0,0

[Colours]
Combo1 : 43,255,43
Combo2 : 255,43,149
Combo3 : 43,149,255
Combo4 : 255,255,43

[HitObjects]
16,80,344,2,0,L|40:300,3,220
204,364,3010,6,0,L|180:144,3,220
224,68,5343,1,8,0:0:0:0:
308,100,5677,6,0,P|360:112|420:104,1,110,4|0,0:0|0:0,0:0:0:0:
488,156,6343,2,0,L|480:272,1,110,0|0,0:0|0:0,0:0:0:0:
428,336,7010,2,0,P|376:324|316:332,1,110,0|0,0:0|0:0,0:0:0:0:
248,280,7676,2,0,L|256:164,1,110,0|0,0:0|0:0,0:0:0:0:
232,84,8343,6,0,P|180:64|128:72,1,110
68,136,9010,2,0,P|120:156|172:148,1,110
248,192,9677,2,0,L|241:302,1,110
161,338,10343,2,0,P|105:354|49:350,2,110,0|0|4,0:0|0:0|0:0,0:0:0:0:
68,348,16343,6,0,L|64:224,1,110,4|0,0:0|0:0,0:0:0:0:
144,212,17010,2,0,L|148:336,1,110
232,352,17677,2,0,L|228:228,1,110
312,212,18344,2,0,L|316:336,1,110
400,352,19010,5,4,0:0:0:0:
472,192,19677,1,0,0:0:0:0:
400,32,20343,1,0,0:0:0:0:
328,192,21010,1,4,0:0:0:0:
256,352,21677,6,0,P|148:360|72:284,1,220,4|0,0:0|0:0,0:0:0:0:
52,200,22677,1,0,0:0:0:0:
96,124,23010,2,0,L|84:8,2,110
200,268,24343,6,0,P|260:276|324:264,1,110
336,248,24843,2,0,P|396:240|496:292,1,165
464,368,25677,1,0,0:0:0:0:
336,248,26343,2,0,P|332:188|336:136,1,110
376,60,27010,5,4,0:0:0:0:
492,192,27677,2,0,P|496:252|492:304,1,110
424,356,28343,2,0,P|340:312|220:332,1,220
48,368,29677,2,0,P|24:288|48:156,1,220
108,92,30677,1,0,0:0:0:0:
20,76,31010,1,0,0:0:0:0:
280,116,32010,1,0,0:0:0:0:
256,32,32343,6,0,P|364:24|440:100,1,220,4|0,0:0|0:0,0:0:0:0:
460,184,33343,1,0,0:0:0:0:
416,260,33676,2,0,L|428:376,2,110
312,116,35009,6,0,P|252:108|188:120,1,110
176,136,35510,2,0,P|116:144|16:92,1,165
48,16,36343,1,0,0:0:0:0:
176,136,37009,2,0,P|180:196|176:248,1,110
136,324,37676,5,4,0:0:0:0:
20,192,38343,2,0,P|16:132|20:80,1,110
88,28,39010,2,0,P|172:72|292:52,1,220
464,16,40343,2,0,P|488:96|464:228,1,220
396,284,41343,1,0,0:0:0:0:
320,240,41677,2,0,P|264:232|204:236,2,110
184,352,43010,6,0,P|72:320|32:212,1,220,4|0,0:0|0:0,0:0:0:0:
32,144,44010,1,0,0:0:0:0:
116,116,44343,2,0,P|228:148|268:256,1,220,0|0,0:0|0:0,0:0:0:0:
400,356,45677,6,0,P|392:296|404:240,1,110
452,176,46343,1,0,0:0:0:0:
336,44,47010,2,0,P|260:88|132:68,1,220
40,216,48343,6,0,P|116:172|244:192,3,220,4|4|4|4,0:0|0:0|0:0|0:0,0:0:0:0:
356,324,51010,6,0,P|412:340|460:324,1,110
512,252,51677,2,0,P|456:236|408:252,1,110
320,244,52343,1,0,0:0:0:0:
256,304,52677,1,0,0:0:0:0:
168,292,53010,1,0,0:0:0:0:
24,192,53677,5,0,0:0:0:0:
88,132,54011,1,0,0:0:0:0:
176,144,54343,2,0,P|224:148|284:128,1,110
344,68,55010,5,4,0:0:0:0:
428,40,55343,1,0,0:0:0:0:
504,84,55677,1,0,0:0:0:0:
376,208,56343,2,0,P|360:256|376:312,1,110
444,368,57010,2,0,P|460:320|444:264,1,110
376,208,57677,6,0,P|292:272|176:256,1,220
112,208,58677,1,0,0:0:0:0:
32,248,59010,2,0,P|16:300|24:360,2,110
12,72,60343,6,0,P|64:80|136:68,1,110,4|0,0:0|0:0,0:0:0:0:
196,28,61010,1,0,0:0:0:0:
368,72,61677,2,0,P|384:120|368:176,1,110
300,232,62343,2,0,P|284:280|300:336,1,110
380,372,63010,6,0,P|476:336|492:204,1,220
468,148,64010,1,0,0:0:0:0:
384,168,64343,1,0,0:0:0:0:
228,244,65010,2,0,P|220:188|228:132,1,110
168,68,65677,5,4,0:0:0:0:
84,40,66010,1,0,0:0:0:0:
8,84,66344,1,0,0:0:0:0:
136,208,67010,2,0,P|152:256|136:312,1,110
68,368,67677,2,0,P|52:320|68:264,1,110
136,208,68344,6,0,P|220:272|336:256,1,220
400,208,69344,1,0,0:0:0:0:
480,248,69677,2,0,P|496:300|488:360,2,110
500,72,71010,6,0,P|448:80|376:68,1,110,4|0,0:0|0:0,0:0:0:0:
316,28,71677,1,0,0:0:0:0:
144,72,72344,2,0,P|128:120|144:176,1,110
212,232,73010,2,0,P|228:280|212:336,1,110
132,372,73677,6,0,P|36:336|20:204,1,220
44,148,74677,1,0,0:0:0:0:
124,112,75010,2,0,B|180:96|224:140|224:140|268:184|324:168,2,220,0|0|4,0:0|0:0|0:0,0:0:0:0:
52,324,83010,6,0,P|112:288|256:304,1,220,4|0,0:0|0:0,0:0:0:0:
328,356,84010,1,0,0:0:0:0:
412,324,84343,2,0,P|448:276|460:220,1,110
444,140,85010,1,0,0:0:0:0:
308,24,85677,6,0,P|268:84|276:232,1,220
336,288,86677,1,0,0:0:0:0:
416,252,87010,2,0,P|436:200|436:140,2,110
256,324,88343,6,0,P|148:356|60:276,1,220,4|0,0:0|0:0,0:0:0:0:
28,216,89343,1,0,0:0:0:0:
108,176,89677,2,0,P|116:124|108:68,1,110
32,20,90343,2,0,P|24:72|32:128,1,110
28,216,91010,6,0,P|108:196|220:272,1,220
256,348,92010,1,0,0:0:0:0:
340,372,92343,2,0,P|456:324|496:128,1,330
460,60,93677,6,0,P|400:96|256:80,1,220,4|0,0:0|0:0,0:0:0:0:
184,28,94677,1,0,0:0:0:0:
100,60,95010,2,0,P|64:108|52:164,1,110
68,244,95677,1,0,0:0:0:0:
204,360,96344,6,0,P|244:300|236:152,1,220
176,96,97344,1,0,0:0:0:0:
96,132,97677,2,0,P|76:184|76:244,2,110
256,60,99010,6,0,P|364:28|452:108,1,220,4|0,0:0|0:0,0:0:0:0:
484,168,100010,1,0,0:0:0:0:
404,208,100344,2,0,P|396:260|404:316,1,110
480,364,101010,2,0,P|488:312|480:256,1,110
484,168,101677,6,0,P|404:188|292:112,1,220
256,36,102677,1,0,0:0:0:0:
172,12,103010,2,0,P|112:16|64:36,2,110
340,60,104343,6,0,P|364:148|340:272,1,220,4|0,0:0|0:0,0:0:0:0:
256,304,105343,1,0,0:0:0:0:
172,272,105677,2,0,P|147:166|172:60,1,220,0|0,0:0|0:0,0:0:0:0:
0,20,107010,5,0,0:0:0:0:
56,88,107343,2,0,P|64:144|56:200,1,110
116,264,108010,1,0,0:0:0:0:
64,336,108343,2,0,P|160:360|280:336,1,220
376,192,109677,6,0,P|280:168|160:192,1,220,4|0,0:0|0:0,0:0:0:0:
92,136,110677,1,0,0:0:0:0:
151,72,111010,2,0,P|205:79|260:72,1,110,4|0,0:0|0:0,0:0:0:0:
320,136,111677,2,0,P|376:128|432:136,1,110,4|0,0:0|0:0,0:0:0:0:
488,72,112343,5,4,0:0:0:0:
496,264,113010,1,0,0:0:0:0:
456,344,113343,1,0,0:0:0:0:
408,272,113677,2,0,B|320:248|256:312|256:312|192:376|104:352,1,330
56,280,115010,5,4,0:0:0:0:
104,112,115677,1,4,0:0:0:0:
256,192,116343,1,4,0:0:0:0:
408,112,117010,1,4,0:0:0:0:
456,280,117677,5,4,0:0:0:0:
300,364,118343,1,4,0:0:0:0:
256,192,119010,2,0,P|248:136|256:80,1,110,4|0,0:0|0:0,0:0:0:0:
320,24,119677,1,4,0:0:0:0:
152,76,120343,6,0,P|96:80|40:76,1,110,4|0,0:0|0:0,0:0:0:0:
24,164,121010,2,0,P|80:160|136:164,1,110
176,240,121677,2,0,P|120:244|64:240,1,110
48,328,122344,2,0,P|104:324|160:328,1,110
236,368,123010,5,4,0:0:0:0:
256,280,123343,1,4,0:0:0:0:
336,316,123677,1,4,0:0:0:0:
356,228,124010,1,4,0:0:0:0:
436,264,124344,1,4,0:0:0:0:
456,176,124677,1,4,0:0:0:0:
476,88,125010,5,4,0:0:0:0:
308,32,125676,1,0,0:0:0:0:
204,176,126343,1,0,0:0:0:0:
36,120,127010,1,0,0:0:0:0:
72,292,127676,6,0,P|116:332|164:344,1,110
244,308,128343,2,0,P|288:268|336:256,1,110
416,292,129010,1,0,0:0:0:0:
496,256,129343,2,0,P|504:200|496:144,2,110
488,344,130343,5,4,0:0:0:0:
344,240,131010,1,0,0:0:0:0:
208,348,131676,2,0,P|100:340|40:252,1,220
48,168,132676,1,0,0:0:0:0:
116,112,133010,6,0,P|224:120|284:208,2,220,4|0|0,0:0|0:0|0:0,0:0:0:0:
48,168,134676,1,0,0:0:0:0:
72,252,135010,1,0,0:0:0:0:
256,348,135676,6,0,B|308:264|256:192|256:192|204:120|256:40,1,330,4|0,0:0|0:0,0:0:0:0:
340,16,137010,1,0,0:0:0:0:
472,340,138343,5,0,0:0:0:0:
316,256,139010,1,0,0:0:0:0:
172,356,139676,2,0,P|128:368|88:360,1,82.5000031471254
44,288,140343,2,0,P|88:276|128:284,1,82.5000031471254
212,276,141009,5,0,0:0:0:0:
300,124,141676,1,0,0:0:0:0:
148,36,142343,2,0,P|104:32|64:36,2,82.5000031471254
192,112,143343,1,0,0:0:0:0:
156,192,143676,5,0,0:0:0:0:
0,272,144343,1,0,0:0:0:0:
144,372,145009,2,0,P|188:372|240:360,1,82.5000031471254
304,324,145676,2,0,P|348:324|400:336,1,82.5000031471254
464,372,146343,5,0,0:0:0:0:
512,204,147009,1,0,0:0:0:0:
388,80,147676,2,0,P|340:84|288:80,2,82.5000031471254
468,44,148676,1,0,0:0:0:0:
468,44,150009,1,4,0:0:0:0:
388,80,150343,6,0,P|336:88|276:72,1,110,4|0,0:0|0:0,0:0:0:0:
192,84,151009,2,0,P|176:136|188:192,1,110
268,224,151676,2,0,P|320:232|380:216,1,110
464,228,152343,2,0,P|480:280|468:336,1,110
388,368,153009,6,0,P|296:312|180:328,1,220
104,352,154009,1,0,0:0:0:0:
20,324,154343,2,0,P|8:256|16:212,2,110
132,188,155676,6,0,P|138:133|126:80,1,110,4|0,0:0|0:0,0:0:0:0:
204,40,156343,2,0,P|256:32|312:44,1,110
380,100,157009,2,0,P|373:154|385:207,1,110
308,248,157676,2,0,P|256:256|200:244,1,110
148,316,158343,6,0,P|240:348|368:316,1,220
396,244,159343,1,0,0:0:0:0:
324,192,159676,2,0,P|308:136|324:88,1,110
396,36,160343,2,0,P|412:92|396:140,1,110
256,280,162343,6,0,B|240:232|256:192|256:192|272:152|256:104,1,178.750006818772,4|0,0:0|0:0,0:0:0:0:
