osu file format v12

[General]
AudioFilename: Magic Logic Labyrinth.mp3
AudioLeadIn: 2000
PreviewTime: 54848
Countdown: 0
SampleSet: Normal
StackLeniency: 0.7
Mode: 0
LetterboxInBreaks: 1
WidescreenStoryboard: 0

[Editor]
DistanceSpacing: 0.8
BeatDivisor: 6
GridSize: 4

[Metadata]
Title:Magic Logic Labyrinth
TitleUnicode:Magic Logic Labyrinth
Artist:a_hisa
ArtistUnicode:a_hisa
Creator:Muya
Version:Beginner
Source:
Tags:Gothic Metal
BeatmapID:275802
BeatmapSetID:103372

[Difficulty]
HPDrainRate:1
CircleSize:3
OverallDifficulty:2
ApproachRate:2
SliderMultiplier:0.8
SliderTickRate:1

[Events]
//Background and Video events
0,0,"bg.jpg",0,0
//Break Periods
2,11209,14783
2,76543,81450
//Storyboard Layer 0 (Background)
//Storyboard Layer 1 (Fail)
//Storyboard Layer 2 (Pass)
//Storyboard Layer 3 (Foreground)
//Storyboard Sound Samples
//Background Colour Transformations
3,100,163,162,255

[TimingPoints]
344,333.333333333333,4,2,0,60,1,0
5260,-100,4,1,1,80,0,0
11093,-100,4,2,1,80,0,0
21677,-100,4,1,1,80,0,0
48343,-100,4,2,1,80,0,0
51010,-100,4,1,1,80,0,0
52427,-100,4,2,1,80,0,0
53677,-100,4,1,1,80,0,0
55010,-100,4,1,1,80,0,1
65593,-100,4,1,1,80,0,0
65677,-100,4,1,1,80,0,1
76260,-100,4,1,1,80,0,0
76343,-100,4,1,1,80,0,1
76427,-100,4,1,1,80,0,0
125010,333.333333333333,4,1,1,80,1,0
135593,-100,4,2,0,80,0,0
138510,-133.333333333333,4,2,1,80,0,0
149176,-100,4,1,1,40,0,0
149509,-100,4,1,1,50,0,0
149676,-100,4,1,1,60,0,0
149843,-100,4,1,1,70,0,0
150009,-100,4,1,1,80,0,0
150343,-100,4,1,1,80,0,1
160926,-100,4,1,1,80,0,0
162343,-100,4,1,1,80,0,1
163065,-100,4,1,1,80,0,0

[Colours]
Combo1 : 43,255,43
Combo2 : 255,43,149
Combo3 : 43,149,255
Combo4 : 255,255,43

[HitObjects]
40,72,344,2,0,P|24:144|36:236,3,160
140,300,3010,6,0,P|156:228|144:136,3,160
168,100,5343,1,0,0:0:0:0:
188,56,5677,5,4,0:0:0:0:
256,164,6343,2,0,L|244:248,2,80
368,100,7677,2,0,L|380:16,2,80
436,208,9010,6,0,P|428:248|424:292,1,80
444,332,9677,1,0,0:0:0:0:
320,360,10343,2,0,L|236:364,2,80,0|0|4,0:0|0:0|0:0,0:0:0:0:
32,352,16343,5,4,0:0:0:0:
108,248,17010,1,0,0:0:0:0:
0,180,17677,1,0,0:0:0:0:
76,76,18343,1,0,0:0:0:0:
184,144,19010,6,0,P|264:152|336:104,1,160,4|0,0:0|0:0,0:0:0:0:
428,32,20343,2,0,P|420:112|428:192,1,160,0|4,0:0|0:0,0:0:0:0:
352,296,21677,6,0,P|280:352|136:336,1,240,4|0,0:0|0:0,0:0:0:0:
100,308,23010,2,0,L|92:148,1,160
140,32,24343,6,0,B|200:12|256:44|256:44|312:76|372:56,1,240
416,36,25677,2,0,L|496:32,2,80
304,100,27010,6,0,P|292:172|296:272,1,160,4|0,0:0|0:0,0:0:0:0:
392,340,28343,2,0,P|404:268|400:168,1,160
304,100,29677,6,0,P|224:144|80:120,1,240
56,80,31010,1,0,0:0:0:0:
132,256,32010,1,0,0:0:0:0:
160,296,32343,6,0,P|232:352|376:336,1,240,4|0,0:0|0:0,0:0:0:0:
412,308,33677,2,0,L|420:148,1,160
372,32,35010,6,0,B|312:12|256:44|256:44|200:76|140:56,1,240
96,36,36343,2,0,L|16:32,2,80
208,100,37677,6,0,P|220:172|216:272,1,160,4|0,0:0|0:0,0:0:0:0:
120,340,39010,2,0,P|108:268|112:168,1,160
208,100,40343,6,0,P|288:144|432:120,1,240
456,80,41677,2,0,P|448:152|456:248,1,160
368,332,43010,6,0,P|276:368|88:276,1,320,4|0,0:0|0:0,0:0:0:0:
64,152,45010,1,0,0:0:0:0:
144,52,45677,6,0,P|236:16|424:108,1,320
448,232,47677,1,0,0:0:0:0:
368,332,48343,6,0,L|208:340,3,160,4|4|4|4,0:0|0:0|0:0|0:0,0:0:0:0:
96,276,51010,5,0,0:0:0:0:
148,160,51677,2,0,P|152:120|148:80,1,80
128,36,52343,1,0,0:0:0:0:
24,212,53677,6,0,P|20:252|24:292,1,80
52,332,54343,2,0,L|132:348,1,80
172,324,55010,6,0,P|252:308|332:316,1,160,4|0,0:0|0:0,0:0:0:0:
448,364,56343,2,0,L|460:200,1,160
480,160,57343,1,0,0:0:0:0:
500,116,57677,5,0,0:0:0:0:
408,28,58343,1,0,0:0:0:0:
352,144,59010,2,0,P|308:152|272:148,1,80
236,180,59677,2,0,P|228:224|232:260,1,80
256,300,60343,6,0,P|192:344|96:336,1,160,4|0,0:0|0:0,0:0:0:0:
24,248,61677,2,0,P|12:208|16:168,1,80
40,128,62343,2,0,L|120:108,1,80
160,84,63010,6,0,P|224:104|316:72,1,160
356,92,64010,1,0,0:0:0:0:
400,108,64343,1,0,0:0:0:0:
432,232,65010,1,0,0:0:0:0:
340,324,65677,6,0,P|260:308|180:316,1,160,4|0,0:0|0:0,0:0:0:0:
64,364,67010,2,0,L|52:200,1,160
32,160,68010,1,0,0:0:0:0:
12,116,68344,5,0,0:0:0:0:
104,28,69010,1,0,0:0:0:0:
160,144,69677,2,0,P|204:152|240:148,1,80
276,180,70344,2,0,P|284:224|280:260,1,80
256,300,71010,6,0,P|320:344|416:336,1,160,4|0,0:0|0:0,0:0:0:0:
488,248,72344,2,0,P|500:208|496:168,1,80
472,128,73010,2,0,L|392:108,1,80
352,84,73677,6,0,P|288:104|196:72,1,160
156,92,74677,1,0,0:0:0:0:
112,108,75010,1,0,0:0:0:0:
80,232,75677,2,0,L|72:312,1,80
108,344,76343,5,4,0:0:0:0:
352,88,83010,6,0,P|280:32|136:48,1,240,4|0,0:0|0:0,0:0:0:0:
100,76,84343,2,0,L|92:236,1,160
140,352,85676,6,0,B|200:372|256:340|256:340|312:308|372:328,1,240
416,348,87010,2,0,L|496:352,2,80
304,284,88343,6,0,P|292:212|296:112,1,160,4|0,0:0|0:0,0:0:0:0:
392,44,89676,2,0,P|404:116|400:216,1,160
304,284,91010,6,0,P|224:240|80:264,1,240
56,304,92343,1,0,0:0:0:0:
132,128,93343,1,0,0:0:0:0:
160,88,93676,6,0,P|232:32|376:48,1,240,4|0,0:0|0:0,0:0:0:0:
412,76,95010,2,0,L|420:236,1,160
372,352,96343,6,0,B|312:372|256:340|256:340|200:308|140:328,1,240
96,348,97676,2,0,L|16:352,2,80
208,284,99010,6,0,P|220:212|216:112,1,160,4|0,0:0|0:0,0:0:0:0:
120,44,100343,2,0,P|108:116|112:216,1,160
208,284,101677,6,0,P|284:240|432:264,1,240
456,304,103010,2,0,P|448:232|456:136,1,160
368,52,104343,6,0,P|276:16|88:108,1,320,4|0,0:0|0:0,0:0:0:0:
64,232,106343,1,0,0:0:0:0:
144,332,107010,6,0,P|236:368|424:276,1,320
448,152,109010,1,0,0:0:0:0:
368,52,109676,6,0,L|208:44,1,160,4|0,0:0|0:0,0:0:0:0:
88,84,111010,2,0,P|84:124|88:164,1,80,4|4,0:0|0:0,0:0:0:0:
112,204,111677,2,0,P|116:244|112:284,1,80,4|4,0:0|0:0,0:0:0:0:
92,328,112343,5,4,0:0:0:0:
216,356,113010,2,0,L|304:340,2,80
464,288,115010,6,0,P|480:208|464:132,1,160,4|4,0:0|0:0,0:0:0:0:
368,48,116343,2,0,P|352:128|368:204,1,160,4|4,0:0|0:0,0:0:0:0:
344,328,117677,5,4,0:0:0:0:
244,248,118343,1,4,0:0:0:0:
221,373,119010,2,0,P|140:320|120:256,1,160,4|4,0:0|0:0,0:0:0:0:
56,152,120343,6,0,P|52:108|60:72,1,80,4|0,0:0|0:0,0:0:0:0:
100,48,121010,1,0,0:0:0:0:
228,28,121677,2,0,P|232:72|224:108,1,80
184,132,122344,1,0,0:0:0:0:
120,244,123010,5,4,0:0:0:0:
192,352,123677,1,4,0:0:0:0:
320,352,124343,1,4,0:0:0:0:
392,244,125010,6,0,L|400:164,2,80,4|0|0,0:0|0:0|0:0,0:0:0:0:
284,172,126343,2,0,L|276:252,2,80
348,60,127676,6,0,P|304:68|268:64,1,80
224,48,128343,2,0,P|189:44|145:52,1,80
100,68,129010,1,0,0:0:0:0:
20,168,129676,1,0,0:0:0:0:
44,296,130343,6,0,L|124:316,1,80,4|0,0:0|0:0,0:0:0:0:
148,356,131010,2,0,P|196:344|232:344,1,80
268,320,131676,2,0,P|344:356|416:340,1,160
456,312,132676,1,0,0:0:0:0:
480,268,133010,5,4,0:0:0:0:
416,156,133676,1,0,0:0:0:0:
492,52,134343,2,0,P|432:60|340:24,1,160
224,76,135676,6,0,B|205:140|237:192|237:192|268:243|249:307,1,240,4|0,0:0|0:0,0:0:0:0:
228,352,137010,1,0,1:1:0:0:
48,172,138343,5,4,1:1:0:0:
76,80,139010,1,0,0:0:0:0:
172,112,139676,2,0,P|168:144|172:176,1,60.0000022888184
188,204,140343,2,0,P|192:236|188:268,1,60.0000022888184
172,296,141009,5,0,0:0:0:0:
236,368,141676,1,0,0:0:0:0:
328,340,142343,2,0,P|332:308|328:276,1,60.0000022888184
312,248,143010,2,0,P|308:216|312:184,1,60.0000022888184
328,156,143676,5,0,0:0:0:0:
388,80,144343,1,0,0:0:0:0:
472,128,145009,2,0,P|480:100|484:68,2,60.0000022888184
448,156,146009,1,0,0:0:0:0:
432,188,146343,5,0,0:0:0:0:
456,280,147009,1,0,0:0:0:0:
364,308,147676,2,0,P|356:336|352:368,2,60.0000022888184
348,276,148676,2,0,P|224:320|112:296,1,240.000009155274,0|4,0:0|0:0,0:0:0:0:
80,272,150343,5,4,0:0:0:0:
12,164,151009,2,0,P|52:168|92:164,1,80
136,144,151676,1,0,0:0:0:0:
216,44,152343,2,0,P|256:40|296:44,1,80
340,64,153010,5,0,0:0:0:0:
456,116,153676,2,0,L|464:36,2,80
356,196,155009,2,0,L|348:276,2,80
240,144,156343,6,0,P|216:136|160:136,1,80
116,152,157009,1,0,0:0:0:0:
60,268,157676,2,0,P|84:276|140:276,1,80
184,260,158342,5,0,0:0:0:0:
288,336,159009,1,0,0:0:0:0:
408,292,159676,2,0,P|396:212|412:136,1,160
440,96,160676,1,0,0:0:0:0:
136,192,162343,6,0,B|180:172|220:192|220:192|260:212|304:192,1,173.333333333333,4|0,0:0|0:0,0:0:0:0:
