osu file format v12

[General]
AudioFilename: Magic Logic Labyrinth.mp3
AudioLeadIn: 2000
PreviewTime: 54848
Countdown: 0
SampleSet: Normal
StackLeniency: 0.7
Mode: 0
LetterboxInBreaks: 1
WidescreenStoryboard: 1

[Editor]
DistanceSpacing: 1.6
BeatDivisor: 6
GridSize: 4

[Metadata]
Title:Magic Logic Labyrinth
TitleUnicode:Magic Logic Labyrinth
Artist:a_hisa
ArtistUnicode:a_hisa
Creator:Muya
Version:Another
Source:
Tags:Gothic Metal
BeatmapID:272454
BeatmapSetID:103372

[Difficulty]
HPDrainRate:8
CircleSize:5
OverallDifficulty:9
ApproachRate:9
SliderMultiplier:1.8
SliderTickRate:2

[Events]
//Background and Video events
0,0,"bg.jpg",0,0
//Break Periods
//Storyboard Layer 0 (Background)
//Storyboard Layer 1 (Fail)
//Storyboard Layer 2 (Pass)
//Storyboard Layer 3 (Foreground)
//Storyboard Sound Samples
//Background Colour Transformations
3,100,163,162,255

[TimingPoints]
344,333.333333333333,4,2,0,60,1,0
5260,-100,4,1,1,80,0,0
11093,-100,4,2,1,80,0,0
21677,-100,4,1,1,80,0,0
21760,-100,4,1,2,80,0,0
21927,-100,4,1,1,80,0,0
24427,-100,4,1,2,80,0,0
24593,-100,4,1,1,80,0,0
27093,-100,4,1,2,80,0,0
27260,-100,4,1,1,80,0,0
29760,-100,4,1,2,80,0,0
29927,-100,4,1,1,80,0,0
32427,-100,4,1,2,80,0,0
32593,-100,4,1,1,80,0,0
35093,-100,4,1,2,80,0,0
35260,-100,4,1,1,80,0,0
37760,-100,4,1,2,80,0,0
37927,-100,4,1,1,80,0,0
40427,-100,4,1,2,80,0,0
40593,-100,4,1,1,80,0,0
43093,-100,4,1,2,80,0,0
43260,-100,4,1,1,80,0,0
44427,-100,4,1,2,80,0,0
44593,-100,4,1,1,80,0,0
45093,-100,4,1,2,80,0,0
45260,-100,4,1,1,80,0,0
47093,-100,4,1,2,80,0,0
47260,-100,4,1,1,80,0,0
47760,-100,4,1,2,80,0,0
47927,-100,4,1,1,80,0,0
48343,-100,4,2,1,80,0,0
51010,-100,4,1,1,80,0,0
52427,-100,4,2,1,80,0,0
53677,-100,4,1,1,80,0,0
55010,-100,4,1,1,80,0,1
56427,-100,4,1,2,80,0,1
56593,-100,4,1,1,80,0,1
57760,-100,4,1,2,80,0,1
57927,-100,4,1,1,80,0,1
61760,-100,4,1,2,80,0,1
61927,-100,4,1,1,80,0,1
63093,-100,4,1,2,80,0,1
63260,-100,4,1,1,80,0,1
64427,-100,4,1,2,80,0,1
64593,-100,4,1,1,80,0,1
65593,-100,4,1,1,80,0,0
65677,-100,4,1,1,80,0,1
67093,-100,4,1,2,80,0,1
67260,-100,4,1,1,80,0,1
68427,-100,4,1,2,80,0,1
68593,-100,4,1,1,80,0,1
72427,-100,4,1,2,80,0,1
72593,-100,4,1,1,80,0,1
73760,-100,4,1,2,80,0,1
73927,-100,4,1,1,80,0,1
76260,-100,4,1,1,80,0,0
76343,-100,4,1,1,80,0,1
76427,-100,4,1,1,80,0,0
83093,-100,4,1,2,80,0,0
83260,-100,4,1,1,80,0,0
85760,-100,4,1,2,80,0,0
85927,-100,4,1,1,80,0,0
88427,-100,4,1,2,80,0,0
88593,-100,4,1,1,80,0,0
91093,-100,4,1,2,80,0,0
91260,-100,4,1,1,80,0,0
93760,-100,4,1,2,80,0,0
93927,-100,4,1,1,80,0,0
96427,-100,4,1,2,80,0,0
96593,-100,4,1,1,80,0,0
99093,-100,4,1,2,80,0,0
99260,-100,4,1,1,80,0,0
101760,-100,4,1,2,80,0,0
101927,-100,4,1,1,80,0,0
104427,-100,4,1,2,80,0,0
104593,-100,4,1,1,80,0,0
105760,-100,4,1,2,80,0,0
105927,-100,4,1,1,80,0,0
106427,-100,4,1,2,80,0,0
106593,-100,4,1,1,80,0,0
108427,-100,4,1,2,80,0,0
108593,-100,4,1,1,80,0,0
109093,-100,4,1,2,80,0,0
109260,-100,4,1,1,80,0,0
109760,-100,4,1,2,80,0,0
109927,-100,4,1,1,80,0,0
110427,-100,4,1,2,80,0,0
110593,-100,4,1,1,80,0,0
113093,-100,4,1,2,80,0,0
113260,-100,4,1,1,80,0,0
113760,-100,4,1,2,80,0,0
113927,-100,4,1,1,80,0,0
114093,-100,4,1,2,80,0,0
114260,-100,4,1,1,80,0,0
114427,-100,4,1,2,80,0,0
114593,-100,4,1,1,80,0,0
125010,333.333333333333,4,1,1,80,1,0
135593,-100,4,2,0,80,0,0
137093,-100,4,1,1,20,0,0
137343,-100,4,1,1,30,0,0
137676,-100,4,1,1,40,0,0
137843,-100,4,1,1,50,0,0
138010,-100,4,1,1,60,0,0
138176,-100,4,1,1,70,0,0
138343,-100,4,1,1,80,0,0
138510,-133.333333333333,4,2,1,80,0,0
149176,-100,4,1,1,40,0,0
149509,-100,4,1,1,50,0,0
149676,-100,4,1,1,60,0,0
149843,-100,4,1,1,70,0,0
150009,-100,4,1,1,80,0,0
150343,-100,4,1,1,80,0,1
160926,-100,4,1,1,80,0,0
162343,-133.333333333333,4,1,1,80,0,1
163009,-100,4,1,1,80,0,1
163065,-100,4,1,1,80,0,0

[Colours]
Combo1 : 43,255,43
Combo2 : 255,43,149
Combo3 : 43,149,255
Combo4 : 255,255,43

[HitObjects]
44,56,344,1,0,0:0:0:0:
112,80,510,1,2,0:0:0:0:
180,56,677,1,2,0:0:0:0:
196,60,760,1,2,0:0:0:0:
212,64,843,1,2,0:0:0:0:
228,60,927,1,2,0:0:0:0:
244,56,1010,1,0,0:0:0:0:
312,80,1177,1,2,0:0:0:0:
380,56,1343,1,2,0:0:0:0:
448,80,1510,1,0,0:0:0:0:
498,174,1677,5,2,0:0:0:0:
430,150,1843,1,2,0:0:0:0:
362,174,2010,1,2,0:0:0:0:
346,178,2093,1,2,0:0:0:0:
330,182,2177,1,2,0:0:0:0:
314,186,2260,1,2,0:0:0:0:
298,190,2343,1,0,0:0:0:0:
238,150,2510,1,2,0:0:0:0:
233,221,2677,1,0,0:0:0:0:
228,292,2843,1,2,0:0:0:0:
168,252,3010,5,0,0:0:0:0:
163,323,3177,1,2,0:0:0:0:
223,363,3343,1,2,0:0:0:0:
239,359,3426,1,2,0:0:0:0:
255,355,3509,1,2,0:0:0:0:
271,359,3593,1,2,0:0:0:0:
287,363,3676,1,0,0:0:0:0:
356,344,3843,1,2,0:0:0:0:
425,363,4010,1,2,0:0:0:0:
494,382,4177,1,0,0:0:0:0:
436,292,4343,5,2,0:0:0:0:
468,228,4510,1,2,0:0:0:0:
424,172,4677,1,2,0:0:0:0:
428,156,4760,1,2,0:0:0:0:
432,140,4843,1,2,0:0:0:0:
436,124,4927,1,2,0:0:0:0:
440,108,5010,1,0,0:0:0:0:
396,52,5177,1,2,0:0:0:0:
508,84,5343,1,8,1:0:0:0:
320,252,5677,5,4,0:0:0:0:
352,336,5843,1,8,0:0:0:0:
264,320,6010,1,0,0:0:0:0:
240,332,6093,1,0,0:0:0:0:
216,344,6177,1,8,0:0:0:0:
192,356,6260,1,0,0:0:0:0:
168,368,6343,2,0,B|180:276,1,90,0|8,0:0|0:0,0:0:0:0:
40,244,6677,2,0,B|28:152,1,90,0|8,0:0|0:0,0:0:0:0:
120,44,7010,5,4,0:0:0:0:
200,84,7177,1,8,0:0:0:0:
280,44,7343,1,0,0:0:0:0:
304,56,7427,1,0,0:0:0:0:
328,68,7510,1,8,0:0:0:0:
352,56,7593,1,0,0:0:0:0:
376,44,7677,1,0,0:0:0:0:
432,188,7843,1,8,0:0:0:0:
448,100,8010,1,0,0:0:0:0:
504,244,8177,1,8,0:0:0:0:
488,332,8343,5,4,0:0:0:0:
408,376,8510,1,8,0:0:0:0:
328,332,8677,1,0,0:0:0:0:
332,304,8760,1,0,0:0:0:0:
336,276,8843,1,8,0:0:0:0:
340,248,8927,1,0,0:0:0:0:
344,220,9010,2,0,B|305:241|305:241|261:232,1,90,0|8,0:0|0:0,0:0:0:0:
148,312,9343,2,0,B|187:291|187:291|231:300,1,90,0|8,0:0|0:0,0:0:0:0:
208,176,9677,5,4,0:0:0:0:
264,104,9843,1,8,0:0:0:0:
208,32,10010,1,0,0:0:0:0:
184,44,10093,1,0,0:0:0:0:
160,56,10177,1,8,0:0:0:0:
136,44,10260,1,0,0:0:0:0:
112,32,10343,1,4,0:0:0:0:
0,92,10510,1,8,0:0:0:0:
84,176,10677,1,0,0:0:0:0:
24,268,10843,1,8,0:0:0:0:
56,364,11010,5,4,0:0:0:0:
88,380,11093,1,0,0:0:0:0:
124,380,11177,1,0,0:0:0:0:
156,360,11260,1,0,0:0:0:0:
172,328,11343,1,8,1:1:0:0:
168,292,11427,1,0,0:0:0:0:
184,260,11510,1,0,0:0:0:0:
216,240,11593,1,0,0:0:0:0:
252,240,11677,1,0,0:0:0:0:
284,256,11760,1,0,0:0:0:0:
304,288,11843,1,0,1:0:0:0:
304,324,11927,1,0,0:0:0:0:
284,356,12010,1,8,1:1:0:0:
300,360,12093,1,0,0:0:0:0:
316,364,12177,1,0,0:0:0:0:
332,368,12260,1,0,0:0:0:0:
348,372,12343,6,0,L|392:360,1,45,0|0,1:1|0:0,0:0:0:0:
452,344,12510,1,0,0:0:0:0:
448,328,12593,1,0,0:0:0:0:
444,312,12677,1,8,1:1:0:0:
460,280,12760,1,0,0:0:0:0:
448,268,12843,1,0,0:0:0:0:
437,256,12927,1,0,0:0:0:0:
434,220,13010,1,0,1:1:0:0:
404,240,13093,1,0,1:1:0:0:
368,244,13177,1,0,1:1:0:0:
332,236,13260,1,0,0:0:0:0:
304,212,13343,1,8,1:1:0:0:
300,196,13427,1,0,0:0:0:0:
296,180,13510,1,0,0:0:0:0:
292,164,13593,1,0,0:0:0:0:
288,148,13677,5,4,1:1:0:0:
284,132,13760,2,0,L|264:52,2,45
220,140,14010,1,8,1:1:0:0:
216,124,14093,2,0,L|196:44,2,45
152,120,14343,2,0,L|108:128,1,45
128,188,14510,2,0,L|84:196,1,45,0|0,1:1|0:0,0:0:0:0:
104,256,14677,2,0,L|60:264,1,45,8|0,1:1|0:0,0:0:0:0:
80,324,14843,2,0,L|36:332,1,45,0|0,1:1|1:1,0:0:0:0:
96,328,15010,5,0,1:1:0:0:
112,332,15093,1,0,0:0:0:0:
128,336,15177,1,0,0:0:0:0:
144,340,15260,1,0,0:0:0:0:
160,344,15343,1,8,1:1:0:0:
188,368,15427,1,0,0:0:0:0:
224,376,15510,1,0,0:0:0:0:
260,368,15593,1,0,0:0:0:0:
288,344,15677,1,0,1:1:0:0:
316,320,15760,1,8,1:1:0:0:
352,312,15843,1,0,1:1:0:0:
388,320,15927,1,0,0:0:0:0:
416,344,16010,2,0,L|460:348,3,45,8|0|0|0,1:1|0:0|0:0|0:0,0:0:0:0:
504,300,16343,5,4,1:2:0:0:
430,262,16510,1,0,0:0:0:0:
430,262,16593,1,0,0:0:0:0:
430,262,16677,1,0,1:2:0:0:
506,210,16843,1,0,0:0:0:0:
506,210,16927,1,0,0:0:0:0:
506,210,17010,1,0,1:2:0:0:
426,166,17177,1,0,0:0:0:0:
426,166,17260,1,0,0:0:0:0:
426,166,17343,1,0,1:2:0:0:
496,108,17510,1,0,0:0:0:0:
492,92,17593,1,0,0:0:0:0:
488,76,17677,5,0,1:2:0:0:
400,60,17843,1,0,0:0:0:0:
404,44,17927,2,0,L|414:0,1,45,0|0,0:0|1:2,0:0:0:0:
312,36,18177,1,0,0:0:0:0:
308,52,18260,1,0,0:0:0:0:
304,68,18343,1,0,1:2:0:0:
216,84,18510,1,0,0:0:0:0:
220,100,18593,2,0,L|230:143,1,45,0|0,0:0|1:2,0:0:0:0:
300,204,18843,1,8,1:1:0:0:
296,220,18927,1,8,1:1:0:0:
292,236,19010,6,0,L|248:244,2,45,4|0|0,1:2|0:0|0:0,0:0:0:0:
291,303,19260,1,0,0:0:0:0:
291,303,19343,2,0,L|247:311,3,45,8|0|0|0,1:1|0:0|0:0|0:0,0:0:0:0:
189,276,19677,2,0,L|145:284,2,45,8|0|0,1:1|0:0|0:0,0:0:0:0:
188,343,19927,1,0,0:0:0:0:
188,343,20010,2,0,L|144:351,3,45,8|0|0|0,1:1|0:0|0:0|0:0,0:0:0:0:
86,316,20343,5,8,1:1:0:0:
82,300,20427,1,0,0:0:0:0:
78,284,20510,1,0,0:0:0:0:
74,268,20593,1,0,0:0:0:0:
49,242,20677,1,8,1:1:0:0:
53,226,20760,1,0,0:0:0:0:
57,210,20843,1,0,0:0:0:0:
61,194,20927,1,0,0:0:0:0:
86,168,21010,1,4,1:2:0:0:
82,152,21093,1,0,0:0:0:0:
78,136,21177,1,8,1:1:0:0:
74,120,21260,1,8,1:1:0:0:
49,94,21343,2,0,L|61:46,3,45,0|0|0|0,1:0|0:0|0:0|0:0,0:0:0:0:
86,24,21677,6,0,B|154:20|154:20|190:48|190:48|258:44,1,180,4|0,0:0|0:0,0:0:0:0:
272,36,22093,1,0,0:0:0:0:
287,28,22177,2,0,B|267:68|267:68|279:112,1,90,8|0,0:0|0:0,0:0:0:0:
200,224,22510,2,0,B|220:184|220:184|208:140,1,90,8|0,0:0|0:0,0:0:0:0:
344,76,22843,1,8,0:0:0:0:
364,164,23010,5,0,0:0:0:0:
384,252,23177,2,0,P|428:264|472:264,2,90,8|0|8,0:0|0:0|0:0,0:0:0:0:
300,280,23677,1,0,0:0:0:0:
280,368,23843,2,0,P|236:380|192:380,2,90,8|0|8,0:0|0:0|0:0,0:0:0:0:
296,372,24260,1,0,0:0:0:0:
312,376,24343,6,0,B|300:316|300:316|324:260|324:260|312:204,1,180
244,76,24843,2,0,B|256:136|256:136|232:192|232:192|244:248,1,180,8|8,0:0|0:0,0:0:0:0:
244,248,25343,1,0,0:0:0:0:
264,339,25510,1,8,0:0:0:0:
332,276,25677,6,0,B|376:288|376:288|416:268,1,90,0|8,0:0|0:0,0:0:0:0:
428,256,25927,1,0,0:0:0:0:
440,244,26010,2,0,L|432:336,1,90,0|8,0:0|0:0,0:0:0:0:
504,384,26343,1,0,0:0:0:0:
348,360,26510,1,8,0:0:0:0:
512,288,26677,2,0,L|504:244,1,45,0|8,0:0|0:0,0:0:0:0:
470,185,26843,2,0,L|478:141,1,45,0|8,0:0|0:0,0:0:0:0:
491,73,27010,6,0,B|423:69|423:69|387:97|387:97|319:93,1,180,4|0,0:0|0:0,0:0:0:0:
305,85,27427,1,0,0:0:0:0:
291,77,27510,2,0,B|303:121|303:121|283:161,1,90,8|0,0:0|0:0,0:0:0:0:
335,285,27843,2,0,B|323:241|323:241|343:201,1,90,8|0,0:0|0:0,0:0:0:0:
227,113,28177,1,8,0:0:0:0:
143,81,28343,5,0,0:0:0:0:
75,141,28510,2,0,P|63:185|67:233,2,90,8|0|8,0:0|0:0|0:0,0:0:0:0:
159,173,29010,1,0,0:0:0:0:
227,113,29177,2,0,P|239:69|235:21,2,90,8|0|8,0:0|0:0|0:0,0:0:0:0:
215,125,29593,1,0,0:0:0:0:
203,137,29677,6,0,B|191:197|191:197|215:253|215:253|203:309,1,180
143,377,30177,1,8,0:0:0:0:
55,365,30343,2,0,B|35:325|35:325|47:281,1,90,0|8,0:0|0:0,0:0:0:0:
59,269,30593,1,0,0:0:0:0:
71,257,30677,2,0,L|67:157,1,90,0|8,0:0|0:0,0:0:0:0:
0,41,31010,5,0,0:0:0:0:
83,77,31177,1,8,0:0:0:0:
155,25,31343,1,0,0:0:0:0:
239,61,31510,2,0,B|279:77|279:77|327:69,1,90,8|0,0:0|0:0,0:0:0:0:
451,141,31843,2,0,B|411:125|411:125|363:133,1,90,8|0,0:0|0:0,0:0:0:0:
280,168,32177,1,8,0:0:0:0:
268,328,32343,6,0,B|336:332|336:332|372:304|372:304|440:308,1,180,4|0,0:0|0:0,0:0:0:0:
456,312,32760,1,0,0:0:0:0:
472,316,32843,2,0,B|488:274|488:274|480:230,1,90,8|0,0:0|0:0,0:0:0:0:
424,88,33177,2,0,B|407:129|407:129|415:173,1,90,8|0,0:0|0:0,0:0:0:0:
498,141,33510,1,8,0:0:0:0:
480,16,33677,5,0,0:0:0:0:
424,88,33843,2,0,P|380:96|336:92,2,90,8|0|8,0:0|0:0|0:0,0:0:0:0:
368,160,34343,1,0,0:0:0:0:
424,232,34510,2,0,P|468:228|512:236,2,90,8|0|8,0:0|0:0|0:0,0:0:0:0:
430,238,34927,1,0,0:0:0:0:
430,238,35010,6,0,B|370:238|370:238|326:282|326:282|266:282,1,180
130,242,35510,2,0,B|190:242|190:242|234:198|234:198|294:198,1,180,8|8,0:0|0:0,0:0:0:0:
291,198,36010,1,0,0:0:0:0:
344,124,36177,1,8,0:0:0:0:
272,68,36343,6,0,L|180:76,1,90,0|8,0:0|0:0,0:0:0:0:
167,67,36593,1,0,0:0:0:0:
151,59,36677,2,0,B|168:100|168:100|156:144,1,90,0|8,0:0|0:0,0:0:0:0:
80,268,37010,1,0,0:0:0:0:
76,104,37177,1,8,0:0:0:0:
152,224,37343,2,0,L|160:268,1,45,0|8,0:0|0:0,0:0:0:0:
220,300,37510,2,0,L|228:344,1,45,0|8,0:0|0:0,0:0:0:0:
288,376,37677,6,0,B|354:376|354:376|390:348|390:348|458:348,1,180,4|0,0:0|0:0,0:0:0:0:
476,352,38093,1,0,0:0:0:0:
492,356,38177,2,0,B|480:312|480:312|492:268,1,90,8|0,0:0|0:0,0:0:0:0:
408,148,38510,2,0,B|420:192|420:192|408:236,1,90,8|0,0:0|0:0,0:0:0:0:
492,116,38843,1,8,0:0:0:0:
412,76,39010,5,0,0:0:0:0:
328,112,39177,2,0,P|284:120|240:116,2,90,8|0|8,0:0|0:0|0:0,0:0:0:0:
372,192,39677,1,0,0:0:0:0:
416,272,39844,2,0,P|460:268|504:276,2,90,8|0|8,0:0|0:0|0:0,0:0:0:0:
400,280,40260,1,0,0:0:0:0:
384,288,40343,6,0,B|380:228|380:228|344:180|344:180|340:120,1,180
365,33,40843,1,8,0:0:0:0:
277,53,41010,2,0,B|233:61|233:61|193:41,1,90,0|8,0:0|0:0,0:0:0:0:
181,29,41260,1,0,0:0:0:0:
169,17,41343,2,0,L|165:109,1,90,0|8,0:0|0:0,0:0:0:0:
180,277,41677,5,0,0:0:0:0:
68,148,41843,1,8,0:0:0:0:
234,186,42010,1,0,0:0:0:0:
77,254,42177,1,8,0:0:0:0:
165,107,42343,1,0,0:0:0:0:
336,340,42677,1,0,0:0:0:0:
424,360,42843,1,8,0:0:0:0:
496,304,43010,6,0,P|456:240|276:228,1,270,4|8,0:0|0:0,0:0:0:0:
116,247,43677,2,0,P|108:203|112:159,1,90,0|8,0:0|0:0,0:0:0:0:
188,107,44010,2,0,P|196:151|192:195,1,90,0|8,0:0|0:0,0:0:0:0:
48,308,44343,6,0,P|16:196|68:52,1,270,0|8,0:0|0:0,0:0:0:0:
80,44,44927,1,0,0:0:0:0:
96,36,45010,2,0,P|164:64|268:56,1,180
348,12,45510,1,8,0:0:0:0:
348,12,45593,1,0,0:0:0:0:
348,12,45677,5,4,0:0:0:0:
204,248,46010,1,0,0:0:0:0:
224,336,46177,1,8,0:0:0:0:
292,276,46343,1,0,0:0:0:0:
210,254,46510,1,8,0:0:0:0:
210,254,46593,1,0,0:0:0:0:
210,254,46677,1,0,0:0:0:0:
224,336,46843,1,8,0:0:0:0:
292,276,47010,6,0,L|300:140,2,135,4|0|8,0:0|0:0|0:0,0:0:0:0:
312,364,47677,2,0,P|392:368|472:312,1,180
488,224,48177,1,8,0:0:0:0:
440,148,48343,5,4,1:1:0:0:
440,148,48455,2,0,L|436:84,1,60
368,112,48677,2,0,L|364:176,2,60
300,136,49010,1,4,1:1:0:0:
300,136,49121,2,0,L|296:72,1,60
228,100,49343,2,0,L|224:164,2,60
164,68,49677,5,4,1:1:0:0:
132,104,49788,1,0,0:0:0:0:
88,124,49899,1,0,0:0:0:0:
40,120,50010,1,0,0:0:0:0:
84,100,50121,1,0,0:0:0:0:
132,104,50232,1,0,0:0:0:0:
172,132,50343,2,0,L|232:140,1,60,4|0,1:1|0:0,0:0:0:0:
272,200,50566,2,0,L|212:208,1,60
180,272,50788,2,0,L|240:280,1,60
280,340,51010,5,4,0:0:0:0:
200,384,51343,1,4,0:0:0:0:
132,324,51677,1,12,0:0:0:0:
55,371,52010,1,12,0:0:0:0:
55,371,52093,1,8,0:0:0:0:
4,104,52343,6,0,L|8:52,1,45,4|0,0:0|0:0,0:0:0:0:
28,92,52510,2,0,L|32:40,1,45
52,80,52677,2,0,L|56:28,1,45
76,68,52843,2,0,L|80:20,1,45
100,80,53010,2,0,L|104:132,1,45
124,92,53177,2,0,L|128:144,1,45
148,104,53343,2,0,L|152:156,1,45
172,116,53510,2,0,L|176:168,1,45
196,104,53677,5,4,0:0:0:0:
228,20,53843,2,0,L|272:32,1,45
308,88,54010,2,0,L|352:76,1,45
388,20,54177,2,0,L|432:32,1,45
468,88,54343,1,0,0:0:0:0:
464,124,54427,1,0,0:0:0:0:
460,160,54510,1,8,0:0:0:0:
456,196,54593,1,0,0:0:0:0:
452,232,54677,1,0,0:0:0:0:
448,268,54760,1,0,0:0:0:0:
444,304,54843,1,0,0:0:0:0:
440,340,54927,1,0,0:0:0:0:
436,376,55010,5,4,0:0:0:0:
352,340,55177,1,8,0:0:0:0:
328,352,55260,1,0,0:0:0:0:
304,364,55343,2,0,B|260:375|260:375|216:364,1,90,0|8,0:0|0:0,0:0:0:0:
200,276,55677,1,4,0:0:0:0:
132,336,55843,1,8,0:0:0:0:
223,371,56010,1,0,0:0:0:0:
223,371,56093,1,0,0:0:0:0:
223,371,56177,1,8,0:0:0:0:
200,276,56343,6,0,B|188:232|188:232|196:188|196:188|184:144,2,135,4|0|8,0:0|0:0|0:0,0:0:0:0:
280,320,57010,2,0,B|292:276|292:276|280:232,1,90,4|8,0:0|0:0,0:0:0:0:
104,101,57343,2,0,B|92:145|92:145|104:189,1,90,0|8,0:0|0:0,0:0:0:0:
190,296,57677,6,0,B|182:228|182:228|202:188|202:188|194:120,1,180,4|0,0:0|0:0,0:0:0:0:
264,64,58177,1,8,0:0:0:0:
272,40,58260,1,0,0:0:0:0:
279,15,58343,2,0,B|239:39|239:39|197:32,1,90,4|8,0:0|0:0,0:0:0:0:
35,90,58677,2,0,B|75:66|75:66|119:74,1,90,0|8,0:0|0:0,0:0:0:0:
194,122,59010,5,4,0:0:0:0:
160,264,59177,1,8,0:0:0:0:
156,280,59260,1,0,0:0:0:0:
152,296,59343,2,0,B|136:208,1,90,0|8,0:0|0:0,0:0:0:0:
35,90,59677,1,4,0:0:0:0:
92,20,59843,1,8,0:0:0:0:
108,24,59927,1,8,0:0:0:0:
124,28,60010,1,4,0:0:0:0:
140,32,60093,1,0,0:0:0:0:
156,36,60177,1,0,0:0:0:0:
172,40,60260,1,0,0:0:0:0:
188,44,60343,5,4,0:0:0:0:
272,76,60510,1,8,0:0:0:0:
296,64,60593,1,0,0:0:0:0:
320,52,60677,2,0,B|300:92|300:92|308:136,1,90,0|8,0:0|0:0,0:0:0:0:
396,159,61010,1,4,0:0:0:0:
332,224,61177,1,8,0:0:0:0:
315,143,61343,1,0,0:0:0:0:
315,143,61427,1,0,0:0:0:0:
315,143,61510,1,8,0:0:0:0:
396,160,61677,6,0,B|404:204|404:204|436:236|436:236|444:280,2,135,4|0|8,0:0|0:0|0:0,0:0:0:0:
484,160,62343,2,0,B|480:112|480:112|448:84,1,90,4|8,0:0|0:0,0:0:0:0:
356,280,62677,2,0,B|360:328|360:328|392:356,1,90,0|8,0:0|0:0,0:0:0:0:
420,220,63010,6,0,B|376:212|376:212|296:256|296:256|252:248,1,180,4|0,0:0|0:0,0:0:0:0:
164,228,63510,1,8,0:0:0:0:
144,208,63593,1,0,0:0:0:0:
124,188,63677,2,0,B|136:232|136:232|120:276,1,90,4|8,0:0|0:0,0:0:0:0:
188,384,64010,2,0,B|176:340|176:340|192:296,1,90,0|8,0:0|0:0,0:0:0:0:
36,168,64343,6,0,B|124:188|124:188|204:144|204:144|292:164,1,270,4|8,0:0|0:0,0:0:0:0:
300,180,64927,1,0,0:0:0:0:
308,196,65010,2,0,L|336:76,1,90,4|8,0:0|0:0,0:0:0:0:
324,91,65260,1,8,0:0:0:0:
320,75,65343,1,4,0:0:0:0:
356,80,65427,1,0,0:0:0:0:
388,64,65510,1,0,0:0:0:0:
420,48,65593,1,0,0:0:0:0:
456,53,65677,5,4,0:0:0:0:
500,132,65843,1,8,0:0:0:0:
488,156,65927,1,0,0:0:0:0:
476,180,66010,2,0,B|432:192|432:192|388:180,1,90,0|8,0:0|0:0,0:0:0:0:
340,104,66343,1,4,0:0:0:0:
328,248,66510,1,8,0:0:0:0:
286,178,66676,1,0,0:0:0:0:
286,178,66759,1,0,0:0:0:0:
286,178,66843,1,8,0:0:0:0:
268,316,67010,6,0,B|223:308|223:308|188:278|188:278|143:270,2,135,4|0|8,0:0|0:0|0:0,0:0:0:0:
328,248,67677,2,0,B|288:228|288:228|239:232,1,90,4|8,0:0|0:0,0:0:0:0:
85,339,68010,2,0,B|125:359|125:359|173:354,1,90,0|8,0:0|0:0,0:0:0:0:
328,248,68343,6,0,B|286:228|286:228|195:236|195:236|154:217,1,180,4|0,0:0|0:0,0:0:0:0:
72,184,68843,1,8,0:0:0:0:
48,172,68927,1,0,0:0:0:0:
24,160,69010,2,0,B|4:200|4:200|16:244,1,90,4|8,0:0|0:0,0:0:0:0:
88,372,69343,2,0,B|108:332|108:332|96:288,1,90,0|8,0:0|0:0,0:0:0:0:
156,220,69677,5,4,0:0:0:0:
216,100,69843,1,8,0:0:0:0:
224,84,69927,1,0,0:0:0:0:
232,68,70010,2,0,L|240:160,1,90,0|8,0:0|0:0,0:0:0:0:
312,284,70343,1,4,0:0:0:0:
244,344,70510,1,8,0:0:0:0:
236,360,70593,1,8,0:0:0:0:
228,376,70677,1,4,0:0:0:0:
220,360,70760,1,0,0:0:0:0:
212,344,70843,1,0,0:0:0:0:
204,328,70927,1,0,0:0:0:0:
196,312,71010,5,4,0:0:0:0:
156,232,71177,1,8,0:0:0:0:
140,252,71260,1,0,0:0:0:0:
124,272,71343,2,0,B|80:284|80:284|36:268,1,90,0|8,0:0|0:0,0:0:0:0:
0,128,71677,1,4,0:0:0:0:
72,184,71843,1,8,0:0:0:0:
39,49,72010,1,0,0:0:0:0:
39,49,72093,1,0,0:0:0:0:
39,49,72177,1,8,0:0:0:0:
105,99,72343,6,0,B|149:91|149:91|177:55|177:55|221:47,2,135,4|0|8,0:0|0:0|0:0,0:0:0:0:
72,184,73010,2,0,B|60:228|60:228|72:272,1,90,4|8,0:0|0:0,0:0:0:0:
240,384,73343,2,0,B|252:340|252:340|240:296,1,90,0|8,0:0|0:0,0:0:0:0:
152,312,73677,6,0,B|216:292|216:292|260:304|260:304|324:284,1,180,4|0,0:0|0:0,0:0:0:0:
408,320,74177,1,8,0:0:0:0:
420,296,74260,1,0,0:0:0:0:
432,272,74343,2,0,B|420:228|420:228|432:184,1,90,4|8,0:0|0:0,0:0:0:0:
368,34,74677,2,0,B|380:78|380:78|368:122,1,90,0|8,0:0|0:0,0:0:0:0:
320,200,75010,5,4,0:0:0:0:
296,188,75093,1,0,0:0:0:0:
272,176,75177,1,8,0:0:0:0:
248,164,75260,1,0,0:0:0:0:
224,152,75343,2,0,L|220:108,1,45
156,84,75510,2,0,L|152:40,1,45,8|0,0:0|0:0,0:0:0:0:
88,16,75677,1,4,0:0:0:0:
64,44,75760,1,0,0:0:0:0:
56,80,75843,1,8,0:0:0:0:
64,116,75927,1,8,0:0:0:0:
88,144,76010,2,0,L|92:188,1,45,4|0,0:0|0:0,0:0:0:0:
60,248,76177,2,0,L|64:292,1,45
32,352,76343,5,4,0:0:0:0:
120,332,76510,1,8,0:0:0:0:
200,372,76677,1,0,0:0:0:0:
208,368,76760,1,0,0:0:0:0:
216,364,76843,1,8,0:0:0:0:
300,332,77010,1,4,0:0:0:0:
388,352,77177,1,8,0:0:0:0:
468,312,77343,1,0,0:0:0:0:
476,316,77427,1,0,0:0:0:0:
484,320,77510,1,8,0:0:0:0:
468,208,77677,5,4,0:0:0:0:
384,176,77843,1,8,0:0:0:0:
300,208,78010,1,0,0:0:0:0:
299,217,78093,1,0,0:0:0:0:
298,226,78177,1,8,0:0:0:0:
216,176,78343,1,4,0:0:0:0:
132,208,78510,1,8,0:0:0:0:
48,176,78677,1,0,0:0:0:0:
47,167,78760,1,0,0:0:0:0:
46,158,78843,1,8,0:0:0:0:
36,44,79010,5,4,0:0:0:0:
100,92,79177,1,8,0:0:0:0:
164,44,79343,1,0,0:0:0:0:
172,44,79427,2,0,L|216:44,1,45,0|8,0:0|0:0,0:0:0:0:
292,92,79677,1,4,0:0:0:0:
356,44,79843,1,8,0:0:0:0:
420,92,80010,1,0,0:0:0:0:
428,92,80093,2,0,L|472:92,1,45,0|8,0:0|0:0,0:0:0:0:
508,204,80343,5,4,0:0:0:0:
420,188,80510,1,8,0:0:0:0:
348,244,80677,1,0,0:0:0:0:
346,251,80760,2,0,L|338:294,1,45,0|8,0:0|0:0,0:0:0:0:
266,351,81010,1,4,0:0:0:0:
178,335,81177,2,0,L|134:327,1,45,8|8,0:0|0:0,0:0:0:0:
64,272,81343,2,0,L|108:264,1,45
178,209,81510,2,0,L|134:201,1,45
108,137,81677,5,4,0:0:0:0:
47,70,82010,1,0,0:0:0:0:
136,52,82343,2,0,L|180:60,1,45
224,112,82510,2,0,L|268:104,1,45
312,52,82677,2,0,L|356:60,1,45
400,112,82843,2,0,L|444:104,1,45
488,52,83010,6,0,B|475:117|475:117|500:157|500:157|488:223,1,180,4|0,0:0|0:0,0:0:0:0:
480,240,83427,1,0,0:0:0:0:
472,256,83510,2,0,B|428:272|428:272|384:264,1,90,8|0,0:0|0:0,0:0:0:0:
272,356,83843,2,0,B|316:340|316:340|360:348,1,90,8|0,0:0|0:0,0:0:0:0:
316,208,84177,1,8,0:0:0:0:
228,192,84343,5,0,0:0:0:0:
172,120,84510,2,0,P|164:76|168:32,2,90,8|0|8,0:0|0:0|0:0,0:0:0:0:
140,204,85010,1,0,0:0:0:0:
196,276,85177,2,0,P|204:320|200:364,2,90,8|0|8,0:0|0:0|0:0,0:0:0:0:
188,260,85593,1,0,0:0:0:0:
180,244,85677,6,0,B|120:236|120:236|80:192|80:192|20:184,1,180
0,40,86177,2,0,B|60:48|60:48|100:92|100:92|160:100,1,180,8|8,0:0|0:0,0:0:0:0:
160,100,86677,1,0,0:0:0:0:
248,88,86843,1,8,0:0:0:0:
216,172,87010,6,0,B|256:192|256:192|300:184,1,90,0|8,0:0|0:0,0:0:0:0:
316,176,87260,1,0,0:0:0:0:
332,168,87343,2,0,L|324:260,1,90,0|8,0:0|0:0,0:0:0:0:
420,368,87677,2,0,L|412:276,1,90,0|8,0:0|0:0,0:0:0:0:
280,336,88010,2,0,L|236:344,1,45,0|8,0:0|0:0,0:0:0:0:
172,368,88177,2,0,L|128:360,1,45,0|8,0:0|0:0,0:0:0:0:
76,316,88343,6,0,B|65:249|65:249|85:209|85:209|73:141,1,180,4|0,0:0|0:0,0:0:0:0:
69,124,88760,1,0,0:0:0:0:
64,108,88843,2,0,B|107:96|107:96|135:60,1,90,8|0,0:0|0:0,0:0:0:0:
279,68,89177,2,0,B|236:80|236:80|208:116,1,90,8|0,0:0|0:0,0:0:0:0:
140,176,89510,1,8,0:0:0:0:
216,224,89677,5,0,0:0:0:0:
292,272,89843,2,0,P|336:280|384:276,2,90,8|0|8,0:0|0:0|0:0,0:0:0:0:
204,288,90343,1,0,0:0:0:0:
116,304,90510,2,0,P|72:296|24:300,2,90,8|0|8,0:0|0:0|0:0,0:0:0:0:
128,316,90927,1,0,0:0:0:0:
140,328,91010,6,0,B|208:336|208:336|240:368|240:368|308:376,1,180
396,384,91510,1,8,0:0:0:0:
476,344,91677,2,0,B|496:304|496:304|484:260,1,90,0|8,0:0|0:0,0:0:0:0:
472,248,91927,1,0,0:0:0:0:
460,236,92010,2,0,L|464:136,1,90,0|8,0:0|0:0,0:0:0:0:
500,8,92343,5,0,0:0:0:0:
432,64,92510,1,8,0:0:0:0:
348,36,92677,1,0,0:0:0:0:
280,92,92843,2,0,B|260:132|260:132|268:176,1,90,8|0,0:0|0:0,0:0:0:0:
168,284,93177,2,0,B|188:244|188:244|180:200,1,90,8|0,0:0|0:0,0:0:0:0:
136,120,93510,1,8,0:0:0:0:
20,32,93677,6,0,B|12:100|12:100|36:136|36:136|28:204,1,180,4|0,0:0|0:0,0:0:0:0:
25,222,94093,1,0,0:0:0:0:
22,240,94177,2,0,B|66:256|66:256|110:248,1,90,8|0,0:0|0:0,0:0:0:0:
218,344,94510,2,0,B|174:328|174:328|130:336,1,90,8|0,0:0|0:0,0:0:0:0:
184,200,94843,1,8,0:0:0:0:
252,260,95010,5,0,0:0:0:0:
272,172,95177,2,0,P|316:180|360:176,2,90,8|0|8,0:0|0:0|0:0,0:0:0:0:
204,112,95677,1,0,0:0:0:0:
184,24,95843,2,0,P|140:20|96:28,2,90,8|0|8,0:0|0:0|0:0,0:0:0:0:
200,32,96260,1,0,0:0:0:0:
216,40,96343,6,0,B|208:100|208:100|164:144|164:144|156:200,1,180
184,344,96843,2,0,B|192:284|192:284|236:240|236:240|244:184,1,180,8|8,0:0|0:0,0:0:0:0:
244,183,97343,1,0,0:0:0:0:
300,112,97510,1,8,0:0:0:0:
384,144,97677,6,0,B|428:156|428:156|468:136,1,90,0|8,0:0|0:0,0:0:0:0:
480,124,97927,1,0,0:0:0:0:
492,112,98010,2,0,L|496:204,1,90,0|8,0:0|0:0,0:0:0:0:
404,316,98343,2,0,L|408:224,1,90,0|8,0:0|0:0,0:0:0:0:
312,116,98677,2,0,L|304:160,1,45,0|8,0:0|0:0,0:0:0:0:
264,216,98843,2,0,L|272:260,1,45,0|8,0:0|0:0,0:0:0:0:
284,328,99010,6,0,B|216:328|216:328|180:300|180:300|112:300,1,180,4|0,0:0|0:0,0:0:0:0:
100,288,99427,1,0,0:0:0:0:
88,276,99510,2,0,B|76:232|76:232|88:188,1,90,8|0,0:0|0:0,0:0:0:0:
0,76,99843,2,0,B|12:120|12:120|0:164,1,90,8|0,0:0|0:0,0:0:0:0:
136,112,100177,1,8,0:0:0:0:
204,172,100343,5,0,0:0:0:0:
272,232,100510,2,0,P|280:276|276:320,2,90,8|0|8,0:0|0:0|0:0,0:0:0:0:
340,172,101010,1,0,0:0:0:0:
408,112,101177,2,0,P|400:68|404:24,2,90,8|0|8,0:0|0:0|0:0,0:0:0:0:
416,128,101593,1,0,0:0:0:0:
424,144,101677,6,0,B|416:212|416:212|436:252|436:252|428:320,1,180
348,360,102177,1,8,0:0:0:0:
264,328,102343,2,0,B|224:348|224:348|180:340,1,90,0|8,0:0|0:0,0:0:0:0:
164,328,102593,1,0,0:0:0:0:
148,316,102677,2,0,L|56:320,1,90,0|8,0:0|0:0,0:0:0:0:
0,188,103010,5,0,0:0:0:0:
80,232,103177,1,8,0:0:0:0:
128,136,103343,1,0,0:0:0:0:
232,208,103510,1,8,0:0:0:0:
288,76,103677,1,0,0:0:0:0:
368,316,104010,1,0,0:0:0:0:
448,360,104177,1,8,0:0:0:0:
504,288,104343,6,0,P|492:228|504:108,1,180,4|0,0:0|0:0,0:0:0:0:
340,100,104843,2,0,P|332:148|336:188,1,90,8|0,0:0|0:0,0:0:0:0:
412,236,105177,2,0,P|420:188|416:148,1,90,8|0,0:0|0:0,0:0:0:0:
420,56,105510,1,8,0:0:0:0:
340,100,105677,6,0,P|204:140|88:96,1,270,0|8,0:0|0:0,0:0:0:0:
76,84,106260,1,0,0:0:0:0:
64,72,106343,2,0,P|72:160|52:248,1,180
0,324,106843,1,8,0:0:0:0:
0,324,106927,1,0,0:0:0:0:
0,324,107010,5,4,0:0:0:0:
276,244,107343,1,0,0:0:0:0:
256,332,107510,1,8,0:0:0:0:
188,272,107677,1,0,0:0:0:0:
282,250,107843,1,8,0:0:0:0:
282,250,107927,1,0,0:0:0:0:
282,250,108010,1,0,0:0:0:0:
256,332,108177,1,8,0:0:0:0:
168,360,108343,6,0,P|96:364|36:344,2,135,4|0|8,0:0|0:0|0:0,0:0:0:0:
256,332,109010,2,0,P|328:328|432:352,1,180
505,148,109677,6,0,P|377:168|285:76,1,270,4|8,0:0|0:0,0:0:0:0:
280,58,110260,1,0,0:0:0:0:
275,41,110343,2,0,P|291:113|271:217,1,180
208,281,110843,1,8,0:0:0:0:
64,284,111010,6,0,B|48:326|48:326|64:368,1,90,4|8,0:0|0:0,0:0:0:0:
144,326,111343,2,0,B|159:283|159:283|144:241,1,90,4|8,0:0|0:0,0:0:0:0:
0,248,111677,2,0,L|-8:348,1,90,4|8,0:0|0:0,0:0:0:0:
208,362,112010,2,0,L|216:262,1,90,4|8,0:0|0:0,0:0:0:0:
100,124,112343,5,4,0:0:0:0:
100,124,112510,2,0,P|156:148|268:124,1,180,12|8,0:0|0:0,0:0:0:0:
340,68,113010,2,0,P|396:44|508:68,1,180,0|0,0:0|0:0,0:0:0:0:
476,336,113677,6,0,B|450:238|326:224|269:264|256:320|254:369|209:410|70:403|36:304,1,540
4,244,114788,2,0,L|12:184,1,60
8,112,115010,5,4,0:0:0:0:
132,164,115260,1,0,0:0:0:0:
132,164,115343,1,0,0:0:0:0:
188,36,115593,1,4,0:0:0:0:
188,36,115676,1,4,0:0:0:0:
312,88,115927,1,0,0:0:0:0:
312,88,116010,2,0,B|376:112|376:112|436:80,1,135
452,60,116343,6,0,B|428:192,1,135,4|0,0:0|0:0,0:0:0:0:
428,192,116677,1,0,0:0:0:0:
330,284,116926,1,0,0:0:0:0:
330,284,117010,2,0,B|306:152,1,135,4|0,0:0|0:0,0:0:0:0:
306,151,117343,1,8,0:0:0:0:
264,212,117455,1,8,0:0:0:0:
264,212,117566,1,8,0:0:0:0:
232,147,117677,5,4,0:0:0:0:
56,20,118010,1,0,0:0:0:0:
0,64,118121,1,0,0:0:0:0:
68,88,118232,1,0,0:0:0:0:
136,112,118343,2,0,B|116:168|116:168|136:224|136:224|116:284,1,180,4|0,0:0|0:0,0:0:0:0:
116,282,119010,5,4,0:0:0:0:
159,345,119121,1,0,0:0:0:0:
190,280,119232,1,0,0:0:0:0:
221,215,119343,1,0,0:0:0:0:
324,112,119566,1,0,0:0:0:0:
330,184,119677,1,4,0:0:0:0:
450,290,119927,1,0,0:0:0:0:
450,290,120010,1,8,0:0:0:0:
469,220,120121,2,0,L|488:150,1,60,8|8,0:0|0:0,0:0:0:0:
506,94,120343,5,4,0:0:0:0:
382,42,120593,1,0,0:0:0:0:
382,42,120677,1,8,0:0:0:0:
274,122,120927,1,0,0:0:0:0:
274,122,121010,1,0,0:0:0:0:
150,70,121260,1,0,0:0:0:0:
150,70,121343,2,0,B|126:134|126:134|62:154,1,135,8|0,0:0|0:0,0:0:0:0:
50,178,121677,5,0,0:0:0:0:
86,310,121927,1,0,0:0:0:0:
86,310,122010,1,8,0:0:0:0:
184,216,122260,1,0,0:0:0:0:
184,216,122343,1,0,0:0:0:0:
220,348,122593,1,0,0:0:0:0:
220,348,122677,2,0,L|148:344,2,60,8|8|8,0:0|0:0|0:0,0:0:0:0:
292,352,123010,5,4,0:0:0:0:
386,378,123177,1,0,0:0:0:0:
386,378,123343,1,4,0:0:0:0:
386,378,123510,1,0,0:0:0:0:
312,208,123677,1,4,0:0:0:0:
442,198,123843,1,0,0:0:0:0:
442,198,124010,1,4,0:0:0:0:
442,198,124177,1,0,0:0:0:0:
244,51,124343,1,4,0:0:0:0:
400,4,124510,1,8,0:0:0:0:
400,4,124677,1,12,0:0:0:0:
400,4,124843,1,0,0:0:0:0:
362,105,125010,5,4,0:0:0:0:
332,236,125260,1,0,0:0:0:0:
332,236,125343,1,8,0:0:0:0:
252,128,125593,1,0,0:0:0:0:
252,128,125676,1,0,0:0:0:0:
222,259,125926,1,0,0:0:0:0:
222,259,126010,2,0,B|178:267|178:267|142:239|142:239|98:247,1,135,8|0,0:0|0:0,0:0:0:0:
72,252,126343,6,0,L|100:92,1,135
100,92,126676,1,8,0:0:0:0:
220,32,126926,1,0,0:0:0:0:
220,32,127010,2,0,L|192:192,1,135
192,192,127343,1,8,0:0:0:0:
256,320,127565,1,8,0:0:0:0:
284,344,127676,6,0,B|348:324|348:324|412:344,1,135
440,352,128010,1,8,0:0:0:0:
512,236,128260,1,0,0:0:0:0:
512,236,128343,2,0,B|448:256|448:256|384:236,1,135
356,228,128677,1,8,0:0:0:0:
283,114,128926,1,0,0:0:0:0:
256,122,129009,5,8,0:0:0:0:
132,300,129343,1,8,0:0:0:0:
120,228,129454,1,0,0:0:0:0:
108,156,129565,1,0,0:0:0:0:
96,84,129676,2,0,B|56:131|56:131|108:156,1,120
176,182,130010,2,0,B|216:135|216:135|164:110,1,120,8|8,0:0|0:0,0:0:0:0:
108,156,130343,5,4,0:0:0:0:
20,268,130565,1,0,0:0:0:0:
4,300,130676,2,0,L|135:272,1,120,8|0,0:0|0:0,0:0:0:0:
192,260,131010,1,0,0:0:0:0:
200,116,131232,1,0,0:0:0:0:
184,84,131343,2,0,L|315:112,1,120,8|0,0:0|0:0,0:0:0:0:
368,80,131677,5,0,0:0:0:0:
428,120,131787,1,0,0:0:0:0:
424,192,131898,1,0,0:0:0:0:
376,248,132010,1,8,0:0:0:0:
372,320,132122,1,0,0:0:0:0:
432,360,132232,1,0,0:0:0:0:
498,331,132343,2,0,B|472:276|472:276|376:248,1,120
376,200,132676,2,0,B|368:140,1,60,8|8,0:0|0:0,0:0:0:0:
368,140,132899,1,8,0:0:0:0:
328,80,133010,6,0,B|320:20,1,60,4|0,0:0|0:0,0:0:0:0:
316,100,133232,1,0,0:0:0:0:
248,124,133343,2,0,B|240:184,1,60,8|0,0:0|0:0,0:0:0:0:
236,104,133565,1,0,0:0:0:0:
168,80,133676,2,0,B|160:20,1,60
156,100,133898,1,0,0:0:0:0:
88,124,134009,2,0,B|80:184,1,60,8|0,0:0|0:0,0:0:0:0:
76,104,134231,1,0,0:0:0:0:
68,32,134343,6,0,B|16:4|16:4|16:64,1,120
84,176,134676,2,0,B|136:204|136:204|136:144,1,120,8|0,0:0|0:0,0:0:0:0:
76,104,135010,2,0,L|68:32,2,60
84,176,135343,1,8,0:0:0:0:
85,193,135426,1,8,0:0:0:0:
87,211,135509,1,8,0:0:0:0:
4,280,135676,6,0,L|8:328,1,45,6|0,0:0|0:0,0:0:0:0:
20,288,135843,2,0,L|24:336,1,45,2|0,0:0|0:0,0:0:0:0:
100,364,136010,2,0,L|104:316,1,45,2|0,0:0|0:0,0:0:0:0:
116,356,136177,2,0,L|120:308,1,45,2|0,0:0|0:0,0:0:0:0:
188,268,136343,2,0,L|192:316,1,45,2|0,0:0|0:0,0:0:0:0:
204,276,136510,2,0,L|208:324,1,45,2|0,0:0|0:0,0:0:0:0:
284,352,136676,1,0,0:0:0:0:
300,344,136760,1,0,0:0:0:0:
316,336,136843,1,2,0:0:0:0:
352,332,136926,1,2,0:0:0:0:
388,328,137010,5,2,1:2:0:0:
256,192,137176,12,4,138343,0:0:0:0:
64,32,138676,5,2,0:0:0:0:
40,100,138843,1,0,0:0:0:0:
40,100,139010,1,2,0:0:0:0:
100,146,139176,1,0,0:0:0:0:
100,146,139343,1,2,0:0:0:0:
153,99,139509,1,2,0:0:0:0:
135,33,139676,5,0,0:0:0:0:
177,171,140010,1,2,0:0:0:0:
256,52,140343,1,2,0:0:0:0:
298,190,140677,1,2,0:0:0:0:
448,92,141009,5,0,0:0:0:0:
448,92,141342,1,2,0:0:0:0:
472,160,141509,1,0,0:0:0:0:
472,160,141676,1,2,0:0:0:0:
415,203,141842,1,0,0:0:0:0:
415,203,142009,1,2,0:0:0:0:
356,162,142175,1,2,0:0:0:0:
377,93,142342,5,0,0:0:0:0:
335,231,142676,1,2,0:0:0:0:
256,112,143009,1,0,0:0:0:0:
214,250,143343,1,2,0:0:0:0:
64,152,143676,5,0,0:0:0:0:
0,320,144009,1,2,0:0:0:0:
68,296,144176,1,0,0:0:0:0:
132,332,144343,1,2,0:0:0:0:
200,312,144509,1,0,0:0:0:0:
264,348,144676,1,2,0:0:0:0:
328,384,144843,1,2,0:0:0:0:
396,364,145009,6,0,B|388:320|388:320|400:276|400:276|392:232,1,135,0|2,0:0|0:0,0:0:0:0:
308,128,145676,2,0,B|316:172|316:172|304:216|304:216|312:260,1,135,2|2,0:0|0:0,0:0:0:0:
480,328,146343,5,0,0:0:0:0:
512,152,146676,1,2,0:0:0:0:
444,176,146843,1,0,0:0:0:0:
376,200,147009,1,2,0:0:0:0:
388,128,147176,1,0,0:0:0:0:
400,56,147343,1,2,0:0:0:0:
332,80,147510,1,2,0:0:0:0:
264,104,147676,6,0,B|220:100|220:100|180:124|180:124|136:120,1,135,0|2,0:0|0:0,0:0:0:0:
24,28,148343,1,2,0:0:0:0:
84,196,148676,1,2,0:0:0:0:
256,192,149343,12,4,150009,0:0:0:0:
140,104,150343,5,4,0:0:0:0:
220,144,150509,1,8,0:0:0:0:
272,68,150676,1,0,0:0:0:0:
296,56,150759,1,0,0:0:0:0:
320,44,150843,1,8,0:0:0:0:
344,32,150926,1,0,0:0:0:0:
368,20,151009,2,0,L|352:108,1,90,0|8,0:0|0:0,0:0:0:0:
496,140,151343,2,0,L|512:228,1,90,0|8,0:0|0:0,0:0:0:0:
432,352,151676,5,0,0:0:0:0:
348,320,151843,1,8,0:0:0:0:
272,368,152009,1,0,0:0:0:0:
248,356,152093,1,0,0:0:0:0:
224,344,152176,1,8,0:0:0:0:
200,356,152259,1,0,0:0:0:0:
176,368,152343,1,0,0:0:0:0:
164,224,152509,1,8,0:0:0:0:
116,300,152676,1,0,0:0:0:0:
104,156,152842,1,8,0:0:0:0:
44,88,153009,5,0,0:0:0:0:
120,40,153176,1,8,0:0:0:0:
204,72,153343,1,0,0:0:0:0:
208,100,153426,1,0,0:0:0:0:
212,128,153509,1,8,0:0:0:0:
216,156,153593,1,0,0:0:0:0:
220,184,153676,2,0,B|264:196|264:196|303:172,1,90,0|8,0:0|0:0,0:0:0:0:
444,204,154009,2,0,B|400:192|400:192|361:216,1,90,0|8,0:0|0:0,0:0:0:0:
224,260,154343,5,0,0:0:0:0:
225,349,154509,1,8,0:0:0:0:
312,368,154675,1,0,0:0:0:0:
336,356,154759,1,0,0:0:0:0:
360,344,154842,1,8,0:0:0:0:
372,320,154925,1,0,0:0:0:0:
384,296,155009,2,0,L|428:304,1,45
416,236,155176,2,0,L|460:244,1,45,8|0,0:0|0:0,0:0:0:0:
448,176,155343,2,0,L|404:168,1,45
480,116,155509,2,0,L|436:108,1,45,8|0,0:0|0:0,0:0:0:0:
404,48,155676,5,0,0:0:0:0:
348,120,155843,1,8,0:0:0:0:
264,88,156009,1,0,0:0:0:0:
240,76,156092,1,0,0:0:0:0:
216,64,156176,1,8,0:0:0:0:
192,52,156259,1,0,0:0:0:0:
168,40,156342,2,0,B|180:132,1,90,0|8,0:0|0:0,0:0:0:0:
40,164,156676,2,0,B|28:256,1,90,0|8,0:0|0:0,0:0:0:0:
120,364,157009,5,0,0:0:0:0:
208,384,157176,1,8,0:0:0:0:
256,308,157343,1,0,0:0:0:0:
252,280,157426,1,0,0:0:0:0:
248,252,157509,1,8,0:0:0:0:
244,224,157593,1,0,0:0:0:0:
240,196,157676,1,0,0:0:0:0:
276,56,157843,1,8,0:0:0:0:
332,188,158009,1,0,0:0:0:0:
368,48,158176,1,8,0:0:0:0:
404,132,158343,5,0,0:0:0:0:
472,192,158509,1,8,0:0:0:0:
452,280,158676,1,0,0:0:0:0:
428,292,158759,1,0,0:0:0:0:
404,304,158843,1,8,0:0:0:0:
380,316,158926,1,0,0:0:0:0:
356,328,159009,2,0,B|311:335|311:335|272:312,1,90,0|8,0:0|0:0,0:0:0:0:
132,344,159343,2,0,B|177:337|177:337|216:360,1,90,0|8,0:0|0:0,0:0:0:0:
256,240,159676,5,0,0:0:0:0:
168,260,159843,1,8,0:0:0:0:
104,196,160009,1,0,0:0:0:0:
92,172,160093,1,0,0:0:0:0:
80,148,160176,1,8,0:0:0:0:
92,124,160259,1,0,0:0:0:0:
104,100,160343,2,0,L|112:56,1,45,0|0,0:0|0:0,0:0:0:0:
186,24,160509,2,0,L|194:68,1,45,8|0,0:0|0:0,0:0:0:0:
270,100,160676,2,0,L|278:56,1,45,0|0,0:0|0:0,0:0:0:0:
352,24,160843,2,0,L|360:68,1,45,0|0,0:0|0:0,0:0:0:0:
264,292,162176,5,0,0:0:0:0:
260,308,162259,1,0,0:0:0:0:
256,324,162343,2,0,B|232:244|232:244|280:180|280:180|256:100,1,247.500009441376,12|8,0:0|0:0,0:0:0:0:
237,36,163009,2,0,L|233:72,1,30
