osu file format v14

[General]
AudioFilename: Kreutzer.mp3
AudioLeadIn: 0
PreviewTime: 56242
Countdown: 0
SampleSet: None
StackLeniency: 0.7
Mode: 3
LetterboxInBreaks: 0
SpecialStyle: 0
WidescreenStoryboard: 0

[Editor]
DistanceSpacing: 0.6
BeatDivisor: 4
GridSize: 4
TimelineZoom: 4.199998

[Metadata]
Title:Kreutzer
TitleUnicode:Kreutzer
Artist:a_hisa
ArtistUnicode:a_hisa
Creator:Zenonia
Version:Hazard!
Source:
Tags:
BeatmapID:1071338
BeatmapSetID:503520

[Difficulty]
HPDrainRate:8
CircleSize:7
OverallDifficulty:0
ApproachRate:5
SliderMultiplier:1.4
SliderTickRate:1

[Events]
//Background and Video events
0,0,"lolibaka.com_494159.png",0,0
//Break Periods
//Storyboard Layer 0 (Background)
//Storyboard Layer 1 (Fail)
//Storyboard Layer 2 (Pass)
//Storyboard Layer 3 (Foreground)
//Storyboard Sound Samples

[TimingPoints]
700,342.857142857143,4,2,0,5,1,0
87785,-10,4,2,0,5,0,0
87828,-1000,4,2,0,5,0,0
88814,-10,4,2,0,5,0,0
88835,-100,4,2,0,5,0,0
124814,-133.333333333333,4,2,0,5,0,0
144700,-100,4,2,0,5,0,0

[HitObjects]
256,192,699,128,0,22642:0:0:0:0:
36,192,11671,1,0,0:0:0:0:
475,192,12871,1,0,0:0:0:0:
329,192,13042,1,0,0:0:0:0:
329,192,13385,1,0,0:0:0:0:
182,192,14414,1,0,0:0:0:0:
36,192,15614,1,0,0:0:0:0:
182,192,15785,1,0,0:0:0:0:
182,192,16128,1,0,0:0:0:0:
402,192,16300,1,0,0:0:0:0:
329,192,17157,1,0,0:0:0:0:
109,192,17500,1,0,0:0:0:0:
329,192,17671,1,0,0:0:0:0:
475,192,17842,1,0,0:0:0:0:
402,192,18185,1,0,0:0:0:0:
182,192,18357,1,0,0:0:0:0:
36,192,18528,1,0,0:0:0:0:
329,192,18528,1,0,0:0:0:0:
109,192,18871,1,0,0:0:0:0:
402,192,18871,1,0,0:0:0:0:
182,192,19214,1,0,0:0:0:0:
475,192,19214,1,0,0:0:0:0:
402,192,19557,1,0,0:0:0:0:
329,192,19728,1,0,0:0:0:0:
182,192,19900,1,0,0:0:0:0:
36,192,19900,1,0,0:0:0:0:
109,192,20242,1,0,0:0:0:0:
182,192,20585,1,0,0:0:0:0:
475,192,20585,1,0,0:0:0:0:
402,192,20928,1,0,0:0:0:0:
36,192,20928,1,0,0:0:0:0:
109,192,21100,1,0,0:0:0:0:
182,192,21271,1,0,0:0:0:0:
329,192,21271,1,0,0:0:0:0:
402,192,21614,1,0,0:0:0:0:
109,192,21614,1,0,0:0:0:0:
182,192,21785,1,0,0:0:0:0:
329,192,21957,1,0,0:0:0:0:
475,192,21957,128,0,22642:0:0:0:0:
182,192,22128,1,0,0:0:0:0:
109,192,22300,1,0,0:0:0:0:
402,192,22300,1,0,0:0:0:0:
36,192,22642,1,0,0:0:0:0:
182,192,22642,1,0,0:0:0:0:
402,192,22642,1,0,0:0:0:0:
329,192,22642,128,0,24014:0:0:0:0:
256,192,22985,1,0,0:0:0:0:
109,192,23328,1,0,0:0:0:0:
475,192,23328,1,0,0:0:0:0:
402,192,23500,1,0,0:0:0:0:
256,192,23671,1,0,0:0:0:0:
36,192,23671,1,0,0:0:0:0:
109,192,23842,1,0,0:0:0:0:
182,192,24014,128,0,25385:0:0:0:0:
402,192,24014,1,0,0:0:0:0:
475,192,24014,1,0,0:0:0:0:
402,192,24357,1,0,0:0:0:0:
475,192,24357,1,0,0:0:0:0:
256,192,24700,1,0,0:0:0:0:
36,192,24700,1,0,0:0:0:0:
475,192,25042,1,0,0:0:0:0:
109,192,25042,1,0,0:0:0:0:
402,192,25214,1,0,0:0:0:0:
329,192,25385,128,0,26757:0:0:0:0:
36,192,25385,1,0,0:0:0:0:
256,192,25385,1,0,0:0:0:0:
182,192,25728,1,0,0:0:0:0:
109,192,26071,1,0,0:0:0:0:
256,192,26071,1,0,0:0:0:0:
475,192,26071,1,0,0:0:0:0:
402,192,26242,1,0,0:0:0:0:
182,192,26414,1,0,0:0:0:0:
256,192,26585,1,0,0:0:0:0:
109,192,26757,128,0,28128:0:0:0:0:
475,192,26757,1,0,0:0:0:0:
36,192,26757,1,0,0:0:0:0:
402,192,27100,1,0,0:0:0:0:
329,192,27100,1,0,0:0:0:0:
182,192,27271,1,0,0:0:0:0:
256,192,27442,1,0,0:0:0:0:
475,192,27442,1,0,0:0:0:0:
402,192,27785,1,0,0:0:0:0:
329,192,27785,1,0,0:0:0:0:
182,192,27957,1,0,0:0:0:0:
329,192,28128,128,0,28814:0:0:0:0:
256,192,28128,1,0,0:0:0:0:
475,192,28128,1,0,0:0:0:0:
36,192,28128,1,0,0:0:0:0:
109,192,28471,1,0,0:0:0:0:
36,192,28642,1,0,0:0:0:0:
256,192,28814,1,0,0:0:0:0:
475,192,28814,1,0,0:0:0:0:
402,192,28985,1,0,0:0:0:0:
182,192,28985,1,0,0:0:0:0:
329,192,29157,1,0,0:0:0:0:
109,192,29157,1,0,0:0:0:0:
402,192,29328,1,0,0:0:0:0:
36,192,29328,1,0,0:0:0:0:
475,192,29500,1,0,0:0:0:0:
256,192,29500,1,0,0:0:0:0:
109,192,29500,1,0,0:0:0:0:
182,192,29500,128,0,30185:0:0:0:0:
329,192,29842,1,0,0:0:0:0:
402,192,29842,1,0,0:0:0:0:
475,192,30185,1,0,0:0:0:0:
36,192,30185,1,0,0:0:0:0:
109,192,30185,1,0,0:0:0:0:
256,192,30185,128,0,30871:0:0:0:0:
402,192,30528,1,0,0:0:0:0:
182,192,30700,1,0,0:0:0:0:
329,192,30871,128,0,32242:0:0:0:0:
109,192,30871,1,0,0:0:0:0:
475,192,30871,1,0,0:0:0:0:
256,192,31214,1,0,0:0:0:0:
36,192,31214,1,0,0:0:0:0:
109,192,31557,1,0,0:0:0:0:
182,192,31557,1,0,0:0:0:0:
256,192,31728,1,0,0:0:0:0:
402,192,31900,1,0,0:0:0:0:
36,192,31900,1,0,0:0:0:0:
256,192,32071,1,0,0:0:0:0:
182,192,32242,1,0,0:0:0:0:
475,192,32242,128,0,33614:0:0:0:0:
36,192,32242,1,0,0:0:0:0:
256,192,32585,1,0,0:0:0:0:
109,192,32585,1,0,0:0:0:0:
36,192,32757,1,0,0:0:0:0:
36,192,32928,1,0,0:0:0:0:
329,192,32928,1,0,0:0:0:0:
256,192,32928,1,0,0:0:0:0:
402,192,33271,1,0,0:0:0:0:
182,192,33271,1,0,0:0:0:0:
329,192,33442,1,0,0:0:0:0:
256,192,33614,1,0,0:0:0:0:
36,192,33614,1,0,0:0:0:0:
182,192,33614,128,0,34985:0:0:0:0:
329,192,33957,1,0,0:0:0:0:
256,192,34300,1,0,0:0:0:0:
475,192,34300,1,0,0:0:0:0:
36,192,34300,1,0,0:0:0:0:
329,192,34471,1,0,0:0:0:0:
256,192,34642,1,0,0:0:0:0:
36,192,34814,1,0,0:0:0:0:
256,192,34985,1,0,0:0:0:0:
402,192,34985,1,0,0:0:0:0:
329,192,34985,1,0,0:0:0:0:
475,192,34985,1,0,0:0:0:0:
109,192,34985,1,0,0:0:0:0:
36,192,35157,1,0,0:0:0:0:
109,192,35242,1,0,0:0:0:0:
182,192,35328,1,0,0:0:0:0:
256,192,35414,1,0,0:0:0:0:
329,192,35500,1,0,0:0:0:0:
402,192,35585,1,0,0:0:0:0:
475,192,35671,128,0,37042:0:0:0:0:
256,192,37042,128,0,37385:0:0:0:0:
36,192,37042,1,0,0:0:0:0:
329,192,37214,1,0,0:0:0:0:
109,192,37385,128,0,37728:0:0:0:0:
475,192,37385,1,0,0:0:0:0:
402,192,37471,1,0,0:0:0:0:
329,192,37557,128,0,37728:0:0:0:0:
475,192,37728,1,0,0:0:0:0:
36,192,37728,1,0,0:0:0:0:
256,192,37728,128,0,38242:0:0:0:0:
402,192,37814,1,0,0:0:0:0:
329,192,37900,1,0,0:0:0:0:
109,192,37900,1,0,0:0:0:0:
182,192,37985,1,0,0:0:0:0:
36,192,38071,1,0,0:0:0:0:
109,192,38071,1,0,0:0:0:0:
475,192,38071,1,0,0:0:0:0:
402,192,38157,1,0,0:0:0:0:
109,192,38242,128,0,38414:0:0:0:0:
329,192,38242,1,0,0:0:0:0:
402,192,38328,1,0,0:0:0:0:
182,192,38414,128,0,38585:0:0:0:0:
36,192,38414,1,0,0:0:0:0:
475,192,38414,1,0,0:0:0:0:
256,192,38414,1,0,0:0:0:0:
329,192,38500,1,0,0:0:0:0:
109,192,38585,1,0,0:0:0:0:
402,192,38585,1,0,0:0:0:0:
475,192,38671,1,0,0:0:0:0:
402,192,38757,1,0,0:0:0:0:
256,192,38757,1,0,0:0:0:0:
36,192,38757,1,0,0:0:0:0:
329,192,38842,1,0,0:0:0:0:
475,192,38928,128,0,39014:0:0:0:0:
182,192,38928,128,0,38971:0:0:0:0:
256,192,39014,128,0,39057:0:0:0:0:
402,192,39014,128,0,39100:0:0:0:0:
36,192,39100,1,0,0:0:0:0:
329,192,39100,128,0,39185:0:0:0:0:
109,192,39100,128,0,39142:0:0:0:0:
402,192,39185,128,0,39271:0:0:0:0:
182,192,39185,128,0,39228:0:0:0:0:
475,192,39271,128,0,39357:0:0:0:0:
256,192,39271,128,0,39314:0:0:0:0:
182,192,39357,128,0,39442:0:0:0:0:
329,192,39357,128,0,39400:0:0:0:0:
109,192,39442,128,0,39528:0:0:0:0:
402,192,39442,128,0,39485:0:0:0:0:
36,192,39528,128,0,39614:0:0:0:0:
329,192,39528,128,0,39571:0:0:0:0:
256,192,39614,128,0,39657:0:0:0:0:
475,192,39614,128,0,39700:0:0:0:0:
402,192,39700,128,0,39785:0:0:0:0:
182,192,39700,128,0,39742:0:0:0:0:
36,192,39785,1,0,0:0:0:0:
329,192,39785,128,0,39871:0:0:0:0:
109,192,39785,128,0,39828:0:0:0:0:
402,192,39871,1,0,0:0:0:0:
256,192,39957,1,0,0:0:0:0:
475,192,39957,1,0,0:0:0:0:
182,192,40042,1,0,0:0:0:0:
256,192,40128,1,0,0:0:0:0:
36,192,40128,1,0,0:0:0:0:
402,192,40128,1,0,0:0:0:0:
109,192,40214,1,0,0:0:0:0:
402,192,40300,1,0,0:0:0:0:
182,192,40300,128,0,40471:0:0:0:0:
329,192,40385,1,0,0:0:0:0:
256,192,40471,1,0,0:0:0:0:
36,192,40471,1,0,0:0:0:0:
475,192,40471,1,0,0:0:0:0:
402,192,40471,128,0,40985:0:0:0:0:
109,192,40557,1,0,0:0:0:0:
182,192,40642,1,0,0:0:0:0:
329,192,40642,1,0,0:0:0:0:
109,192,40728,1,0,0:0:0:0:
36,192,40814,1,0,0:0:0:0:
256,192,40814,1,0,0:0:0:0:
109,192,40900,1,0,0:0:0:0:
182,192,40985,128,0,41157:0:0:0:0:
475,192,40985,1,0,0:0:0:0:
402,192,41071,1,0,0:0:0:0:
329,192,41157,128,0,41328:0:0:0:0:
36,192,41157,1,0,0:0:0:0:
256,192,41157,1,0,0:0:0:0:
109,192,41242,1,0,0:0:0:0:
182,192,41328,1,0,0:0:0:0:
402,192,41328,1,0,0:0:0:0:
109,192,41414,1,0,0:0:0:0:
256,192,41500,1,0,0:0:0:0:
36,192,41500,1,0,0:0:0:0:
475,192,41500,1,0,0:0:0:0:
182,192,41585,1,0,0:0:0:0:
109,192,41671,128,0,41757:0:0:0:0:
329,192,41671,128,0,41714:0:0:0:0:
182,192,41757,128,0,41842:0:0:0:0:
402,192,41757,128,0,41800:0:0:0:0:
256,192,41842,1,0,0:0:0:0:
36,192,41842,128,0,41928:0:0:0:0:
329,192,41842,128,0,41885:0:0:0:0:
109,192,41928,128,0,42014:0:0:0:0:
402,192,41928,128,0,41971:0:0:0:0:
475,192,42014,128,0,42057:0:0:0:0:
256,192,42014,128,0,42100:0:0:0:0:
182,192,42100,128,0,42185:0:0:0:0:
402,192,42100,128,0,42142:0:0:0:0:
36,192,42185,128,0,42271:0:0:0:0:
256,192,42185,128,0,42228:0:0:0:0:
109,192,42271,128,0,42357:0:0:0:0:
329,192,42271,128,0,42314:0:0:0:0:
182,192,42357,128,0,42442:0:0:0:0:
402,192,42357,128,0,42400:0:0:0:0:
256,192,42442,128,0,42528:0:0:0:0:
475,192,42442,128,0,42485:0:0:0:0:
109,192,42528,1,0,0:0:0:0:
329,192,42528,128,0,42571:0:0:0:0:
36,192,42528,1,0,0:0:0:0:
402,192,42614,128,0,42657:0:0:0:0:
182,192,42700,1,0,0:0:0:0:
256,192,42700,128,0,42742:0:0:0:0:
329,192,42785,128,0,42828:0:0:0:0:
109,192,42871,1,0,0:0:0:0:
402,192,42871,128,0,42914:0:0:0:0:
182,192,42871,128,0,42914:0:0:0:0:
329,192,42957,128,0,43000:0:0:0:0:
256,192,43042,128,0,43085:0:0:0:0:
36,192,43042,128,0,43214:0:0:0:0:
329,192,43128,128,0,43171:0:0:0:0:
256,192,43214,128,0,43385:0:0:0:0:
402,192,43214,1,0,0:0:0:0:
182,192,43214,1,0,0:0:0:0:
475,192,43300,1,0,0:0:0:0:
109,192,43385,128,0,43557:0:0:0:0:
402,192,43385,1,0,0:0:0:0:
329,192,43471,1,0,0:0:0:0:
182,192,43557,128,0,43728:0:0:0:0:
36,192,43557,1,0,0:0:0:0:
256,192,43557,1,0,0:0:0:0:
329,192,43642,1,0,0:0:0:0:
36,192,43728,128,0,43900:0:0:0:0:
402,192,43728,1,0,0:0:0:0:
475,192,43814,1,0,0:0:0:0:
109,192,43900,128,0,44071:0:0:0:0:
402,192,43900,1,0,0:0:0:0:
256,192,43900,1,0,0:0:0:0:
329,192,43985,1,0,0:0:0:0:
182,192,44071,128,0,44242:0:0:0:0:
402,192,44071,1,0,0:0:0:0:
475,192,44157,1,0,0:0:0:0:
256,192,44242,128,0,44414:0:0:0:0:
402,192,44242,1,0,0:0:0:0:
36,192,44242,1,0,0:0:0:0:
329,192,44328,1,0,0:0:0:0:
109,192,44414,128,0,44585:0:0:0:0:
402,192,44414,1,0,0:0:0:0:
182,192,44414,1,0,0:0:0:0:
329,192,44500,1,0,0:0:0:0:
475,192,44585,128,0,44757:0:0:0:0:
256,192,44585,1,0,0:0:0:0:
36,192,44585,1,0,0:0:0:0:
109,192,44671,1,0,0:0:0:0:
256,192,44757,128,0,44928:0:0:0:0:
182,192,44757,1,0,0:0:0:0:
109,192,44842,1,0,0:0:0:0:
402,192,44928,128,0,45100:0:0:0:0:
36,192,44928,1,0,0:0:0:0:
329,192,44928,1,0,0:0:0:0:
109,192,45014,1,0,0:0:0:0:
329,192,45100,128,0,45271:0:0:0:0:
182,192,45100,1,0,0:0:0:0:
256,192,45185,1,0,0:0:0:0:
402,192,45271,128,0,45614:0:0:0:0:
475,192,45271,1,0,0:0:0:0:
36,192,45271,1,0,0:0:0:0:
109,192,45357,1,0,0:0:0:0:
182,192,45442,1,0,0:0:0:0:
329,192,45442,1,0,0:0:0:0:
109,192,45528,1,0,0:0:0:0:
256,192,45614,128,0,45957:0:0:0:0:
36,192,45614,1,0,0:0:0:0:
475,192,45614,128,0,45700:0:0:0:0:
329,192,45614,1,0,0:0:0:0:
182,192,45700,1,0,0:0:0:0:
402,192,45785,128,0,45871:0:0:0:0:
109,192,45785,1,0,0:0:0:0:
182,192,45871,1,0,0:0:0:0:
329,192,45957,128,0,46042:0:0:0:0:
475,192,45957,1,0,0:0:0:0:
36,192,45957,1,0,0:0:0:0:
109,192,46042,1,0,0:0:0:0:
402,192,46128,128,0,46214:0:0:0:0:
256,192,46128,1,0,0:0:0:0:
182,192,46214,1,0,0:0:0:0:
329,192,46300,128,0,46385:0:0:0:0:
256,192,46300,128,0,46642:0:0:0:0:
36,192,46300,1,0,0:0:0:0:
109,192,46385,1,0,0:0:0:0:
182,192,46471,128,0,46557:0:0:0:0:
475,192,46471,1,0,0:0:0:0:
36,192,46557,1,0,0:0:0:0:
109,192,46642,128,0,46728:0:0:0:0:
402,192,46642,1,0,0:0:0:0:
329,192,46642,1,0,0:0:0:0:
182,192,46728,1,0,0:0:0:0:
36,192,46814,128,0,46900:0:0:0:0:
475,192,46814,1,0,0:0:0:0:
329,192,46900,1,0,0:0:0:0:
256,192,46985,128,0,47500:0:0:0:0:
109,192,46985,128,0,47071:0:0:0:0:
402,192,46985,1,0,0:0:0:0:
329,192,47071,1,0,0:0:0:0:
182,192,47157,128,0,47242:0:0:0:0:
36,192,47157,1,0,0:0:0:0:
402,192,47242,1,0,0:0:0:0:
329,192,47328,128,0,47414:0:0:0:0:
109,192,47328,1,0,0:0:0:0:
475,192,47414,1,0,0:0:0:0:
182,192,47500,128,0,47671:0:0:0:0:
36,192,47500,1,0,0:0:0:0:
329,192,47585,1,0,0:0:0:0:
109,192,47671,128,0,47842:0:0:0:0:
256,192,47671,1,0,0:0:0:0:
475,192,47671,1,0,0:0:0:0:
402,192,47757,1,0,0:0:0:0:
329,192,47842,128,0,48014:0:0:0:0:
36,192,47842,1,0,0:0:0:0:
109,192,47928,1,0,0:0:0:0:
256,192,48014,128,0,48185:0:0:0:0:
182,192,48014,1,0,0:0:0:0:
475,192,48014,1,0,0:0:0:0:
402,192,48100,1,0,0:0:0:0:
182,192,48185,128,0,48357:0:0:0:0:
329,192,48185,1,0,0:0:0:0:
36,192,48185,1,0,0:0:0:0:
402,192,48271,1,0,0:0:0:0:
36,192,48357,128,0,48528:0:0:0:0:
475,192,48357,1,0,0:0:0:0:
256,192,48357,1,0,0:0:0:0:
182,192,48442,1,0,0:0:0:0:
475,192,48528,128,0,48700:0:0:0:0:
109,192,48528,1,0,0:0:0:0:
182,192,48614,1,0,0:0:0:0:
256,192,48700,128,0,48871:0:0:0:0:
36,192,48700,1,0,0:0:0:0:
329,192,48700,1,0,0:0:0:0:
402,192,48785,1,0,0:0:0:0:
329,192,48871,128,0,49042:0:0:0:0:
109,192,48871,1,0,0:0:0:0:
182,192,48957,1,0,0:0:0:0:
402,192,49042,128,0,49214:0:0:0:0:
36,192,49042,1,0,0:0:0:0:
475,192,49042,1,0,0:0:0:0:
256,192,49042,1,0,0:0:0:0:
109,192,49128,1,0,0:0:0:0:
256,192,49214,128,0,49385:0:0:0:0:
182,192,49214,1,0,0:0:0:0:
329,192,49214,1,0,0:0:0:0:
109,192,49385,128,0,49557:0:0:0:0:
475,192,49385,1,0,0:0:0:0:
36,192,49385,1,0,0:0:0:0:
329,192,49385,1,0,0:0:0:0:
402,192,49471,1,0,0:0:0:0:
182,192,49557,128,0,49728:0:0:0:0:
475,192,49557,1,0,0:0:0:0:
329,192,49642,1,0,0:0:0:0:
256,192,49728,128,0,49900:0:0:0:0:
475,192,49728,1,0,0:0:0:0:
109,192,49728,1,0,0:0:0:0:
36,192,49728,1,0,0:0:0:0:
182,192,49814,1,0,0:0:0:0:
329,192,49900,128,0,50071:0:0:0:0:
402,192,49900,1,0,0:0:0:0:
475,192,49900,1,0,0:0:0:0:
109,192,49900,1,0,0:0:0:0:
256,192,50071,1,0,0:0:0:0:
475,192,50071,1,0,0:0:0:0:
182,192,50071,128,0,50671:0:0:0:0:
36,192,50071,1,0,0:0:0:0:
329,192,50157,1,0,0:0:0:0:
109,192,50242,128,0,50500:0:0:0:0:
402,192,50242,1,0,0:0:0:0:
329,192,50328,1,0,0:0:0:0:
36,192,50414,128,0,51014:0:0:0:0:
256,192,50414,1,0,0:0:0:0:
475,192,50414,1,0,0:0:0:0:
402,192,50500,1,0,0:0:0:0:
109,192,50585,128,0,50842:0:0:0:0:
329,192,50585,1,0,0:0:0:0:
402,192,50671,1,0,0:0:0:0:
329,192,50757,128,0,51357:0:0:0:0:
475,192,50757,1,0,0:0:0:0:
182,192,50757,1,0,0:0:0:0:
256,192,50842,1,0,0:0:0:0:
402,192,50928,128,0,51185:0:0:0:0:
182,192,50928,1,0,0:0:0:0:
109,192,51014,1,0,0:0:0:0:
475,192,51100,128,0,51614:0:0:0:0:
256,192,51100,1,0,0:0:0:0:
36,192,51100,1,0,0:0:0:0:
182,192,51185,1,0,0:0:0:0:
402,192,51271,128,0,51528:0:0:0:0:
109,192,51271,1,0,0:0:0:0:
182,192,51357,1,0,0:0:0:0:
329,192,51442,1,0,0:0:0:0:
36,192,51442,1,0,0:0:0:0:
256,192,51442,128,0,51871:0:0:0:0:
182,192,51528,1,0,0:0:0:0:
109,192,51614,128,0,52128:0:0:0:0:
329,192,51614,1,0,0:0:0:0:
36,192,51614,1,0,0:0:0:0:
475,192,51700,1,0,0:0:0:0:
402,192,51785,128,0,52128:0:0:0:0:
182,192,51785,1,0,0:0:0:0:
36,192,51785,1,0,0:0:0:0:
329,192,51871,1,0,0:0:0:0:
256,192,51957,128,0,52128:0:0:0:0:
36,192,51957,1,0,0:0:0:0:
475,192,51957,1,0,0:0:0:0:
182,192,52042,1,0,0:0:0:0:
36,192,52128,1,0,0:0:0:0:
475,192,52128,128,0,52728:0:0:0:0:
329,192,52128,1,0,0:0:0:0:
402,192,52214,128,0,52642:0:0:0:0:
109,192,52214,1,0,0:0:0:0:
329,192,52300,128,0,52557:0:0:0:0:
182,192,52300,1,0,0:0:0:0:
256,192,52385,128,0,52471:0:0:0:0:
109,192,52385,1,0,0:0:0:0:
36,192,52471,128,0,53071:0:0:0:0:
182,192,52471,1,0,0:0:0:0:
109,192,52557,128,0,52985:0:0:0:0:
256,192,52557,1,0,0:0:0:0:
182,192,52642,128,0,52900:0:0:0:0:
329,192,52642,1,0,0:0:0:0:
256,192,52728,128,0,52814:0:0:0:0:
402,192,52728,1,0,0:0:0:0:
475,192,52814,128,0,53414:0:0:0:0:
329,192,52814,1,0,0:0:0:0:
402,192,52900,128,0,53328:0:0:0:0:
256,192,52900,1,0,0:0:0:0:
329,192,52985,128,0,53242:0:0:0:0:
182,192,52985,1,0,0:0:0:0:
256,192,53071,128,0,53157:0:0:0:0:
109,192,53071,1,0,0:0:0:0:
36,192,53157,128,0,53500:0:0:0:0:
182,192,53157,128,0,53500:0:0:0:0:
256,192,53242,1,0,0:0:0:0:
329,192,53328,1,0,0:0:0:0:
109,192,53328,1,0,0:0:0:0:
402,192,53414,1,0,0:0:0:0:
256,192,53500,1,0,0:0:0:0:
475,192,53500,128,0,53671:0:0:0:0:
109,192,53500,128,0,53542:0:0:0:0:
329,192,53585,128,0,53671:0:0:0:0:
402,192,53585,128,0,53628:0:0:0:0:
182,192,53671,128,0,53842:0:0:0:0:
109,192,53671,128,0,53714:0:0:0:0:
329,192,53757,128,0,53842:0:0:0:0:
475,192,53757,128,0,53800:0:0:0:0:
402,192,53842,128,0,54014:0:0:0:0:
109,192,53842,1,0,0:0:0:0:
36,192,53842,128,0,53885:0:0:0:0:
256,192,53928,128,0,54014:0:0:0:0:
329,192,53928,128,0,53971:0:0:0:0:
109,192,54014,128,0,54185:0:0:0:0:
36,192,54014,128,0,54057:0:0:0:0:
256,192,54100,128,0,54185:0:0:0:0:
182,192,54100,128,0,54142:0:0:0:0:
329,192,54185,128,0,54357:0:0:0:0:
475,192,54185,128,0,54228:0:0:0:0:
402,192,54185,1,0,0:0:0:0:
36,192,54185,1,0,0:0:0:0:
182,192,54271,128,0,54357:0:0:0:0:
109,192,54271,128,0,54314:0:0:0:0:
36,192,54357,128,0,54528:0:0:0:0:
402,192,54357,128,0,54400:0:0:0:0:
182,192,54442,128,0,54528:0:0:0:0:
256,192,54442,128,0,54485:0:0:0:0:
402,192,54528,128,0,54700:0:0:0:0:
109,192,54528,128,0,54571:0:0:0:0:
475,192,54528,1,0,0:0:0:0:
256,192,54614,128,0,54700:0:0:0:0:
182,192,54614,128,0,54657:0:0:0:0:
109,192,54700,128,0,54871:0:0:0:0:
475,192,54700,128,0,54742:0:0:0:0:
256,192,54785,128,0,54871:0:0:0:0:
329,192,54785,128,0,54828:0:0:0:0:
36,192,54871,128,0,55214:0:0:0:0:
475,192,54871,1,0,0:0:0:0:
402,192,54871,1,0,0:0:0:0:
182,192,54871,1,0,0:0:0:0:
256,192,55042,128,0,55385:0:0:0:0:
329,192,55042,1,0,0:0:0:0:
402,192,55214,128,0,55557:0:0:0:0:
109,192,55214,1,0,0:0:0:0:
182,192,55214,1,0,0:0:0:0:
475,192,55214,1,0,0:0:0:0:
329,192,55214,1,0,0:0:0:0:
109,192,55385,128,0,55728:0:0:0:0:
36,192,55385,1,0,0:0:0:0:
182,192,55557,1,0,0:0:0:0:
256,192,55557,1,0,0:0:0:0:
475,192,55557,1,0,0:0:0:0:
36,192,55557,1,0,0:0:0:0:
329,192,55557,128,0,55900:0:0:0:0:
402,192,55728,1,0,0:0:0:0:
182,192,55728,128,0,56071:0:0:0:0:
109,192,55900,128,0,56242:0:0:0:0:
475,192,55900,1,0,0:0:0:0:
256,192,55900,1,0,0:0:0:0:
36,192,55900,1,0,0:0:0:0:
475,192,56071,128,0,56242:0:0:0:0:
329,192,56071,1,0,0:0:0:0:
256,192,56157,128,0,56242:0:0:0:0:
36,192,56242,1,0,0:0:0:0:
182,192,56242,1,0,0:0:0:0:
329,192,56242,128,0,56328:0:0:0:0:
402,192,56242,1,0,0:0:0:0:
256,192,56328,1,0,0:0:0:0:
329,192,56414,1,0,0:0:0:0:
182,192,56414,1,0,0:0:0:0:
109,192,56500,1,0,0:0:0:0:
402,192,56500,1,0,0:0:0:0:
36,192,56585,1,0,0:0:0:0:
182,192,56585,1,0,0:0:0:0:
475,192,56585,1,0,0:0:0:0:
256,192,56671,1,0,0:0:0:0:
402,192,56671,1,0,0:0:0:0:
329,192,56757,1,0,0:0:0:0:
109,192,56757,1,0,0:0:0:0:
182,192,56842,128,0,56928:0:0:0:0:
402,192,56842,1,0,0:0:0:0:
256,192,56928,128,0,57014:0:0:0:0:
475,192,56928,1,0,0:0:0:0:
36,192,56928,1,0,0:0:0:0:
402,192,57014,1,0,0:0:0:0:
182,192,57100,1,0,0:0:0:0:
329,192,57100,1,0,0:0:0:0:
256,192,57185,1,0,0:0:0:0:
475,192,57185,1,0,0:0:0:0:
402,192,57271,1,0,0:0:0:0:
182,192,57271,1,0,0:0:0:0:
36,192,57271,1,0,0:0:0:0:
329,192,57357,1,0,0:0:0:0:
109,192,57357,1,0,0:0:0:0:
256,192,57442,1,0,0:0:0:0:
182,192,57442,1,0,0:0:0:0:
329,192,57528,128,0,57614:0:0:0:0:
109,192,57528,1,0,0:0:0:0:
256,192,57614,128,0,57700:0:0:0:0:
36,192,57614,1,0,0:0:0:0:
402,192,57614,1,0,0:0:0:0:
109,192,57700,1,0,0:0:0:0:
182,192,57785,1,0,0:0:0:0:
475,192,57785,1,0,0:0:0:0:
256,192,57871,1,0,0:0:0:0:
329,192,57871,1,0,0:0:0:0:
182,192,57957,1,0,0:0:0:0:
109,192,57957,1,0,0:0:0:0:
402,192,57957,1,0,0:0:0:0:
36,192,58042,1,0,0:0:0:0:
329,192,58042,1,0,0:0:0:0:
256,192,58128,1,0,0:0:0:0:
182,192,58128,1,0,0:0:0:0:
109,192,58214,128,0,58300:0:0:0:0:
329,192,58214,1,0,0:0:0:0:
402,192,58300,128,0,58385:0:0:0:0:
36,192,58300,1,0,0:0:0:0:
256,192,58300,1,0,0:0:0:0:
329,192,58385,1,0,0:0:0:0:
182,192,58385,1,0,0:0:0:0:
402,192,58471,1,0,0:0:0:0:
109,192,58471,1,0,0:0:0:0:
182,192,58557,128,0,58642:0:0:0:0:
329,192,58557,1,0,0:0:0:0:
475,192,58642,128,0,58728:0:0:0:0:
109,192,58642,1,0,0:0:0:0:
256,192,58642,1,0,0:0:0:0:
36,192,58728,1,0,0:0:0:0:
329,192,58728,1,0,0:0:0:0:
182,192,58814,1,0,0:0:0:0:
402,192,58814,1,0,0:0:0:0:
256,192,58900,128,0,58985:0:0:0:0:
109,192,58900,1,0,0:0:0:0:
475,192,58985,128,0,59071:0:0:0:0:
36,192,58985,1,0,0:0:0:0:
329,192,58985,1,0,0:0:0:0:
256,192,59071,1,0,0:0:0:0:
109,192,59071,1,0,0:0:0:0:
329,192,59157,1,0,0:0:0:0:
182,192,59157,1,0,0:0:0:0:
109,192,59242,1,0,0:0:0:0:
402,192,59242,1,0,0:0:0:0:
36,192,59328,1,0,0:0:0:0:
329,192,59328,1,0,0:0:0:0:
475,192,59328,1,0,0:0:0:0:
109,192,59414,1,0,0:0:0:0:
475,192,59500,1,0,0:0:0:0:
182,192,59500,1,0,0:0:0:0:
402,192,59585,1,0,0:0:0:0:
109,192,59585,1,0,0:0:0:0:
256,192,59671,128,0,59714:0:0:0:0:
329,192,59671,128,0,59714:0:0:0:0:
36,192,59671,1,0,0:0:0:0:
402,192,59757,1,0,0:0:0:0:
475,192,59842,1,0,0:0:0:0:
256,192,59842,128,0,59885:0:0:0:0:
182,192,59842,128,0,59885:0:0:0:0:
402,192,59928,1,0,0:0:0:0:
182,192,60014,128,0,60057:0:0:0:0:
109,192,60014,128,0,60057:0:0:0:0:
329,192,60014,1,0,0:0:0:0:
256,192,60100,1,0,0:0:0:0:
475,192,60185,1,0,0:0:0:0:
402,192,60185,1,0,0:0:0:0:
36,192,60185,128,0,60228:0:0:0:0:
182,192,60185,128,0,60228:0:0:0:0:
329,192,60271,1,0,0:0:0:0:
109,192,60357,128,0,60400:0:0:0:0:
256,192,60357,128,0,60400:0:0:0:0:
475,192,60357,1,0,0:0:0:0:
329,192,60442,1,0,0:0:0:0:
402,192,60528,1,0,0:0:0:0:
182,192,60528,1,0,0:0:0:0:
109,192,60614,1,0,0:0:0:0:
475,192,60614,1,0,0:0:0:0:
329,192,60700,128,0,60785:0:0:0:0:
256,192,60700,128,0,60785:0:0:0:0:
36,192,60700,1,0,0:0:0:0:
402,192,60785,1,0,0:0:0:0:
36,192,60871,1,0,0:0:0:0:
329,192,60871,1,0,0:0:0:0:
256,192,60957,1,0,0:0:0:0:
475,192,60957,1,0,0:0:0:0:
36,192,61042,128,0,61085:0:0:0:0:
402,192,61042,1,0,0:0:0:0:
182,192,61085,128,0,61128:0:0:0:0:
329,192,61128,128,0,61171:0:0:0:0:
475,192,61171,128,0,61214:0:0:0:0:
109,192,61214,128,0,61257:0:0:0:0:
256,192,61257,128,0,61300:0:0:0:0:
402,192,61300,128,0,61342:0:0:0:0:
182,192,61342,128,0,61385:0:0:0:0:
329,192,61385,128,0,61428:0:0:0:0:
109,192,61428,128,0,61471:0:0:0:0:
256,192,61471,128,0,61514:0:0:0:0:
402,192,61514,128,0,61557:0:0:0:0:
36,192,61557,128,0,61600:0:0:0:0:
182,192,61600,128,0,61642:0:0:0:0:
329,192,61642,128,0,61685:0:0:0:0:
475,192,61685,128,0,61728:0:0:0:0:
109,192,61728,1,0,0:0:0:0:
256,192,61728,1,0,0:0:0:0:
36,192,61728,1,0,0:0:0:0:
329,192,61814,1,0,0:0:0:0:
402,192,61900,1,0,0:0:0:0:
182,192,61900,1,0,0:0:0:0:
36,192,61900,1,0,0:0:0:0:
475,192,61985,1,0,0:0:0:0:
402,192,62071,1,0,0:0:0:0:
109,192,62071,1,0,0:0:0:0:
256,192,62071,1,0,0:0:0:0:
329,192,62157,1,0,0:0:0:0:
182,192,62242,1,0,0:0:0:0:
36,192,62242,1,0,0:0:0:0:
475,192,62242,1,0,0:0:0:0:
329,192,62328,1,0,0:0:0:0:
475,192,62414,1,0,0:0:0:0:
402,192,62414,1,0,0:0:0:0:
109,192,62414,1,0,0:0:0:0:
256,192,62414,1,0,0:0:0:0:
182,192,62500,1,0,0:0:0:0:
402,192,62585,1,0,0:0:0:0:
256,192,62585,1,0,0:0:0:0:
36,192,62585,1,0,0:0:0:0:
109,192,62671,1,0,0:0:0:0:
182,192,62757,1,0,0:0:0:0:
475,192,62757,1,0,0:0:0:0:
109,192,62842,1,0,0:0:0:0:
36,192,62928,1,0,0:0:0:0:
402,192,62928,1,0,0:0:0:0:
256,192,62928,1,0,0:0:0:0:
109,192,63014,1,0,0:0:0:0:
329,192,63100,1,0,0:0:0:0:
475,192,63100,1,0,0:0:0:0:
182,192,63100,1,0,0:0:0:0:
256,192,63185,1,0,0:0:0:0:
329,192,63271,1,0,0:0:0:0:
109,192,63271,1,0,0:0:0:0:
475,192,63271,1,0,0:0:0:0:
182,192,63357,1,0,0:0:0:0:
36,192,63442,1,0,0:0:0:0:
256,192,63442,1,0,0:0:0:0:
402,192,63442,1,0,0:0:0:0:
475,192,63442,1,0,0:0:0:0:
329,192,63528,1,0,0:0:0:0:
402,192,63614,1,0,0:0:0:0:
182,192,63614,1,0,0:0:0:0:
109,192,63700,1,0,0:0:0:0:
329,192,63785,1,0,0:0:0:0:
475,192,63785,1,0,0:0:0:0:
36,192,63785,1,0,0:0:0:0:
256,192,63785,1,0,0:0:0:0:
402,192,63871,1,0,0:0:0:0:
109,192,63957,1,0,0:0:0:0:
329,192,63957,1,0,0:0:0:0:
182,192,64042,1,0,0:0:0:0:
109,192,64128,1,0,0:0:0:0:
402,192,64128,1,0,0:0:0:0:
36,192,64128,1,0,0:0:0:0:
475,192,64128,1,0,0:0:0:0:
256,192,64128,1,0,0:0:0:0:
36,192,64300,1,0,0:0:0:0:
256,192,64300,1,0,0:0:0:0:
329,192,64300,1,0,0:0:0:0:
475,192,64300,1,0,0:0:0:0:
109,192,64385,1,0,0:0:0:0:
256,192,64471,128,0,65157:0:0:0:0:
475,192,64471,128,0,64557:0:0:0:0:
36,192,64471,128,0,64557:0:0:0:0:
182,192,64471,128,0,64557:0:0:0:0:
402,192,64557,128,0,64642:0:0:0:0:
329,192,64642,128,0,64728:0:0:0:0:
109,192,64642,128,0,64728:0:0:0:0:
182,192,64728,128,0,64814:0:0:0:0:
475,192,64814,128,0,64900:0:0:0:0:
36,192,64814,128,0,64900:0:0:0:0:
402,192,64900,128,0,64985:0:0:0:0:
329,192,64985,128,0,65071:0:0:0:0:
109,192,64985,128,0,65071:0:0:0:0:
402,192,65071,1,0,0:0:0:0:
182,192,65071,128,0,65157:0:0:0:0:
402,192,65157,128,0,65842:0:0:0:0:
36,192,65157,128,0,65242:0:0:0:0:
475,192,65157,128,0,65242:0:0:0:0:
109,192,65242,128,0,65328:0:0:0:0:
182,192,65328,128,0,65414:0:0:0:0:
329,192,65328,128,0,65414:0:0:0:0:
256,192,65414,128,0,65500:0:0:0:0:
182,192,65500,128,0,65585:0:0:0:0:
475,192,65500,128,0,65585:0:0:0:0:
109,192,65585,128,0,65671:0:0:0:0:
36,192,65671,128,0,65757:0:0:0:0:
256,192,65671,128,0,65757:0:0:0:0:
109,192,65757,1,0,0:0:0:0:
329,192,65757,128,0,65842:0:0:0:0:
109,192,65842,128,0,66528:0:0:0:0:
475,192,65842,128,0,65928:0:0:0:0:
256,192,65842,128,0,65928:0:0:0:0:
402,192,65928,128,0,66014:0:0:0:0:
329,192,66014,128,0,66100:0:0:0:0:
36,192,66014,128,0,66100:0:0:0:0:
256,192,66100,128,0,66185:0:0:0:0:
182,192,66185,128,0,66271:0:0:0:0:
475,192,66185,128,0,66271:0:0:0:0:
402,192,66271,128,0,66357:0:0:0:0:
256,192,66357,128,0,66442:0:0:0:0:
475,192,66357,128,0,66442:0:0:0:0:
329,192,66442,1,0,0:0:0:0:
329,192,66528,128,0,66871:0:0:0:0:
475,192,66528,128,0,66614:0:0:0:0:
182,192,66528,128,0,66614:0:0:0:0:
256,192,66614,128,0,66700:0:0:0:0:
402,192,66700,128,0,66785:0:0:0:0:
36,192,66700,128,0,66785:0:0:0:0:
182,192,66785,1,0,0:0:0:0:
475,192,66785,128,0,66871:0:0:0:0:
182,192,66871,128,0,67214:0:0:0:0:
256,192,66871,128,0,66957:0:0:0:0:
402,192,66871,128,0,66957:0:0:0:0:
109,192,66957,128,0,67042:0:0:0:0:
36,192,67042,128,0,67128:0:0:0:0:
329,192,67042,128,0,67128:0:0:0:0:
402,192,67128,128,0,67214:0:0:0:0:
256,192,67214,128,0,67900:0:0:0:0:
475,192,67214,128,0,67300:0:0:0:0:
109,192,67214,128,0,67300:0:0:0:0:
36,192,67214,128,0,67300:0:0:0:0:
402,192,67300,128,0,67385:0:0:0:0:
182,192,67385,128,0,67471:0:0:0:0:
329,192,67385,128,0,67471:0:0:0:0:
402,192,67471,128,0,67557:0:0:0:0:
475,192,67557,128,0,67642:0:0:0:0:
36,192,67557,128,0,67642:0:0:0:0:
182,192,67557,128,0,67642:0:0:0:0:
402,192,67642,128,0,67728:0:0:0:0:
329,192,67728,128,0,67814:0:0:0:0:
109,192,67728,128,0,67814:0:0:0:0:
402,192,67814,128,0,67900:0:0:0:0:
36,192,67900,128,0,67985:0:0:0:0:
475,192,67900,128,0,68242:0:0:0:0:
182,192,67900,128,0,67985:0:0:0:0:
256,192,67985,128,0,68071:0:0:0:0:
329,192,68071,128,0,68414:0:0:0:0:
109,192,68071,128,0,68157:0:0:0:0:
182,192,68157,128,0,68242:0:0:0:0:
36,192,68242,128,0,68585:0:0:0:0:
256,192,68242,128,0,68328:0:0:0:0:
402,192,68242,128,0,68328:0:0:0:0:
475,192,68328,128,0,68414:0:0:0:0:
182,192,68414,128,0,68757:0:0:0:0:
402,192,68414,128,0,68500:0:0:0:0:
109,192,68414,128,0,68500:0:0:0:0:
256,192,68500,128,0,68585:0:0:0:0:
329,192,68585,128,0,68928:0:0:0:0:
109,192,68585,128,0,68671:0:0:0:0:
475,192,68585,128,0,68671:0:0:0:0:
402,192,68671,128,0,68757:0:0:0:0:
256,192,68757,128,0,68842:0:0:0:0:
36,192,68757,128,0,68842:0:0:0:0:
182,192,68842,128,0,68928:0:0:0:0:
256,192,68928,128,0,69271:0:0:0:0:
109,192,68928,128,0,69014:0:0:0:0:
475,192,68928,128,0,69014:0:0:0:0:
402,192,68928,128,0,69014:0:0:0:0:
329,192,69014,128,0,69100:0:0:0:0:
182,192,69100,128,0,69185:0:0:0:0:
36,192,69100,128,0,69185:0:0:0:0:
109,192,69185,128,0,69271:0:0:0:0:
36,192,69271,128,0,69314:0:0:0:0:
402,192,69271,1,0,0:0:0:0:
182,192,69314,128,0,69357:0:0:0:0:
475,192,69357,128,0,69400:0:0:0:0:
329,192,69400,128,0,69442:0:0:0:0:
109,192,69442,128,0,69485:0:0:0:0:
256,192,69485,128,0,69528:0:0:0:0:
475,192,69528,128,0,69571:0:0:0:0:
329,192,69571,128,0,69614:0:0:0:0:
36,192,69614,128,0,69657:0:0:0:0:
182,192,69657,128,0,69700:0:0:0:0:
402,192,69700,128,0,69742:0:0:0:0:
256,192,69742,128,0,69785:0:0:0:0:
109,192,69785,128,0,69828:0:0:0:0:
182,192,69828,128,0,69871:0:0:0:0:
402,192,69871,128,0,69914:0:0:0:0:
329,192,69914,128,0,69957:0:0:0:0:
256,192,69957,128,0,70642:0:0:0:0:
36,192,69957,1,0,0:0:0:0:
182,192,70042,1,0,0:0:0:0:
36,192,70128,1,0,0:0:0:0:
182,192,70214,1,0,0:0:0:0:
109,192,70300,1,0,0:0:0:0:
402,192,70300,1,0,0:0:0:0:
329,192,70385,1,0,0:0:0:0:
475,192,70471,1,0,0:0:0:0:
329,192,70557,1,0,0:0:0:0:
109,192,70642,1,0,0:0:0:0:
475,192,70642,128,0,70814:0:0:0:0:
256,192,70728,1,0,0:0:0:0:
109,192,70814,1,0,0:0:0:0:
402,192,70814,128,0,70985:0:0:0:0:
256,192,70900,1,0,0:0:0:0:
475,192,70985,1,0,0:0:0:0:
36,192,70985,128,0,71157:0:0:0:0:
182,192,70985,1,0,0:0:0:0:
329,192,71071,1,0,0:0:0:0:
402,192,71157,1,0,0:0:0:0:
109,192,71157,128,0,71328:0:0:0:0:
329,192,71242,1,0,0:0:0:0:
256,192,71328,1,0,0:0:0:0:
475,192,71328,1,0,0:0:0:0:
182,192,71328,128,0,71671:0:0:0:0:
36,192,71328,1,0,0:0:0:0:
402,192,71414,1,0,0:0:0:0:
329,192,71500,1,0,0:0:0:0:
109,192,71500,1,0,0:0:0:0:
256,192,71585,1,0,0:0:0:0:
402,192,71671,128,0,72014:0:0:0:0:
36,192,71671,1,0,0:0:0:0:
475,192,71671,1,0,0:0:0:0:
109,192,71757,1,0,0:0:0:0:
329,192,71842,1,0,0:0:0:0:
182,192,71842,1,0,0:0:0:0:
256,192,71928,1,0,0:0:0:0:
109,192,72014,128,0,72357:0:0:0:0:
182,192,72014,1,0,0:0:0:0:
475,192,72014,1,0,0:0:0:0:
402,192,72100,1,0,0:0:0:0:
329,192,72185,1,0,0:0:0:0:
36,192,72185,1,0,0:0:0:0:
402,192,72271,1,0,0:0:0:0:
256,192,72357,128,0,72700:0:0:0:0:
475,192,72357,1,0,0:0:0:0:
182,192,72357,1,0,0:0:0:0:
329,192,72442,1,0,0:0:0:0:
182,192,72528,1,0,0:0:0:0:
402,192,72528,1,0,0:0:0:0:
109,192,72614,1,0,0:0:0:0:
329,192,72700,128,0,73557:0:0:0:0:
475,192,72700,1,0,0:0:0:0:
36,192,72700,128,0,72785:0:0:0:0:
109,192,72785,128,0,72871:0:0:0:0:
182,192,72871,128,0,72957:0:0:0:0:
256,192,72957,128,0,73042:0:0:0:0:
36,192,73042,128,0,73128:0:0:0:0:
109,192,73128,128,0,73214:0:0:0:0:
256,192,73214,128,0,73300:0:0:0:0:
475,192,73300,128,0,73385:0:0:0:0:
36,192,73385,128,0,73471:0:0:0:0:
182,192,73471,128,0,73557:0:0:0:0:
402,192,73557,128,0,73900:0:0:0:0:
109,192,73557,128,0,73642:0:0:0:0:
182,192,73642,128,0,73728:0:0:0:0:
256,192,73728,128,0,74071:0:0:0:0:
329,192,73814,128,0,73900:0:0:0:0:
36,192,73900,128,0,74414:0:0:0:0:
475,192,73900,128,0,73985:0:0:0:0:
402,192,73985,128,0,74071:0:0:0:0:
182,192,74071,128,0,74414:0:0:0:0:
329,192,74071,128,0,74157:0:0:0:0:
256,192,74157,128,0,74242:0:0:0:0:
475,192,74242,128,0,74328:0:0:0:0:
329,192,74328,128,0,74414:0:0:0:0:
402,192,74414,128,0,75442:0:0:0:0:
109,192,74414,128,0,74671:0:0:0:0:
256,192,74500,128,0,74757:0:0:0:0:
182,192,74585,128,0,74842:0:0:0:0:
475,192,74585,128,0,75014:0:0:0:0:
36,192,74671,128,0,75100:0:0:0:0:
109,192,74757,128,0,75442:0:0:0:0:
329,192,74757,128,0,74928:0:0:0:0:
256,192,74842,128,0,75014:0:0:0:0:
182,192,74928,128,0,75185:0:0:0:0:
329,192,75014,128,0,75271:0:0:0:0:
256,192,75100,128,0,75442:0:0:0:0:
475,192,75100,128,0,75357:0:0:0:0:
36,192,75185,128,0,75442:0:0:0:0:
182,192,75271,128,0,75357:0:0:0:0:
329,192,75357,128,0,75442:0:0:0:0:
475,192,75442,1,0,0:0:0:0:
182,192,75442,1,0,0:0:0:0:
402,192,75528,1,0,0:0:0:0:
36,192,75528,1,0,0:0:0:0:
256,192,75528,1,0,0:0:0:0:
475,192,75614,1,0,0:0:0:0:
182,192,75614,1,0,0:0:0:0:
402,192,75700,1,0,0:0:0:0:
36,192,75700,1,0,0:0:0:0:
256,192,75700,1,0,0:0:0:0:
182,192,75785,1,0,0:0:0:0:
475,192,75785,1,0,0:0:0:0:
256,192,75871,1,0,0:0:0:0:
402,192,75871,1,0,0:0:0:0:
36,192,75871,1,0,0:0:0:0:
475,192,75957,1,0,0:0:0:0:
182,192,75957,1,0,0:0:0:0:
402,192,76042,1,0,0:0:0:0:
36,192,76042,1,0,0:0:0:0:
256,192,76042,1,0,0:0:0:0:
475,192,76128,1,0,0:0:0:0:
182,192,76128,1,0,0:0:0:0:
329,192,76128,1,0,0:0:0:0:
109,192,76214,1,0,0:0:0:0:
402,192,76300,128,0,76471:0:0:0:0:
182,192,76300,1,0,0:0:0:0:
329,192,76300,1,0,0:0:0:0:
109,192,76385,1,0,0:0:0:0:
256,192,76471,128,0,76642:0:0:0:0:
182,192,76471,1,0,0:0:0:0:
36,192,76471,1,0,0:0:0:0:
475,192,76471,1,0,0:0:0:0:
402,192,76557,1,0,0:0:0:0:
109,192,76642,128,0,76814:0:0:0:0:
329,192,76642,1,0,0:0:0:0:
182,192,76642,1,0,0:0:0:0:
402,192,76728,1,0,0:0:0:0:
329,192,76814,128,0,76985:0:0:0:0:
475,192,76814,1,0,0:0:0:0:
36,192,76814,1,0,0:0:0:0:
182,192,76814,1,0,0:0:0:0:
256,192,76814,1,0,0:0:0:0:
109,192,76900,1,0,0:0:0:0:
182,192,76985,128,0,77157:0:0:0:0:
36,192,76985,1,0,0:0:0:0:
402,192,76985,1,0,0:0:0:0:
329,192,77071,1,0,0:0:0:0:
475,192,77157,128,0,77328:0:0:0:0:
256,192,77157,1,0,0:0:0:0:
109,192,77157,1,0,0:0:0:0:
402,192,77157,1,0,0:0:0:0:
36,192,77157,1,0,0:0:0:0:
182,192,77242,1,0,0:0:0:0:
36,192,77328,128,0,77500:0:0:0:0:
256,192,77328,1,0,0:0:0:0:
329,192,77328,1,0,0:0:0:0:
182,192,77414,1,0,0:0:0:0:
475,192,77500,1,0,0:0:0:0:
329,192,77500,128,0,77842:0:0:0:0:
109,192,77500,1,0,0:0:0:0:
256,192,77500,1,0,0:0:0:0:
402,192,77500,1,0,0:0:0:0:
182,192,77671,128,0,78014:0:0:0:0:
475,192,77671,1,0,0:0:0:0:
36,192,77671,1,0,0:0:0:0:
256,192,77842,128,0,78185:0:0:0:0:
475,192,77842,1,0,0:0:0:0:
109,192,77842,1,0,0:0:0:0:
329,192,77928,1,0,0:0:0:0:
36,192,77928,1,0,0:0:0:0:
475,192,78014,1,0,0:0:0:0:
109,192,78014,1,0,0:0:0:0:
329,192,78100,1,0,0:0:0:0:
36,192,78100,1,0,0:0:0:0:
475,192,78185,1,0,0:0:0:0:
402,192,78185,1,0,0:0:0:0:
182,192,78185,1,0,0:0:0:0:
109,192,78185,1,0,0:0:0:0:
329,192,78271,1,0,0:0:0:0:
182,192,78357,1,0,0:0:0:0:
256,192,78442,1,0,0:0:0:0:
402,192,78528,1,0,0:0:0:0:
36,192,78528,1,0,0:0:0:0:
109,192,78614,1,0,0:0:0:0:
182,192,78700,1,0,0:0:0:0:
475,192,78700,1,0,0:0:0:0:
402,192,78785,1,0,0:0:0:0:
329,192,78871,1,0,0:0:0:0:
475,192,78871,1,0,0:0:0:0:
36,192,78871,1,0,0:0:0:0:
109,192,78957,1,0,0:0:0:0:
182,192,79042,1,0,0:0:0:0:
402,192,79042,1,0,0:0:0:0:
256,192,79128,1,0,0:0:0:0:
475,192,79214,1,0,0:0:0:0:
36,192,79214,1,0,0:0:0:0:
329,192,79214,1,0,0:0:0:0:
182,192,79300,1,0,0:0:0:0:
329,192,79385,1,0,0:0:0:0:
109,192,79385,1,0,0:0:0:0:
256,192,79471,1,0,0:0:0:0:
475,192,79557,1,0,0:0:0:0:
402,192,79557,1,0,0:0:0:0:
329,192,79557,1,0,0:0:0:0:
36,192,79557,128,0,79642:0:0:0:0:
182,192,79557,128,0,79642:0:0:0:0:
256,192,79642,128,0,79728:0:0:0:0:
36,192,79728,128,0,79814:0:0:0:0:
402,192,79728,128,0,79814:0:0:0:0:
182,192,79814,128,0,79900:0:0:0:0:
329,192,79900,128,0,79985:0:0:0:0:
109,192,79985,128,0,80071:0:0:0:0:
475,192,80071,128,0,80157:0:0:0:0:
256,192,80157,128,0,80242:0:0:0:0:
402,192,80242,128,0,80328:0:0:0:0:
109,192,80242,128,0,80328:0:0:0:0:
329,192,80328,128,0,80414:0:0:0:0:
182,192,80414,128,0,80500:0:0:0:0:
36,192,80500,128,0,80585:0:0:0:0:
256,192,80585,128,0,80671:0:0:0:0:
475,192,80671,128,0,80757:0:0:0:0:
109,192,80757,128,0,80842:0:0:0:0:
329,192,80842,128,0,80928:0:0:0:0:
256,192,80928,1,0,0:0:0:0:
36,192,80928,1,0,0:0:0:0:
475,192,80928,1,0,0:0:0:0:
402,192,80928,1,0,0:0:0:0:
182,192,81014,1,0,0:0:0:0:
109,192,81014,1,0,0:0:0:0:
402,192,81100,1,0,0:0:0:0:
329,192,81100,1,0,0:0:0:0:
256,192,81185,1,0,0:0:0:0:
182,192,81185,1,0,0:0:0:0:
475,192,81271,1,0,0:0:0:0:
402,192,81271,1,0,0:0:0:0:
36,192,81357,1,0,0:0:0:0:
109,192,81357,1,0,0:0:0:0:
402,192,81442,1,0,0:0:0:0:
329,192,81442,1,0,0:0:0:0:
256,192,81528,1,0,0:0:0:0:
182,192,81528,1,0,0:0:0:0:
475,192,81614,1,0,0:0:0:0:
402,192,81614,1,0,0:0:0:0:
36,192,81614,1,0,0:0:0:0:
109,192,81700,1,0,0:0:0:0:
182,192,81700,1,0,0:0:0:0:
402,192,81785,1,0,0:0:0:0:
329,192,81785,1,0,0:0:0:0:
256,192,81871,1,0,0:0:0:0:
182,192,81871,1,0,0:0:0:0:
475,192,81957,1,0,0:0:0:0:
402,192,81957,1,0,0:0:0:0:
109,192,82042,1,0,0:0:0:0:
36,192,82042,1,0,0:0:0:0:
329,192,82128,1,0,0:0:0:0:
256,192,82128,1,0,0:0:0:0:
109,192,82214,1,0,0:0:0:0:
182,192,82214,1,0,0:0:0:0:
475,192,82300,1,0,0:0:0:0:
36,192,82300,128,0,82385:0:0:0:0:
256,192,82300,128,0,82385:0:0:0:0:
329,192,82300,1,0,0:0:0:0:
109,192,82385,128,0,82471:0:0:0:0:
402,192,82385,128,0,82471:0:0:0:0:
36,192,82471,128,0,82557:0:0:0:0:
256,192,82471,128,0,82557:0:0:0:0:
182,192,82557,128,0,82642:0:0:0:0:
475,192,82557,128,0,82642:0:0:0:0:
109,192,82642,128,0,82728:0:0:0:0:
402,192,82642,128,0,82728:0:0:0:0:
256,192,82728,128,0,82814:0:0:0:0:
475,192,82728,128,0,82814:0:0:0:0:
182,192,82814,128,0,82900:0:0:0:0:
402,192,82814,128,0,82900:0:0:0:0:
109,192,82900,128,0,82985:0:0:0:0:
329,192,82900,128,0,82985:0:0:0:0:
36,192,82985,128,0,83071:0:0:0:0:
475,192,82985,128,0,83071:0:0:0:0:
256,192,82985,128,0,83071:0:0:0:0:
109,192,83071,128,0,83157:0:0:0:0:
402,192,83071,128,0,83157:0:0:0:0:
182,192,83157,128,0,83242:0:0:0:0:
329,192,83157,128,0,83242:0:0:0:0:
475,192,83242,128,0,83328:0:0:0:0:
402,192,83242,128,0,83328:0:0:0:0:
109,192,83328,128,0,83414:0:0:0:0:
182,192,83328,128,0,83414:0:0:0:0:
329,192,83414,128,0,83500:0:0:0:0:
402,192,83414,128,0,83500:0:0:0:0:
36,192,83500,128,0,83585:0:0:0:0:
109,192,83500,128,0,83585:0:0:0:0:
256,192,83585,128,0,83671:0:0:0:0:
329,192,83585,128,0,83671:0:0:0:0:
36,192,83671,128,0,83757:0:0:0:0:
475,192,83671,1,0,0:0:0:0:
109,192,83671,1,0,0:0:0:0:
182,192,83757,128,0,83842:0:0:0:0:
402,192,83757,1,0,0:0:0:0:
329,192,83842,128,0,83928:0:0:0:0:
36,192,83842,1,0,0:0:0:0:
475,192,83928,128,0,84014:0:0:0:0:
182,192,83928,1,0,0:0:0:0:
109,192,84014,128,0,84100:0:0:0:0:
329,192,84014,1,0,0:0:0:0:
256,192,84100,128,0,84185:0:0:0:0:
475,192,84100,1,0,0:0:0:0:
402,192,84185,128,0,84271:0:0:0:0:
109,192,84185,1,0,0:0:0:0:
182,192,84271,128,0,84357:0:0:0:0:
256,192,84271,1,0,0:0:0:0:
329,192,84357,128,0,84442:0:0:0:0:
402,192,84357,1,0,0:0:0:0:
109,192,84357,1,0,0:0:0:0:
182,192,84442,128,0,84528:0:0:0:0:
36,192,84442,1,0,0:0:0:0:
402,192,84528,128,0,84614:0:0:0:0:
329,192,84528,1,0,0:0:0:0:
109,192,84614,128,0,84700:0:0:0:0:
182,192,84614,1,0,0:0:0:0:
402,192,84700,128,0,84785:0:0:0:0:
256,192,84700,1,0,0:0:0:0:
36,192,84785,128,0,84871:0:0:0:0:
109,192,84785,1,0,0:0:0:0:
256,192,84871,128,0,84957:0:0:0:0:
402,192,84871,1,0,0:0:0:0:
36,192,84957,128,0,85042:0:0:0:0:
182,192,84957,1,0,0:0:0:0:
475,192,85042,128,0,85128:0:0:0:0:
402,192,85042,128,0,85128:0:0:0:0:
329,192,85042,128,0,85128:0:0:0:0:
109,192,85042,128,0,85128:0:0:0:0:
256,192,85128,128,0,85214:0:0:0:0:
182,192,85128,128,0,85214:0:0:0:0:
36,192,85214,128,0,85300:0:0:0:0:
402,192,85214,128,0,85300:0:0:0:0:
109,192,85300,128,0,85385:0:0:0:0:
256,192,85300,128,0,85385:0:0:0:0:
182,192,85385,128,0,85471:0:0:0:0:
402,192,85385,128,0,85471:0:0:0:0:
256,192,85471,128,0,85557:0:0:0:0:
36,192,85471,128,0,85557:0:0:0:0:
329,192,85557,128,0,85642:0:0:0:0:
475,192,85557,128,0,85642:0:0:0:0:
182,192,85642,128,0,85728:0:0:0:0:
402,192,85642,128,0,85728:0:0:0:0:
329,192,85728,128,0,85814:0:0:0:0:
256,192,85728,128,0,85814:0:0:0:0:
475,192,85728,128,0,85814:0:0:0:0:
36,192,85728,128,0,85814:0:0:0:0:
109,192,85814,128,0,85900:0:0:0:0:
402,192,85814,128,0,85900:0:0:0:0:
256,192,85900,128,0,85985:0:0:0:0:
329,192,85900,128,0,85985:0:0:0:0:
402,192,85985,128,0,86071:0:0:0:0:
109,192,85985,128,0,86071:0:0:0:0:
36,192,86071,128,0,86157:0:0:0:0:
256,192,86071,128,0,86157:0:0:0:0:
182,192,86157,128,0,86242:0:0:0:0:
475,192,86157,128,0,86242:0:0:0:0:
329,192,86242,128,0,86328:0:0:0:0:
36,192,86242,128,0,86328:0:0:0:0:
402,192,86328,128,0,86414:0:0:0:0:
182,192,86328,128,0,86414:0:0:0:0:
109,192,86414,128,0,86500:0:0:0:0:
36,192,86414,128,0,86500:0:0:0:0:
475,192,86414,1,0,0:0:0:0:
329,192,86414,128,0,86671:0:0:0:0:
256,192,86500,128,0,86585:0:0:0:0:
402,192,86500,128,0,86585:0:0:0:0:
36,192,86585,128,0,86671:0:0:0:0:
182,192,86585,128,0,86671:0:0:0:0:
475,192,86585,1,0,0:0:0:0:
256,192,86671,128,0,86757:0:0:0:0:
402,192,86671,128,0,86757:0:0:0:0:
109,192,86757,128,0,86928:0:0:0:0:
329,192,86757,128,0,86842:0:0:0:0:
475,192,86757,1,0,0:0:0:0:
256,192,86842,128,0,86928:0:0:0:0:
402,192,86842,128,0,86928:0:0:0:0:
182,192,86928,128,0,87014:0:0:0:0:
36,192,86928,128,0,87014:0:0:0:0:
475,192,86928,1,0,0:0:0:0:
329,192,87014,128,0,87100:0:0:0:0:
109,192,87014,128,0,87100:0:0:0:0:
256,192,87100,128,0,87185:0:0:0:0:
182,192,87100,128,0,87185:0:0:0:0:
36,192,87100,128,0,87357:0:0:0:0:
475,192,87100,1,0,0:0:0:0:
402,192,87185,128,0,87271:0:0:0:0:
109,192,87185,128,0,87271:0:0:0:0:
329,192,87185,1,0,0:0:0:0:
256,192,87271,128,0,87357:0:0:0:0:
182,192,87271,128,0,87357:0:0:0:0:
475,192,87271,1,0,0:0:0:0:
402,192,87357,128,0,87442:0:0:0:0:
109,192,87357,128,0,87442:0:0:0:0:
329,192,87357,1,0,0:0:0:0:
256,192,87442,128,0,87528:0:0:0:0:
36,192,87442,128,0,87528:0:0:0:0:
475,192,87442,1,0,0:0:0:0:
402,192,87528,128,0,87614:0:0:0:0:
109,192,87528,128,0,87614:0:0:0:0:
329,192,87528,1,0,0:0:0:0:
256,192,87614,128,0,87700:0:0:0:0:
182,192,87614,128,0,87785:0:0:0:0:
475,192,87614,1,0,0:0:0:0:
402,192,87700,128,0,87785:0:0:0:0:
36,192,87700,128,0,87785:0:0:0:0:
329,192,87700,1,0,0:0:0:0:
475,192,87785,1,0,0:0:0:0:
256,192,87785,1,0,0:0:0:0:
329,192,87957,1,0,0:0:0:0:
256,192,88128,1,0,0:0:0:0:
36,192,88128,1,0,0:0:0:0:
109,192,88300,1,0,0:0:0:0:
109,192,88471,1,0,0:0:0:0:
256,192,88642,1,0,0:0:0:0:
329,192,88642,1,0,0:0:0:0:
475,192,88814,1,0,0:0:0:0:
182,192,88814,1,0,0:0:0:0:
256,192,88985,128,0,89157:0:0:0:0:
36,192,89157,1,0,0:0:0:0:
329,192,89157,1,0,0:0:0:0:
475,192,89157,1,0,0:0:0:0:
182,192,89157,128,0,91214:0:0:0:0:
402,192,89242,1,0,0:0:0:0:
329,192,89328,1,0,0:0:0:0:
109,192,89328,1,0,0:0:0:0:
402,192,89414,1,0,0:0:0:0:
256,192,89500,1,0,0:0:0:0:
36,192,89500,1,0,0:0:0:0:
329,192,89500,1,0,0:0:0:0:
109,192,89585,1,0,0:0:0:0:
402,192,89671,128,0,89842:0:0:0:0:
36,192,89671,1,0,0:0:0:0:
256,192,89671,1,0,0:0:0:0:
109,192,89757,1,0,0:0:0:0:
329,192,89842,128,0,90528:0:0:0:0:
36,192,89842,1,0,0:0:0:0:
475,192,89842,1,0,0:0:0:0:
402,192,89928,1,0,0:0:0:0:
475,192,90014,1,0,0:0:0:0:
256,192,90014,1,0,0:0:0:0:
402,192,90100,1,0,0:0:0:0:
475,192,90185,1,0,0:0:0:0:
109,192,90185,1,0,0:0:0:0:
256,192,90271,1,0,0:0:0:0:
36,192,90357,1,0,0:0:0:0:
402,192,90357,1,0,0:0:0:0:
256,192,90442,1,0,0:0:0:0:
36,192,90528,128,0,92585:0:0:0:0:
475,192,90528,1,0,0:0:0:0:
402,192,90528,1,0,0:0:0:0:
329,192,90614,1,0,0:0:0:0:
256,192,90700,1,0,0:0:0:0:
402,192,90700,1,0,0:0:0:0:
109,192,90785,1,0,0:0:0:0:
329,192,90871,1,0,0:0:0:0:
475,192,90871,1,0,0:0:0:0:
256,192,90957,1,0,0:0:0:0:
475,192,91042,1,0,0:0:0:0:
109,192,91042,1,0,0:0:0:0:
256,192,91128,1,0,0:0:0:0:
475,192,91214,128,0,91900:0:0:0:0:
329,192,91214,1,0,0:0:0:0:
402,192,91214,1,0,0:0:0:0:
256,192,91300,1,0,0:0:0:0:
182,192,91385,1,0,0:0:0:0:
402,192,91385,1,0,0:0:0:0:
329,192,91471,1,0,0:0:0:0:
109,192,91557,1,0,0:0:0:0:
256,192,91557,1,0,0:0:0:0:
402,192,91557,1,0,0:0:0:0:
182,192,91642,1,0,0:0:0:0:
256,192,91728,1,0,0:0:0:0:
402,192,91728,1,0,0:0:0:0:
329,192,91814,1,0,0:0:0:0:
256,192,91900,128,0,92585:0:0:0:0:
109,192,91900,1,0,0:0:0:0:
402,192,91900,1,0,0:0:0:0:
329,192,91985,1,0,0:0:0:0:
182,192,92071,1,0,0:0:0:0:
475,192,92071,1,0,0:0:0:0:
329,192,92157,1,0,0:0:0:0:
402,192,92242,1,0,0:0:0:0:
109,192,92242,1,0,0:0:0:0:
182,192,92328,1,0,0:0:0:0:
109,192,92414,1,0,0:0:0:0:
329,192,92414,1,0,0:0:0:0:
402,192,92500,1,0,0:0:0:0:
182,192,92585,1,0,0:0:0:0:
329,192,92585,1,0,0:0:0:0:
475,192,92585,1,0,0:0:0:0:
109,192,92585,128,0,92928:0:0:0:0:
402,192,92757,128,0,93100:0:0:0:0:
329,192,92757,1,0,0:0:0:0:
256,192,92928,128,0,93271:0:0:0:0:
36,192,92928,1,0,0:0:0:0:
182,192,92928,1,0,0:0:0:0:
329,192,92928,1,0,0:0:0:0:
475,192,92928,1,0,0:0:0:0:
36,192,93100,128,0,93442:0:0:0:0:
109,192,93100,1,0,0:0:0:0:
475,192,93271,128,0,93614:0:0:0:0:
109,192,93271,1,0,0:0:0:0:
182,192,93271,1,0,0:0:0:0:
402,192,93271,1,0,0:0:0:0:
329,192,93271,1,0,0:0:0:0:
182,192,93442,128,0,93785:0:0:0:0:
256,192,93442,1,0,0:0:0:0:
329,192,93614,128,0,93957:0:0:0:0:
36,192,93614,1,0,0:0:0:0:
402,192,93614,1,0,0:0:0:0:
256,192,93785,1,0,0:0:0:0:
109,192,93957,128,0,94300:0:0:0:0:
36,192,93957,1,0,0:0:0:0:
182,192,93957,1,0,0:0:0:0:
256,192,93957,1,0,0:0:0:0:
475,192,93957,1,0,0:0:0:0:
402,192,93957,1,0,0:0:0:0:
402,192,94128,128,0,94471:0:0:0:0:
182,192,94128,1,0,0:0:0:0:
256,192,94300,128,0,94642:0:0:0:0:
36,192,94300,1,0,0:0:0:0:
182,192,94300,1,0,0:0:0:0:
329,192,94300,1,0,0:0:0:0:
475,192,94300,1,0,0:0:0:0:
36,192,94471,1,0,0:0:0:0:
182,192,94471,1,0,0:0:0:0:
329,192,94471,1,0,0:0:0:0:
475,192,94471,1,0,0:0:0:0:
36,192,94642,1,0,0:0:0:0:
109,192,94642,1,0,0:0:0:0:
402,192,94642,1,0,0:0:0:0:
475,192,94642,128,0,94728:0:0:0:0:
182,192,94728,1,0,0:0:0:0:
329,192,94728,128,0,94814:0:0:0:0:
475,192,94814,128,0,94900:0:0:0:0:
109,192,94814,1,0,0:0:0:0:
36,192,94900,128,0,94985:0:0:0:0:
256,192,94900,1,0,0:0:0:0:
182,192,94985,128,0,95071:0:0:0:0:
329,192,94985,1,0,0:0:0:0:
475,192,94985,1,0,0:0:0:0:
36,192,95071,128,0,95157:0:0:0:0:
402,192,95071,1,0,0:0:0:0:
475,192,95157,128,0,95242:0:0:0:0:
256,192,95157,1,0,0:0:0:0:
329,192,95242,128,0,95328:0:0:0:0:
109,192,95242,1,0,0:0:0:0:
475,192,95328,128,0,95414:0:0:0:0:
182,192,95328,1,0,0:0:0:0:
402,192,95328,1,0,0:0:0:0:
36,192,95414,128,0,95500:0:0:0:0:
256,192,95414,1,0,0:0:0:0:
182,192,95500,128,0,95585:0:0:0:0:
402,192,95500,1,0,0:0:0:0:
36,192,95585,128,0,95671:0:0:0:0:
329,192,95585,1,0,0:0:0:0:
475,192,95671,128,0,95757:0:0:0:0:
256,192,95671,1,0,0:0:0:0:
182,192,95671,1,0,0:0:0:0:
329,192,95757,128,0,95842:0:0:0:0:
109,192,95757,1,0,0:0:0:0:
475,192,95842,128,0,95928:0:0:0:0:
182,192,95842,1,0,0:0:0:0:
36,192,95928,128,0,96014:0:0:0:0:
256,192,95928,1,0,0:0:0:0:
109,192,96014,128,0,96100:0:0:0:0:
329,192,96014,128,0,96100:0:0:0:0:
475,192,96014,128,0,96100:0:0:0:0:
36,192,96100,128,0,96185:0:0:0:0:
402,192,96100,128,0,96185:0:0:0:0:
475,192,96185,128,0,96271:0:0:0:0:
182,192,96185,128,0,96271:0:0:0:0:
402,192,96271,128,0,96357:0:0:0:0:
256,192,96271,128,0,96357:0:0:0:0:
475,192,96357,128,0,96442:0:0:0:0:
109,192,96357,128,0,96442:0:0:0:0:
329,192,96357,128,0,96442:0:0:0:0:
36,192,96442,128,0,96528:0:0:0:0:
256,192,96442,128,0,96528:0:0:0:0:
109,192,96528,128,0,96614:0:0:0:0:
329,192,96528,128,0,96614:0:0:0:0:
36,192,96614,128,0,96700:0:0:0:0:
402,192,96614,128,0,96700:0:0:0:0:
475,192,96700,128,0,96785:0:0:0:0:
329,192,96700,128,0,96785:0:0:0:0:
182,192,96700,128,0,96785:0:0:0:0:
402,192,96785,128,0,96871:0:0:0:0:
109,192,96785,128,0,96871:0:0:0:0:
475,192,96871,128,0,96957:0:0:0:0:
182,192,96871,128,0,96957:0:0:0:0:
36,192,96957,128,0,97042:0:0:0:0:
256,192,96957,128,0,97042:0:0:0:0:
109,192,97042,128,0,97128:0:0:0:0:
329,192,97042,128,0,97128:0:0:0:0:
475,192,97042,128,0,97128:0:0:0:0:
36,192,97128,128,0,97214:0:0:0:0:
402,192,97128,128,0,97214:0:0:0:0:
475,192,97214,128,0,97300:0:0:0:0:
182,192,97214,128,0,97300:0:0:0:0:
402,192,97300,128,0,97385:0:0:0:0:
256,192,97300,128,0,97385:0:0:0:0:
109,192,97385,1,0,0:0:0:0:
475,192,97385,128,0,97471:0:0:0:0:
182,192,97385,1,0,0:0:0:0:
256,192,97471,128,0,97557:0:0:0:0:
36,192,97471,1,0,0:0:0:0:
475,192,97557,128,0,97642:0:0:0:0:
109,192,97557,1,0,0:0:0:0:
36,192,97642,128,0,97728:0:0:0:0:
182,192,97642,1,0,0:0:0:0:
256,192,97728,128,0,97814:0:0:0:0:
402,192,97728,1,0,0:0:0:0:
475,192,97728,1,0,0:0:0:0:
36,192,97814,128,0,97900:0:0:0:0:
329,192,97814,1,0,0:0:0:0:
475,192,97900,128,0,97985:0:0:0:0:
182,192,97900,1,0,0:0:0:0:
256,192,97985,128,0,98071:0:0:0:0:
109,192,97985,1,0,0:0:0:0:
475,192,98071,128,0,98157:0:0:0:0:
329,192,98071,1,0,0:0:0:0:
402,192,98071,1,0,0:0:0:0:
36,192,98157,128,0,98242:0:0:0:0:
182,192,98157,1,0,0:0:0:0:
256,192,98242,128,0,98328:0:0:0:0:
402,192,98242,1,0,0:0:0:0:
36,192,98328,128,0,98414:0:0:0:0:
182,192,98328,1,0,0:0:0:0:
475,192,98414,128,0,98500:0:0:0:0:
329,192,98414,1,0,0:0:0:0:
402,192,98414,1,0,0:0:0:0:
256,192,98500,128,0,98585:0:0:0:0:
109,192,98500,1,0,0:0:0:0:
475,192,98585,128,0,98671:0:0:0:0:
329,192,98585,1,0,0:0:0:0:
36,192,98671,128,0,98757:0:0:0:0:
182,192,98671,1,0,0:0:0:0:
329,192,98757,128,0,98842:0:0:0:0:
109,192,98757,128,0,98842:0:0:0:0:
475,192,98757,128,0,98842:0:0:0:0:
36,192,98842,128,0,98928:0:0:0:0:
256,192,98842,128,0,98928:0:0:0:0:
475,192,98928,128,0,99014:0:0:0:0:
109,192,98928,128,0,99014:0:0:0:0:
182,192,99014,128,0,99100:0:0:0:0:
329,192,99014,128,0,99100:0:0:0:0:
475,192,99100,128,0,99185:0:0:0:0:
109,192,99100,128,0,99185:0:0:0:0:
402,192,99100,128,0,99185:0:0:0:0:
36,192,99185,128,0,99271:0:0:0:0:
256,192,99185,128,0,99271:0:0:0:0:
329,192,99271,128,0,99357:0:0:0:0:
475,192,99271,128,0,99357:0:0:0:0:
36,192,99357,128,0,99442:0:0:0:0:
182,192,99357,128,0,99442:0:0:0:0:
402,192,99442,128,0,99528:0:0:0:0:
256,192,99442,128,0,99528:0:0:0:0:
475,192,99442,128,0,99528:0:0:0:0:
109,192,99528,128,0,99614:0:0:0:0:
182,192,99528,128,0,99614:0:0:0:0:
475,192,99614,128,0,99700:0:0:0:0:
256,192,99614,128,0,99700:0:0:0:0:
182,192,99700,128,0,99785:0:0:0:0:
329,192,99700,128,0,99785:0:0:0:0:
402,192,99785,128,0,99871:0:0:0:0:
475,192,99785,128,0,99871:0:0:0:0:
109,192,99785,128,0,99871:0:0:0:0:
256,192,99871,128,0,99957:0:0:0:0:
36,192,99871,128,0,99957:0:0:0:0:
475,192,99957,128,0,100042:0:0:0:0:
109,192,99957,128,0,100042:0:0:0:0:
329,192,100042,128,0,100128:0:0:0:0:
182,192,100042,128,0,100128:0:0:0:0:
36,192,100128,128,0,100171:0:0:0:0:
256,192,100128,128,0,100171:0:0:0:0:
475,192,100128,128,0,100171:0:0:0:0:
182,192,100214,128,0,100257:0:0:0:0:
329,192,100214,128,0,100257:0:0:0:0:
36,192,100300,128,0,100342:0:0:0:0:
402,192,100300,128,0,100342:0:0:0:0:
256,192,100385,128,0,100428:0:0:0:0:
475,192,100385,128,0,100428:0:0:0:0:
329,192,100471,128,0,100514:0:0:0:0:
36,192,100471,128,0,100514:0:0:0:0:
182,192,100471,128,0,100514:0:0:0:0:
109,192,100557,128,0,100600:0:0:0:0:
475,192,100557,128,0,100600:0:0:0:0:
256,192,100642,128,0,100685:0:0:0:0:
36,192,100685,128,0,100728:0:0:0:0:
182,192,100728,128,0,100771:0:0:0:0:
402,192,100728,128,0,100771:0:0:0:0:
109,192,100814,128,0,100857:0:0:0:0:
36,192,100814,128,0,100857:0:0:0:0:
329,192,100814,128,0,100857:0:0:0:0:
256,192,100900,128,0,100942:0:0:0:0:
475,192,100900,128,0,100942:0:0:0:0:
329,192,100985,128,0,101028:0:0:0:0:
109,192,100985,128,0,101028:0:0:0:0:
182,192,101071,128,0,101114:0:0:0:0:
475,192,101071,128,0,101114:0:0:0:0:
329,192,101157,128,0,101200:0:0:0:0:
256,192,101157,128,0,101200:0:0:0:0:
36,192,101157,128,0,101200:0:0:0:0:
182,192,101242,128,0,101285:0:0:0:0:
402,192,101242,128,0,101285:0:0:0:0:
329,192,101328,128,0,101371:0:0:0:0:
36,192,101328,128,0,101371:0:0:0:0:
256,192,101414,128,0,101457:0:0:0:0:
475,192,101414,128,0,101457:0:0:0:0:
402,192,101500,128,0,101585:0:0:0:0:
182,192,101500,128,0,101671:0:0:0:0:
36,192,101500,128,0,101585:0:0:0:0:
475,192,101585,128,0,101757:0:0:0:0:
109,192,101585,128,0,101671:0:0:0:0:
36,192,101671,128,0,101757:0:0:0:0:
329,192,101671,128,0,101842:0:0:0:0:
109,192,101757,128,0,101928:0:0:0:0:
256,192,101757,128,0,101842:0:0:0:0:
36,192,101842,128,0,102014:0:0:0:0:
402,192,101842,128,0,101928:0:0:0:0:
182,192,101842,128,0,101928:0:0:0:0:
475,192,101928,128,0,102014:0:0:0:0:
256,192,101928,128,0,102100:0:0:0:0:
402,192,102014,128,0,102185:0:0:0:0:
182,192,102014,128,0,102100:0:0:0:0:
475,192,102100,128,0,102271:0:0:0:0:
109,192,102100,128,0,102185:0:0:0:0:
36,192,102185,128,0,102271:0:0:0:0:
182,192,102185,128,0,102357:0:0:0:0:
329,192,102185,128,0,102271:0:0:0:0:
109,192,102271,128,0,102442:0:0:0:0:
402,192,102271,128,0,102357:0:0:0:0:
36,192,102357,128,0,102442:0:0:0:0:
329,192,102357,128,0,102528:0:0:0:0:
475,192,102442,128,0,102528:0:0:0:0:
256,192,102442,128,0,102614:0:0:0:0:
402,192,102528,128,0,102614:0:0:0:0:
182,192,102528,128,0,102700:0:0:0:0:
36,192,102528,128,0,102614:0:0:0:0:
475,192,102614,128,0,102785:0:0:0:0:
109,192,102614,128,0,102700:0:0:0:0:
36,192,102700,128,0,102871:0:0:0:0:
329,192,102700,128,0,102785:0:0:0:0:
109,192,102785,128,0,102871:0:0:0:0:
256,192,102785,128,0,102871:0:0:0:0:
182,192,102871,128,0,103042:0:0:0:0:
329,192,102871,128,0,102914:0:0:0:0:
402,192,102871,128,0,102914:0:0:0:0:
256,192,102957,128,0,103128:0:0:0:0:
475,192,102957,128,0,103000:0:0:0:0:
402,192,103042,128,0,103214:0:0:0:0:
36,192,103042,128,0,103085:0:0:0:0:
329,192,103128,128,0,103300:0:0:0:0:
475,192,103128,128,0,103171:0:0:0:0:
256,192,103214,128,0,103385:0:0:0:0:
36,192,103214,128,0,103257:0:0:0:0:
109,192,103214,128,0,103257:0:0:0:0:
182,192,103300,128,0,103471:0:0:0:0:
475,192,103300,128,0,103342:0:0:0:0:
329,192,103385,128,0,103557:0:0:0:0:
36,192,103385,128,0,103428:0:0:0:0:
402,192,103471,128,0,103514:0:0:0:0:
256,192,103471,128,0,103514:0:0:0:0:
36,192,103557,128,0,103600:0:0:0:0:
109,192,103557,128,0,103600:0:0:0:0:
182,192,103557,128,0,103728:0:0:0:0:
329,192,103642,128,0,103814:0:0:0:0:
475,192,103642,128,0,103685:0:0:0:0:
256,192,103728,128,0,103771:0:0:0:0:
109,192,103728,128,0,103771:0:0:0:0:
475,192,103814,128,0,103985:0:0:0:0:
402,192,103814,128,0,103857:0:0:0:0:
109,192,103900,128,0,104071:0:0:0:0:
329,192,103900,128,0,103942:0:0:0:0:
182,192,103900,128,0,103942:0:0:0:0:
256,192,103985,128,0,104157:0:0:0:0:
402,192,103985,128,0,104028:0:0:0:0:
182,192,104071,128,0,104114:0:0:0:0:
36,192,104071,128,0,104114:0:0:0:0:
329,192,104157,128,0,104200:0:0:0:0:
475,192,104157,128,0,104200:0:0:0:0:
182,192,104242,128,0,104414:0:0:0:0:
402,192,104242,128,0,104328:0:0:0:0:
109,192,104242,128,0,104328:0:0:0:0:
475,192,104328,128,0,104414:0:0:0:0:
256,192,104328,128,0,104500:0:0:0:0:
36,192,104414,128,0,104500:0:0:0:0:
402,192,104414,128,0,104585:0:0:0:0:
329,192,104500,128,0,104671:0:0:0:0:
182,192,104500,128,0,104585:0:0:0:0:
36,192,104585,128,0,104671:0:0:0:0:
475,192,104585,128,0,104671:0:0:0:0:
109,192,104585,128,0,104757:0:0:0:0:
402,192,104671,128,0,104757:0:0:0:0:
256,192,104671,128,0,104842:0:0:0:0:
182,192,104757,128,0,104928:0:0:0:0:
36,192,104757,128,0,104842:0:0:0:0:
329,192,104842,128,0,105100:0:0:0:0:
402,192,104842,128,0,104928:0:0:0:0:
109,192,104928,128,0,105185:0:0:0:0:
256,192,104928,128,0,105014:0:0:0:0:
36,192,104928,1,0,0:0:0:0:
475,192,104928,128,0,105014:0:0:0:0:
402,192,105014,128,0,105185:0:0:0:0:
182,192,105014,128,0,105100:0:0:0:0:
256,192,105100,128,0,105271:0:0:0:0:
36,192,105100,1,0,0:0:0:0:
475,192,105100,128,0,105185:0:0:0:0:
329,192,105185,128,0,105442:0:0:0:0:
182,192,105185,128,0,105271:0:0:0:0:
109,192,105271,128,0,105357:0:0:0:0:
402,192,105271,128,0,105357:0:0:0:0:
36,192,105271,1,0,0:0:0:0:
475,192,105271,128,0,105528:0:0:0:0:
256,192,105357,128,0,105528:0:0:0:0:
182,192,105357,128,0,105442:0:0:0:0:
402,192,105442,128,0,105614:0:0:0:0:
36,192,105442,1,0,0:0:0:0:
109,192,105442,128,0,105614:0:0:0:0:
182,192,105528,128,0,105614:0:0:0:0:
329,192,105528,128,0,105614:0:0:0:0:
475,192,105614,1,0,0:0:0:0:
256,192,105614,1,0,0:0:0:0:
36,192,105614,128,0,105871:0:0:0:0:
329,192,105700,1,0,0:0:0:0:
182,192,105785,128,0,105957:0:0:0:0:
402,192,105785,1,0,0:0:0:0:
475,192,105871,1,0,0:0:0:0:
36,192,105957,128,0,106300:0:0:0:0:
256,192,105957,128,0,106300:0:0:0:0:
329,192,105957,1,0,0:0:0:0:
402,192,105957,1,0,0:0:0:0:
182,192,106042,1,0,0:0:0:0:
109,192,106128,1,0,0:0:0:0:
475,192,106128,1,0,0:0:0:0:
182,192,106214,1,0,0:0:0:0:
402,192,106300,128,0,106557:0:0:0:0:
329,192,106300,1,0,0:0:0:0:
256,192,106385,1,0,0:0:0:0:
182,192,106471,128,0,106642:0:0:0:0:
36,192,106471,1,0,0:0:0:0:
256,192,106557,1,0,0:0:0:0:
109,192,106642,128,0,106985:0:0:0:0:
402,192,106642,128,0,106985:0:0:0:0:
329,192,106642,1,0,0:0:0:0:
475,192,106642,1,0,0:0:0:0:
256,192,106728,1,0,0:0:0:0:
182,192,106814,1,0,0:0:0:0:
36,192,106814,1,0,0:0:0:0:
256,192,106900,1,0,0:0:0:0:
329,192,106985,128,0,107157:0:0:0:0:
182,192,106985,128,0,107157:0:0:0:0:
475,192,106985,1,0,0:0:0:0:
402,192,107071,1,0,0:0:0:0:
256,192,107157,1,0,0:0:0:0:
36,192,107157,1,0,0:0:0:0:
109,192,107242,1,0,0:0:0:0:
36,192,107328,128,0,107671:0:0:0:0:
475,192,107328,128,0,107414:0:0:0:0:
182,192,107328,1,0,0:0:0:0:
402,192,107328,1,0,0:0:0:0:
256,192,107328,128,0,107500:0:0:0:0:
329,192,107414,1,0,0:0:0:0:
109,192,107500,1,0,0:0:0:0:
475,192,107500,128,0,107585:0:0:0:0:
182,192,107585,1,0,0:0:0:0:
402,192,107585,128,0,107671:0:0:0:0:
109,192,107671,1,0,0:0:0:0:
329,192,107671,128,0,107757:0:0:0:0:
475,192,107671,128,0,107842:0:0:0:0:
256,192,107757,128,0,107842:0:0:0:0:
402,192,107757,128,0,107928:0:0:0:0:
182,192,107842,128,0,107928:0:0:0:0:
329,192,107842,128,0,108014:0:0:0:0:
109,192,107928,128,0,108014:0:0:0:0:
256,192,107928,128,0,108100:0:0:0:0:
475,192,107928,1,0,0:0:0:0:
182,192,108014,128,0,108185:0:0:0:0:
36,192,108014,128,0,108357:0:0:0:0:
402,192,108014,1,0,0:0:0:0:
109,192,108100,128,0,108271:0:0:0:0:
329,192,108100,1,0,0:0:0:0:
256,192,108185,1,0,0:0:0:0:
329,192,108271,1,0,0:0:0:0:
182,192,108271,1,0,0:0:0:0:
402,192,108271,128,0,108357:0:0:0:0:
109,192,108357,1,0,0:0:0:0:
256,192,108357,128,0,108528:0:0:0:0:
475,192,108357,128,0,108528:0:0:0:0:
36,192,108442,1,0,0:0:0:0:
109,192,108528,1,0,0:0:0:0:
329,192,108528,1,0,0:0:0:0:
182,192,108614,1,0,0:0:0:0:
256,192,108700,128,0,108871:0:0:0:0:
402,192,108700,128,0,108871:0:0:0:0:
109,192,108700,128,0,108871:0:0:0:0:
329,192,108700,1,0,0:0:0:0:
182,192,108785,1,0,0:0:0:0:
475,192,108871,1,0,0:0:0:0:
36,192,108871,1,0,0:0:0:0:
329,192,108957,1,0,0:0:0:0:
256,192,109042,1,0,0:0:0:0:
109,192,109042,128,0,109128:0:0:0:0:
402,192,109042,1,0,0:0:0:0:
182,192,109128,1,0,0:0:0:0:
256,192,109214,128,0,109300:0:0:0:0:
329,192,109214,1,0,0:0:0:0:
402,192,109300,1,0,0:0:0:0:
36,192,109385,128,0,109557:0:0:0:0:
182,192,109385,128,0,109557:0:0:0:0:
329,192,109385,128,0,109557:0:0:0:0:
475,192,109385,1,0,0:0:0:0:
402,192,109471,1,0,0:0:0:0:
256,192,109557,1,0,0:0:0:0:
475,192,109557,1,0,0:0:0:0:
182,192,109642,1,0,0:0:0:0:
109,192,109728,128,0,109900:0:0:0:0:
256,192,109728,128,0,109900:0:0:0:0:
402,192,109728,128,0,109900:0:0:0:0:
36,192,109728,1,0,0:0:0:0:
182,192,109814,1,0,0:0:0:0:
329,192,109900,1,0,0:0:0:0:
36,192,109900,1,0,0:0:0:0:
256,192,109985,1,0,0:0:0:0:
182,192,110071,128,0,110242:0:0:0:0:
329,192,110071,128,0,110242:0:0:0:0:
475,192,110071,128,0,110242:0:0:0:0:
109,192,110071,1,0,0:0:0:0:
256,192,110157,1,0,0:0:0:0:
402,192,110242,1,0,0:0:0:0:
36,192,110242,1,0,0:0:0:0:
329,192,110328,1,0,0:0:0:0:
109,192,110328,1,0,0:0:0:0:
256,192,110414,1,0,0:0:0:0:
475,192,110414,128,0,110842:0:0:0:0:
36,192,110414,128,0,110842:0:0:0:0:
402,192,110500,128,0,110757:0:0:0:0:
109,192,110500,128,0,110757:0:0:0:0:
329,192,110585,128,0,110671:0:0:0:0:
182,192,110585,128,0,110671:0:0:0:0:
256,192,110671,128,0,111014:0:0:0:0:
182,192,110757,128,0,110928:0:0:0:0:
329,192,110757,128,0,110928:0:0:0:0:
109,192,110842,128,0,111014:0:0:0:0:
402,192,110842,128,0,111014:0:0:0:0:
36,192,110928,128,0,111100:0:0:0:0:
475,192,110928,128,0,111100:0:0:0:0:
329,192,111014,1,0,0:0:0:0:
182,192,111014,1,0,0:0:0:0:
109,192,111100,128,0,111271:0:0:0:0:
256,192,111100,128,0,111271:0:0:0:0:
402,192,111100,128,0,111271:0:0:0:0:
182,192,111185,1,0,0:0:0:0:
329,192,111271,1,0,0:0:0:0:
182,192,111357,1,0,0:0:0:0:
36,192,111442,128,0,111614:0:0:0:0:
256,192,111442,128,0,111614:0:0:0:0:
475,192,111442,128,0,111614:0:0:0:0:
329,192,111442,1,0,0:0:0:0:
182,192,111528,1,0,0:0:0:0:
329,192,111614,1,0,0:0:0:0:
182,192,111700,1,0,0:0:0:0:
402,192,111785,1,0,0:0:0:0:
256,192,111785,1,0,0:0:0:0:
36,192,111785,1,0,0:0:0:0:
109,192,111871,1,0,0:0:0:0:
329,192,111957,1,0,0:0:0:0:
475,192,111957,1,0,0:0:0:0:
182,192,112042,1,0,0:0:0:0:
402,192,112128,1,0,0:0:0:0:
256,192,112128,128,0,112300:0:0:0:0:
36,192,112128,128,0,112300:0:0:0:0:
475,192,112128,128,0,112300:0:0:0:0:
109,192,112214,1,0,0:0:0:0:
329,192,112300,1,0,0:0:0:0:
402,192,112300,1,0,0:0:0:0:
182,192,112385,1,0,0:0:0:0:
402,192,112471,1,0,0:0:0:0:
329,192,112471,128,0,112642:0:0:0:0:
109,192,112471,128,0,112642:0:0:0:0:
256,192,112471,128,0,112642:0:0:0:0:
36,192,112557,1,0,0:0:0:0:
402,192,112642,1,0,0:0:0:0:
182,192,112642,1,0,0:0:0:0:
109,192,112728,1,0,0:0:0:0:
475,192,112814,1,0,0:0:0:0:
402,192,112814,128,0,112985:0:0:0:0:
256,192,112814,128,0,112985:0:0:0:0:
36,192,112814,128,0,112985:0:0:0:0:
182,192,112900,1,0,0:0:0:0:
475,192,112985,1,0,0:0:0:0:
109,192,112985,1,0,0:0:0:0:
256,192,113071,1,0,0:0:0:0:
475,192,113157,1,0,0:0:0:0:
109,192,113157,1,0,0:0:0:0:
182,192,113157,1,0,0:0:0:0:
256,192,113242,1,0,0:0:0:0:
36,192,113242,1,0,0:0:0:0:
475,192,113328,1,0,0:0:0:0:
329,192,113328,1,0,0:0:0:0:
109,192,113328,1,0,0:0:0:0:
256,192,113414,1,0,0:0:0:0:
182,192,113414,1,0,0:0:0:0:
36,192,113500,1,0,0:0:0:0:
402,192,113500,128,0,113842:0:0:0:0:
109,192,113500,128,0,113842:0:0:0:0:
475,192,113500,1,0,0:0:0:0:
182,192,113585,1,0,0:0:0:0:
36,192,113671,1,0,0:0:0:0:
329,192,113671,1,0,0:0:0:0:
256,192,113757,1,0,0:0:0:0:
36,192,113842,1,0,0:0:0:0:
182,192,113842,128,0,114185:0:0:0:0:
475,192,113842,128,0,114185:0:0:0:0:
329,192,113842,1,0,0:0:0:0:
256,192,113928,1,0,0:0:0:0:
36,192,114014,1,0,0:0:0:0:
329,192,114014,1,0,0:0:0:0:
109,192,114014,1,0,0:0:0:0:
402,192,114100,1,0,0:0:0:0:
36,192,114185,128,0,114442:0:0:0:0:
109,192,114185,128,0,114442:0:0:0:0:
329,192,114185,1,0,0:0:0:0:
256,192,114271,1,0,0:0:0:0:
329,192,114357,1,0,0:0:0:0:
402,192,114442,1,0,0:0:0:0:
109,192,114528,128,0,114785:0:0:0:0:
36,192,114528,128,0,114785:0:0:0:0:
329,192,114528,1,0,0:0:0:0:
182,192,114528,1,0,0:0:0:0:
256,192,114614,1,0,0:0:0:0:
329,192,114700,1,0,0:0:0:0:
402,192,114785,1,0,0:0:0:0:
109,192,114871,128,0,115128:0:0:0:0:
36,192,114871,128,0,115128:0:0:0:0:
329,192,114871,1,0,0:0:0:0:
475,192,114871,1,0,0:0:0:0:
256,192,114957,1,0,0:0:0:0:
329,192,115042,1,0,0:0:0:0:
402,192,115128,1,0,0:0:0:0:
109,192,115214,128,0,115557:0:0:0:0:
36,192,115214,128,0,115557:0:0:0:0:
329,192,115214,1,0,0:0:0:0:
475,192,115214,1,0,0:0:0:0:
256,192,115300,1,0,0:0:0:0:
329,192,115385,1,0,0:0:0:0:
402,192,115471,1,0,0:0:0:0:
182,192,115557,128,0,115642:0:0:0:0:
475,192,115557,128,0,115642:0:0:0:0:
256,192,115642,128,0,115728:0:0:0:0:
402,192,115642,128,0,115728:0:0:0:0:
329,192,115728,128,0,115814:0:0:0:0:
475,192,115728,128,0,115814:0:0:0:0:
256,192,115814,128,0,115900:0:0:0:0:
402,192,115814,128,0,115900:0:0:0:0:
182,192,115900,128,0,116242:0:0:0:0:
109,192,115900,128,0,116242:0:0:0:0:
329,192,115900,128,0,116242:0:0:0:0:
36,192,115900,1,0,0:0:0:0:
256,192,115985,1,0,0:0:0:0:
402,192,116071,1,0,0:0:0:0:
475,192,116157,1,0,0:0:0:0:
256,192,116242,128,0,116328:0:0:0:0:
402,192,116242,128,0,116328:0:0:0:0:
329,192,116328,128,0,116414:0:0:0:0:
475,192,116328,128,0,116414:0:0:0:0:
256,192,116414,128,0,116500:0:0:0:0:
402,192,116414,128,0,116500:0:0:0:0:
182,192,116500,128,0,116585:0:0:0:0:
329,192,116500,128,0,116585:0:0:0:0:
36,192,116585,128,0,116842:0:0:0:0:
109,192,116585,128,0,116842:0:0:0:0:
256,192,116585,128,0,116928:0:0:0:0:
475,192,116585,1,0,0:0:0:0:
402,192,116671,1,0,0:0:0:0:
329,192,116757,1,0,0:0:0:0:
182,192,116842,1,0,0:0:0:0:
475,192,116928,128,0,117185:0:0:0:0:
402,192,116928,128,0,117185:0:0:0:0:
329,192,116928,1,0,0:0:0:0:
36,192,116928,1,0,0:0:0:0:
109,192,116928,1,0,0:0:0:0:
256,192,117014,1,0,0:0:0:0:
182,192,117100,1,0,0:0:0:0:
256,192,117185,1,0,0:0:0:0:
402,192,117271,128,0,117528:0:0:0:0:
475,192,117271,128,0,117528:0:0:0:0:
329,192,117271,1,0,0:0:0:0:
36,192,117271,1,0,0:0:0:0:
109,192,117271,1,0,0:0:0:0:
256,192,117357,1,0,0:0:0:0:
182,192,117442,1,0,0:0:0:0:
256,192,117528,1,0,0:0:0:0:
475,192,117614,128,0,117871:0:0:0:0:
402,192,117614,128,0,117871:0:0:0:0:
329,192,117614,1,0,0:0:0:0:
109,192,117614,1,0,0:0:0:0:
36,192,117614,1,0,0:0:0:0:
256,192,117700,1,0,0:0:0:0:
182,192,117785,1,0,0:0:0:0:
256,192,117871,1,0,0:0:0:0:
475,192,117957,128,0,118300:0:0:0:0:
402,192,117957,128,0,118300:0:0:0:0:
329,192,117957,1,0,0:0:0:0:
109,192,117957,1,0,0:0:0:0:
36,192,117957,1,0,0:0:0:0:
256,192,118042,1,0,0:0:0:0:
182,192,118128,1,0,0:0:0:0:
256,192,118214,1,0,0:0:0:0:
329,192,118300,128,0,118385:0:0:0:0:
182,192,118300,128,0,118385:0:0:0:0:
256,192,118385,128,0,118471:0:0:0:0:
109,192,118385,128,0,118471:0:0:0:0:
182,192,118471,128,0,118557:0:0:0:0:
36,192,118471,128,0,118557:0:0:0:0:
256,192,118557,128,0,118642:0:0:0:0:
109,192,118557,128,0,118642:0:0:0:0:
329,192,118642,128,0,118985:0:0:0:0:
402,192,118642,128,0,118985:0:0:0:0:
475,192,118642,1,0,0:0:0:0:
182,192,118728,1,0,0:0:0:0:
109,192,118814,1,0,0:0:0:0:
182,192,118900,1,0,0:0:0:0:
256,192,118985,128,0,119071:0:0:0:0:
109,192,118985,128,0,119071:0:0:0:0:
182,192,119071,128,0,119157:0:0:0:0:
36,192,119071,128,0,119157:0:0:0:0:
256,192,119157,128,0,119242:0:0:0:0:
109,192,119157,128,0,119242:0:0:0:0:
329,192,119242,128,0,119328:0:0:0:0:
182,192,119242,128,0,119328:0:0:0:0:
475,192,119328,128,0,119671:0:0:0:0:
109,192,119328,128,0,119414:0:0:0:0:
402,192,119328,128,0,119414:0:0:0:0:
36,192,119414,128,0,119500:0:0:0:0:
329,192,119414,1,0,0:0:0:0:
109,192,119500,128,0,119585:0:0:0:0:
256,192,119500,1,0,0:0:0:0:
182,192,119585,128,0,119671:0:0:0:0:
329,192,119585,1,0,0:0:0:0:
36,192,119671,128,0,120014:0:0:0:0:
256,192,119671,128,0,119757:0:0:0:0:
402,192,119671,128,0,119757:0:0:0:0:
475,192,119757,128,0,119842:0:0:0:0:
182,192,119757,1,0,0:0:0:0:
402,192,119842,128,0,119928:0:0:0:0:
109,192,119842,1,0,0:0:0:0:
329,192,119928,128,0,120014:0:0:0:0:
256,192,119928,1,0,0:0:0:0:
182,192,120014,128,0,120357:0:0:0:0:
109,192,120014,128,0,120100:0:0:0:0:
475,192,120014,128,0,120100:0:0:0:0:
402,192,120100,128,0,120185:0:0:0:0:
256,192,120100,1,0,0:0:0:0:
329,192,120185,128,0,120271:0:0:0:0:
109,192,120185,1,0,0:0:0:0:
256,192,120271,128,0,120357:0:0:0:0:
402,192,120271,1,0,0:0:0:0:
329,192,120357,128,0,120700:0:0:0:0:
475,192,120357,128,0,120442:0:0:0:0:
36,192,120357,128,0,120442:0:0:0:0:
109,192,120442,128,0,120528:0:0:0:0:
256,192,120442,1,0,0:0:0:0:
182,192,120528,128,0,120614:0:0:0:0:
402,192,120528,1,0,0:0:0:0:
256,192,120614,128,0,120700:0:0:0:0:
475,192,120614,1,0,0:0:0:0:
109,192,120700,128,0,121042:0:0:0:0:
402,192,120700,128,0,120785:0:0:0:0:
36,192,120700,128,0,120785:0:0:0:0:
329,192,120785,128,0,120871:0:0:0:0:
475,192,120785,128,0,120871:0:0:0:0:
256,192,120871,128,0,120957:0:0:0:0:
402,192,120871,128,0,120957:0:0:0:0:
182,192,120957,128,0,121042:0:0:0:0:
329,192,120957,128,0,121042:0:0:0:0:
402,192,121042,128,0,121385:0:0:0:0:
256,192,121042,128,0,121128:0:0:0:0:
475,192,121042,128,0,121128:0:0:0:0:
36,192,121128,128,0,121214:0:0:0:0:
182,192,121128,128,0,121214:0:0:0:0:
109,192,121214,128,0,121300:0:0:0:0:
256,192,121214,128,0,121300:0:0:0:0:
182,192,121300,128,0,121385:0:0:0:0:
329,192,121300,128,0,121385:0:0:0:0:
256,192,121385,128,0,121728:0:0:0:0:
109,192,121385,128,0,121471:0:0:0:0:
36,192,121385,128,0,121471:0:0:0:0:
475,192,121471,128,0,121557:0:0:0:0:
182,192,121471,128,0,121557:0:0:0:0:
402,192,121557,128,0,121642:0:0:0:0:
109,192,121557,128,0,121642:0:0:0:0:
329,192,121642,128,0,121728:0:0:0:0:
182,192,121642,128,0,121728:0:0:0:0:
36,192,121728,128,0,121985:0:0:0:0:
109,192,121728,128,0,121814:0:0:0:0:
475,192,121728,128,0,121814:0:0:0:0:
182,192,121814,128,0,121900:0:0:0:0:
329,192,121814,128,0,121900:0:0:0:0:
256,192,121900,128,0,121985:0:0:0:0:
402,192,121900,128,0,121985:0:0:0:0:
329,192,121985,128,0,122071:0:0:0:0:
109,192,121985,128,0,122071:0:0:0:0:
475,192,122071,128,0,122414:0:0:0:0:
182,192,122071,128,0,122157:0:0:0:0:
402,192,122071,128,0,122157:0:0:0:0:
36,192,122071,1,0,0:0:0:0:
329,192,122157,128,0,122242:0:0:0:0:
36,192,122157,128,0,122242:0:0:0:0:
256,192,122242,128,0,122328:0:0:0:0:
109,192,122242,128,0,122328:0:0:0:0:
182,192,122328,128,0,122414:0:0:0:0:
402,192,122328,128,0,122414:0:0:0:0:
256,192,122414,128,0,122671:0:0:0:0:
36,192,122414,1,0,0:0:0:0:
329,192,122414,128,0,122585:0:0:0:0:
402,192,122500,128,0,122671:0:0:0:0:
36,192,122585,1,0,0:0:0:0:
475,192,122585,128,0,122757:0:0:0:0:
109,192,122585,1,0,0:0:0:0:
329,192,122671,128,0,122842:0:0:0:0:
256,192,122757,128,0,123014:0:0:0:0:
402,192,122757,128,0,123014:0:0:0:0:
36,192,122757,128,0,122928:0:0:0:0:
182,192,122757,1,0,0:0:0:0:
109,192,122842,128,0,123014:0:0:0:0:
329,192,122928,128,0,123100:0:0:0:0:
182,192,122928,128,0,123100:0:0:0:0:
475,192,122928,1,0,0:0:0:0:
36,192,123014,128,0,123271:0:0:0:0:
256,192,123100,128,0,123357:0:0:0:0:
402,192,123100,1,0,0:0:0:0:
109,192,123100,128,0,123185:0:0:0:0:
182,192,123185,128,0,123271:0:0:0:0:
329,192,123271,1,0,0:0:0:0:
109,192,123271,128,0,123357:0:0:0:0:
475,192,123271,1,0,0:0:0:0:
182,192,123357,128,0,123442:0:0:0:0:
256,192,123442,128,0,123700:0:0:0:0:
36,192,123442,1,0,0:0:0:0:
402,192,123442,128,0,123700:0:0:0:0:
475,192,123442,1,0,0:0:0:0:
329,192,123528,128,0,123871:0:0:0:0:
475,192,123614,128,0,123785:0:0:0:0:
109,192,123614,128,0,123871:0:0:0:0:
36,192,123614,1,0,0:0:0:0:
182,192,123700,128,0,124042:0:0:0:0:
256,192,123785,128,0,124042:0:0:0:0:
36,192,123785,1,0,0:0:0:0:
402,192,123785,128,0,123957:0:0:0:0:
475,192,123871,128,0,124042:0:0:0:0:
109,192,123957,1,0,0:0:0:0:
329,192,123957,128,0,124042:0:0:0:0:
402,192,124042,128,0,124214:0:0:0:0:
256,192,124128,128,0,124385:0:0:0:0:
475,192,124128,1,0,0:0:0:0:
329,192,124128,128,0,124385:0:0:0:0:
182,192,124128,128,0,124385:0:0:0:0:
109,192,124128,1,0,0:0:0:0:
36,192,124214,128,0,124385:0:0:0:0:
109,192,124300,128,0,124471:0:0:0:0:
402,192,124300,128,0,124557:0:0:0:0:
475,192,124385,128,0,124557:0:0:0:0:
256,192,124471,128,0,124728:0:0:0:0:
329,192,124471,1,0,0:0:0:0:
36,192,124471,128,0,124728:0:0:0:0:
182,192,124471,128,0,124557:0:0:0:0:
109,192,124557,128,0,124642:0:0:0:0:
402,192,124642,1,0,0:0:0:0:
475,192,124642,1,0,0:0:0:0:
182,192,124642,128,0,124728:0:0:0:0:
109,192,124728,128,0,124814:0:0:0:0:
329,192,124728,1,0,0:0:0:0:
256,192,124814,128,0,125500:0:0:0:0:
182,192,124814,1,0,0:0:0:0:
402,192,124814,1,0,0:0:0:0:
475,192,124814,1,0,0:0:0:0:
36,192,124814,128,0,125500:0:0:0:0:
329,192,125500,128,0,126185:0:0:0:0:
182,192,125500,128,0,126185:0:0:0:0:
256,192,126185,1,0,0:0:0:0:
475,192,126185,1,0,0:0:0:0:
109,192,126185,128,0,126871:0:0:0:0:
256,192,126357,1,0,0:0:0:0:
329,192,126528,1,0,0:0:0:0:
475,192,126528,1,0,0:0:0:0:
402,192,126871,1,0,0:0:0:0:
256,192,126871,1,0,0:0:0:0:
475,192,126871,128,0,127557:0:0:0:0:
329,192,127214,1,0,0:0:0:0:
256,192,127385,1,0,0:0:0:0:
182,192,127557,1,0,0:0:0:0:
402,192,127557,1,0,0:0:0:0:
256,192,127557,128,0,128242:0:0:0:0:
329,192,127728,1,0,0:0:0:0:
402,192,127900,1,0,0:0:0:0:
329,192,128242,1,0,0:0:0:0:
109,192,128242,128,0,128928:0:0:0:0:
36,192,128242,1,0,0:0:0:0:
182,192,128585,1,0,0:0:0:0:
329,192,128585,1,0,0:0:0:0:
402,192,128757,1,0,0:0:0:0:
256,192,128928,1,0,0:0:0:0:
475,192,128928,1,0,0:0:0:0:
329,192,128928,128,0,129271:0:0:0:0:
182,192,129271,128,0,129357:0:0:0:0:
36,192,129271,1,0,0:0:0:0:
256,192,129357,128,0,129442:0:0:0:0:
402,192,129442,128,0,129528:0:0:0:0:
329,192,129528,128,0,129614:0:0:0:0:
256,192,129614,128,0,129957:0:0:0:0:
109,192,129614,1,0,0:0:0:0:
182,192,129957,128,0,130300:0:0:0:0:
402,192,129957,1,0,0:0:0:0:
329,192,130128,1,0,0:0:0:0:
109,192,130300,128,0,130985:0:0:0:0:
329,192,130300,1,0,0:0:0:0:
475,192,130300,1,0,0:0:0:0:
256,192,130471,1,0,0:0:0:0:
329,192,130642,1,0,0:0:0:0:
402,192,130642,1,0,0:0:0:0:
475,192,130814,1,0,0:0:0:0:
36,192,130985,128,0,131671:0:0:0:0:
256,192,130985,1,0,0:0:0:0:
402,192,130985,1,0,0:0:0:0:
475,192,131328,1,0,0:0:0:0:
329,192,131328,1,0,0:0:0:0:
256,192,131671,1,0,0:0:0:0:
402,192,131671,1,0,0:0:0:0:
109,192,131671,128,0,132357:0:0:0:0:
329,192,131842,1,0,0:0:0:0:
329,192,132014,1,0,0:0:0:0:
475,192,132357,128,0,132528:0:0:0:0:
256,192,132357,1,0,0:0:0:0:
36,192,132357,1,0,0:0:0:0:
329,192,132528,128,0,132700:0:0:0:0:
109,192,132528,1,0,0:0:0:0:
182,192,132700,128,0,133042:0:0:0:0:
475,192,132700,1,0,0:0:0:0:
402,192,132871,1,0,0:0:0:0:
36,192,133042,128,0,133642:0:0:0:0:
256,192,133042,1,0,0:0:0:0:
402,192,133042,1,0,0:0:0:0:
182,192,133214,1,0,0:0:0:0:
256,192,133385,1,0,0:0:0:0:
36,192,133728,128,0,134328:0:0:0:0:
256,192,133728,1,0,0:0:0:0:
402,192,133728,1,0,0:0:0:0:
329,192,134071,1,0,0:0:0:0:
475,192,134071,1,0,0:0:0:0:
256,192,134242,1,0,0:0:0:0:
36,192,134414,128,0,135014:0:0:0:0:
182,192,134414,1,0,0:0:0:0:
402,192,134414,1,0,0:0:0:0:
256,192,134757,1,0,0:0:0:0:
329,192,134757,1,0,0:0:0:0:
36,192,135100,128,0,135700:0:0:0:0:
256,192,135100,1,0,0:0:0:0:
475,192,135100,1,0,0:0:0:0:
402,192,135442,1,0,0:0:0:0:
256,192,135442,1,0,0:0:0:0:
329,192,135614,1,0,0:0:0:0:
36,192,135785,128,0,136128:0:0:0:0:
329,192,135785,1,0,0:0:0:0:
182,192,135785,1,0,0:0:0:0:
256,192,135957,1,0,0:0:0:0:
256,192,136128,1,0,0:0:0:0:
182,192,136128,128,0,136814:0:0:0:0:
329,192,136128,1,0,0:0:0:0:
475,192,136471,1,0,0:0:0:0:
402,192,136471,1,0,0:0:0:0:
329,192,136814,128,0,137157:0:0:0:0:
36,192,136814,1,0,0:0:0:0:
475,192,137157,128,0,137842:0:0:0:0:
36,192,137157,1,0,0:0:0:0:
182,192,137157,1,0,0:0:0:0:
109,192,137328,1,0,0:0:0:0:
109,192,137500,1,0,0:0:0:0:
109,192,137842,128,0,138528:0:0:0:0:
256,192,137842,1,0,0:0:0:0:
402,192,137842,1,0,0:0:0:0:
329,192,138185,1,0,0:0:0:0:
475,192,138185,1,0,0:0:0:0:
402,192,138357,1,0,0:0:0:0:
256,192,138528,128,0,139214:0:0:0:0:
402,192,138528,1,0,0:0:0:0:
182,192,138700,1,0,0:0:0:0:
329,192,138871,1,0,0:0:0:0:
475,192,138871,1,0,0:0:0:0:
109,192,139214,1,0,0:0:0:0:
329,192,139214,128,0,139900:0:0:0:0:
182,192,139557,1,0,0:0:0:0:
402,192,139900,128,0,140242:0:0:0:0:
109,192,139900,1,0,0:0:0:0:
256,192,139900,1,0,0:0:0:0:
475,192,140242,1,0,0:0:0:0:
36,192,140242,1,0,0:0:0:0:
402,192,140328,1,0,0:0:0:0:
182,192,140414,1,0,0:0:0:0:
256,192,140500,1,0,0:0:0:0:
329,192,140585,128,0,140928:0:0:0:0:
475,192,140585,1,0,0:0:0:0:
109,192,140585,1,0,0:0:0:0:
256,192,140928,128,0,141271:0:0:0:0:
109,192,140928,1,0,0:0:0:0:
182,192,141271,128,0,141957:0:0:0:0:
36,192,141271,1,0,0:0:0:0:
475,192,141442,1,0,0:0:0:0:
475,192,141614,1,0,0:0:0:0:
329,192,141614,1,0,0:0:0:0:
329,192,141957,128,0,142642:0:0:0:0:
109,192,141957,1,0,0:0:0:0:
402,192,141957,1,0,0:0:0:0:
256,192,142300,1,0,0:0:0:0:
36,192,142300,1,0,0:0:0:0:
182,192,142642,128,0,143328:0:0:0:0:
475,192,142642,1,0,0:0:0:0:
256,192,142642,1,0,0:0:0:0:
402,192,142814,1,0,0:0:0:0:
402,192,142985,1,0,0:0:0:0:
256,192,143328,128,0,144357:0:0:0:0:
36,192,143328,1,0,0:0:0:0:
475,192,143500,1,0,0:0:0:0:
402,192,143557,1,0,0:0:0:0:
329,192,143614,1,0,0:0:0:0:
182,192,143671,128,0,144357:0:0:0:0:
402,192,144185,1,0,0:0:0:0:
329,192,144271,1,0,0:0:0:0:
402,192,144357,1,0,0:0:0:0:
36,192,144357,1,0,0:0:0:0:
256,192,144528,1,0,0:0:0:0:
109,192,144528,1,0,0:0:0:0:
329,192,144614,1,0,0:0:0:0:
182,192,144700,1,0,0:0:0:0:
402,192,144700,1,0,0:0:0:0:
36,192,144700,1,0,0:0:0:0:
256,192,144700,128,0,145214:0:0:0:0:
109,192,144785,1,0,0:0:0:0:
402,192,144871,1,0,0:0:0:0:
182,192,144871,1,0,0:0:0:0:
329,192,144957,1,0,0:0:0:0:
402,192,145042,1,0,0:0:0:0:
475,192,145042,1,0,0:0:0:0:
36,192,145042,1,0,0:0:0:0:
109,192,145128,1,0,0:0:0:0:
182,192,145214,1,0,0:0:0:0:
402,192,145214,128,0,145385:0:0:0:0:
109,192,145300,1,0,0:0:0:0:
36,192,145385,1,0,0:0:0:0:
475,192,145385,1,0,0:0:0:0:
256,192,145385,1,0,0:0:0:0:
329,192,145385,128,0,145557:0:0:0:0:
182,192,145471,1,0,0:0:0:0:
109,192,145557,1,0,0:0:0:0:
402,192,145557,1,0,0:0:0:0:
36,192,145642,1,0,0:0:0:0:
256,192,145728,1,0,0:0:0:0:
475,192,145728,1,0,0:0:0:0:
109,192,145728,1,0,0:0:0:0:
402,192,145728,1,0,0:0:0:0:
182,192,145814,1,0,0:0:0:0:
329,192,145900,128,0,145942:0:0:0:0:
36,192,145900,128,0,145985:0:0:0:0:
109,192,145985,128,0,146071:0:0:0:0:
256,192,145985,128,0,146028:0:0:0:0:
475,192,146071,1,0,0:0:0:0:
402,192,146071,128,0,146114:0:0:0:0:
182,192,146071,128,0,146157:0:0:0:0:
109,192,146157,128,0,146242:0:0:0:0:
329,192,146157,128,0,146200:0:0:0:0:
36,192,146242,128,0,146328:0:0:0:0:
256,192,146242,128,0,146285:0:0:0:0:
182,192,146328,128,0,146371:0:0:0:0:
329,192,146328,128,0,146414:0:0:0:0:
109,192,146414,128,0,146457:0:0:0:0:
402,192,146414,128,0,146500:0:0:0:0:
475,192,146500,128,0,146585:0:0:0:0:
182,192,146500,128,0,146542:0:0:0:0:
256,192,146585,128,0,146628:0:0:0:0:
36,192,146585,128,0,146671:0:0:0:0:
109,192,146671,128,0,146757:0:0:0:0:
329,192,146671,128,0,146714:0:0:0:0:
182,192,146757,128,0,146842:0:0:0:0:
475,192,146757,1,0,0:0:0:0:
402,192,146757,128,0,146800:0:0:0:0:
109,192,146842,1,0,0:0:0:0:
256,192,146928,1,0,0:0:0:0:
36,192,146928,1,0,0:0:0:0:
329,192,147014,1,0,0:0:0:0:
256,192,147100,1,0,0:0:0:0:
109,192,147100,1,0,0:0:0:0:
475,192,147100,1,0,0:0:0:0:
402,192,147185,1,0,0:0:0:0:
109,192,147271,1,0,0:0:0:0:
329,192,147271,128,0,147442:0:0:0:0:
182,192,147357,1,0,0:0:0:0:
475,192,147442,1,0,0:0:0:0:
256,192,147442,1,0,0:0:0:0:
36,192,147442,1,0,0:0:0:0:
109,192,147442,128,0,147957:0:0:0:0:
402,192,147528,1,0,0:0:0:0:
329,192,147614,1,0,0:0:0:0:
182,192,147614,1,0,0:0:0:0:
402,192,147700,1,0,0:0:0:0:
475,192,147785,1,0,0:0:0:0:
256,192,147785,1,0,0:0:0:0:
402,192,147871,1,0,0:0:0:0:
36,192,147957,1,0,0:0:0:0:
329,192,147957,128,0,148128:0:0:0:0:
109,192,148042,1,0,0:0:0:0:
182,192,148128,128,0,148300:0:0:0:0:
256,192,148128,1,0,0:0:0:0:
475,192,148128,1,0,0:0:0:0:
402,192,148214,1,0,0:0:0:0:
329,192,148300,1,0,0:0:0:0:
109,192,148300,1,0,0:0:0:0:
402,192,148385,1,0,0:0:0:0:
36,192,148471,1,0,0:0:0:0:
256,192,148471,1,0,0:0:0:0:
475,192,148471,1,0,0:0:0:0:
329,192,148557,1,0,0:0:0:0:
182,192,148642,128,0,148685:0:0:0:0:
402,192,148642,128,0,148728:0:0:0:0:
109,192,148728,128,0,148771:0:0:0:0:
329,192,148728,128,0,148814:0:0:0:0:
475,192,148814,128,0,148900:0:0:0:0:
256,192,148814,1,0,0:0:0:0:
182,192,148814,128,0,148857:0:0:0:0:
402,192,148900,128,0,148985:0:0:0:0:
109,192,148900,128,0,148942:0:0:0:0:
36,192,148985,128,0,149028:0:0:0:0:
256,192,148985,128,0,149071:0:0:0:0:
109,192,149071,128,0,149114:0:0:0:0:
329,192,149071,128,0,149157:0:0:0:0:
475,192,149157,128,0,149242:0:0:0:0:
256,192,149157,128,0,149200:0:0:0:0:
402,192,149242,128,0,149328:0:0:0:0:
182,192,149242,128,0,149285:0:0:0:0:
329,192,149328,128,0,149414:0:0:0:0:
109,192,149328,128,0,149371:0:0:0:0:
36,192,149414,128,0,149457:0:0:0:0:
256,192,149414,128,0,149500:0:0:0:0:
475,192,149500,1,0,0:0:0:0:
402,192,149500,1,0,0:0:0:0:
182,192,149500,128,0,149542:0:0:0:0:
109,192,149585,128,0,149628:0:0:0:0:
329,192,149671,1,0,0:0:0:0:
256,192,149671,128,0,149714:0:0:0:0:
182,192,149757,128,0,149800:0:0:0:0:
109,192,149842,128,0,149885:0:0:0:0:
329,192,149842,128,0,149885:0:0:0:0:
402,192,149842,1,0,0:0:0:0:
182,192,149928,128,0,149971:0:0:0:0:
475,192,150014,128,0,150185:0:0:0:0:
256,192,150014,128,0,150057:0:0:0:0:
182,192,150100,128,0,150142:0:0:0:0:
329,192,150185,1,0,0:0:0:0:
256,192,150185,128,0,150357:0:0:0:0:
109,192,150185,128,0,150271:0:0:0:0:
36,192,150271,128,0,150357:0:0:0:0:
402,192,150357,128,0,150528:0:0:0:0:
109,192,150357,128,0,150442:0:0:0:0:
182,192,150442,128,0,150528:0:0:0:0:
475,192,150528,1,0,0:0:0:0:
329,192,150528,128,0,150700:0:0:0:0:
256,192,150528,128,0,150614:0:0:0:0:
182,192,150614,128,0,150700:0:0:0:0:
475,192,150700,128,0,150871:0:0:0:0:
109,192,150700,128,0,150785:0:0:0:0:
36,192,150785,128,0,150871:0:0:0:0:
402,192,150871,128,0,151042:0:0:0:0:
256,192,150871,1,0,0:0:0:0:
109,192,150871,128,0,150957:0:0:0:0:
182,192,150957,128,0,151042:0:0:0:0:
329,192,151042,128,0,151214:0:0:0:0:
109,192,151042,128,0,151128:0:0:0:0:
36,192,151128,128,0,151214:0:0:0:0:
256,192,151214,128,0,151385:0:0:0:0:
475,192,151214,1,0,0:0:0:0:
109,192,151214,128,0,151300:0:0:0:0:
182,192,151300,128,0,151385:0:0:0:0:
402,192,151385,128,0,151557:0:0:0:0:
329,192,151385,1,0,0:0:0:0:
109,192,151385,128,0,151471:0:0:0:0:
182,192,151471,128,0,151557:0:0:0:0:
36,192,151557,128,0,151728:0:0:0:0:
256,192,151557,128,0,151642:0:0:0:0:
475,192,151557,128,0,151728:0:0:0:0:
402,192,151642,128,0,151728:0:0:0:0:
256,192,151728,128,0,151900:0:0:0:0:
329,192,151728,128,0,151900:0:0:0:0:
402,192,151814,128,0,151900:0:0:0:0:
182,192,151900,1,0,0:0:0:0:
109,192,151900,128,0,152071:0:0:0:0:
475,192,151900,128,0,152071:0:0:0:0:
402,192,151985,128,0,152071:0:0:0:0:
182,192,152071,128,0,152242:0:0:0:0:
329,192,152071,128,0,152242:0:0:0:0:
256,192,152157,128,0,152242:0:0:0:0:
109,192,152242,128,0,152585:0:0:0:0:
475,192,152242,128,0,152328:0:0:0:0:
36,192,152242,128,0,152328:0:0:0:0:
402,192,152328,1,0,0:0:0:0:
182,192,152414,128,0,152500:0:0:0:0:
329,192,152414,128,0,152500:0:0:0:0:
402,192,152500,1,0,0:0:0:0:
256,192,152585,128,0,152928:0:0:0:0:
475,192,152585,1,0,0:0:0:0:
36,192,152585,128,0,152671:0:0:0:0:
182,192,152585,128,0,152671:0:0:0:0:
329,192,152671,1,0,0:0:0:0:
109,192,152757,128,0,152842:0:0:0:0:
402,192,152757,128,0,152842:0:0:0:0:
329,192,152842,1,0,0:0:0:0:
182,192,152928,128,0,153014:0:0:0:0:
475,192,152928,128,0,153014:0:0:0:0:
36,192,152928,128,0,153014:0:0:0:0:
402,192,153014,1,0,0:0:0:0:
109,192,153100,128,0,153185:0:0:0:0:
256,192,153100,128,0,153185:0:0:0:0:
329,192,153185,1,0,0:0:0:0:
256,192,153271,128,0,153614:0:0:0:0:
182,192,153271,128,0,153357:0:0:0:0:
475,192,153271,128,0,153357:0:0:0:0:
402,192,153357,1,0,0:0:0:0:
329,192,153442,128,0,153528:0:0:0:0:
36,192,153442,128,0,153528:0:0:0:0:
475,192,153528,1,0,0:0:0:0:
402,192,153614,128,0,153700:0:0:0:0:
182,192,153614,1,0,0:0:0:0:
109,192,153614,128,0,153700:0:0:0:0:
329,192,153700,1,0,0:0:0:0:
475,192,153785,128,0,153871:0:0:0:0:
36,192,153785,128,0,153871:0:0:0:0:
182,192,153871,1,0,0:0:0:0:
402,192,153957,128,0,154042:0:0:0:0:
256,192,153957,128,0,154471:0:0:0:0:
109,192,153957,128,0,154042:0:0:0:0:
182,192,154042,1,0,0:0:0:0:
329,192,154128,128,0,154214:0:0:0:0:
475,192,154128,128,0,154214:0:0:0:0:
109,192,154214,1,0,0:0:0:0:
182,192,154300,128,0,154385:0:0:0:0:
402,192,154300,128,0,154385:0:0:0:0:
36,192,154385,1,0,0:0:0:0:
329,192,154471,128,0,154642:0:0:0:0:
475,192,154471,128,0,154642:0:0:0:0:
182,192,154557,128,0,154642:0:0:0:0:
402,192,154642,128,0,154814:0:0:0:0:
256,192,154642,128,0,154814:0:0:0:0:
36,192,154642,128,0,154728:0:0:0:0:
109,192,154728,128,0,154814:0:0:0:0:
182,192,154814,128,0,154985:0:0:0:0:
475,192,154814,128,0,154900:0:0:0:0:
402,192,154900,128,0,154985:0:0:0:0:
256,192,154985,128,0,155157:0:0:0:0:
329,192,154985,128,0,155071:0:0:0:0:
36,192,154985,128,0,155071:0:0:0:0:
109,192,155071,128,0,155157:0:0:0:0:
329,192,155157,128,0,155328:0:0:0:0:
182,192,155157,128,0,155242:0:0:0:0:
475,192,155157,128,0,155242:0:0:0:0:
109,192,155242,128,0,155328:0:0:0:0:
36,192,155328,1,0,0:0:0:0:
475,192,155328,128,0,155500:0:0:0:0:
256,192,155328,128,0,155414:0:0:0:0:
329,192,155414,128,0,155500:0:0:0:0:
36,192,155500,128,0,155671:0:0:0:0:
402,192,155500,128,0,155585:0:0:0:0:
329,192,155585,128,0,155671:0:0:0:0:
256,192,155671,128,0,155842:0:0:0:0:
475,192,155671,1,0,0:0:0:0:
182,192,155671,128,0,155757:0:0:0:0:
109,192,155757,128,0,155842:0:0:0:0:
182,192,155842,128,0,156014:0:0:0:0:
402,192,155842,128,0,155928:0:0:0:0:
329,192,155928,128,0,156014:0:0:0:0:
109,192,156014,128,0,156185:0:0:0:0:
36,192,156014,1,0,0:0:0:0:
256,192,156014,1,0,0:0:0:0:
475,192,156014,128,0,156100:0:0:0:0:
402,192,156100,128,0,156185:0:0:0:0:
256,192,156185,128,0,156357:0:0:0:0:
329,192,156185,1,0,0:0:0:0:
182,192,156185,128,0,156271:0:0:0:0:
109,192,156271,128,0,156357:0:0:0:0:
402,192,156357,128,0,156528:0:0:0:0:
36,192,156357,128,0,156442:0:0:0:0:
475,192,156357,128,0,156528:0:0:0:0:
109,192,156442,128,0,156700:0:0:0:0:
329,192,156528,128,0,156700:0:0:0:0:
36,192,156528,128,0,156614:0:0:0:0:
182,192,156614,128,0,156700:0:0:0:0:
36,192,156700,1,0,0:0:0:0:
256,192,156700,128,0,156871:0:0:0:0:
475,192,156700,128,0,156957:0:0:0:0:
402,192,156700,128,0,156871:0:0:0:0:
329,192,156785,128,0,156871:0:0:0:0:
182,192,156871,128,0,157042:0:0:0:0:
36,192,156871,1,0,0:0:0:0:
109,192,156871,128,0,156957:0:0:0:0:
402,192,156957,128,0,157042:0:0:0:0:
475,192,157042,1,0,0:0:0:0:
329,192,157042,128,0,157642:0:0:0:0:
256,192,157042,128,0,157300:0:0:0:0:
36,192,157042,128,0,157300:0:0:0:0:
182,192,157128,128,0,157214:0:0:0:0:
402,192,157214,128,0,157471:0:0:0:0:
109,192,157214,128,0,157385:0:0:0:0:
182,192,157300,128,0,157471:0:0:0:0:
475,192,157385,128,0,157985:0:0:0:0:
36,192,157385,128,0,157642:0:0:0:0:
256,192,157385,128,0,157728:0:0:0:0:
109,192,157471,128,0,157557:0:0:0:0:
402,192,157557,128,0,157900:0:0:0:0:
182,192,157557,128,0,157642:0:0:0:0:
109,192,157642,128,0,157814:0:0:0:0:
182,192,157728,128,0,158328:0:0:0:0:
36,192,157728,128,0,157985:0:0:0:0:
329,192,157728,128,0,157814:0:0:0:0:
256,192,157814,128,0,157985:0:0:0:0:
109,192,157900,128,0,158157:0:0:0:0:
329,192,157900,128,0,158071:0:0:0:0:
402,192,157985,128,0,158157:0:0:0:0:
36,192,158071,128,0,158585:0:0:0:0:
475,192,158071,128,0,158328:0:0:0:0:
256,192,158071,128,0,158328:0:0:0:0:
329,192,158157,128,0,158242:0:0:0:0:
109,192,158242,128,0,158671:0:0:0:0:
402,192,158242,128,0,158500:0:0:0:0:
329,192,158328,128,0,158414:0:0:0:0:
256,192,158414,128,0,158842:0:0:0:0:
182,192,158414,128,0,158500:0:0:0:0:
475,192,158414,128,0,158500:0:0:0:0:
329,192,158500,128,0,158671:0:0:0:0:
402,192,158585,128,0,159100:0:0:0:0:
475,192,158585,128,0,158671:0:0:0:0:
182,192,158585,128,0,158757:0:0:0:0:
36,192,158671,128,0,158842:0:0:0:0:
109,192,158757,128,0,159100:0:0:0:0:
329,192,158757,128,0,158928:0:0:0:0:
475,192,158757,128,0,158842:0:0:0:0:
182,192,158842,128,0,159014:0:0:0:0:
256,192,158928,128,0,159100:0:0:0:0:
36,192,158928,128,0,159014:0:0:0:0:
475,192,158928,128,0,159014:0:0:0:0:
329,192,159014,128,0,159271:0:0:0:0:
182,192,159100,128,0,159185:0:0:0:0:
36,192,159100,128,0,159185:0:0:0:0:
475,192,159100,128,0,159185:0:0:0:0:
256,192,159185,128,0,159357:0:0:0:0:
402,192,159185,128,0,159442:0:0:0:0:
36,192,159271,128,0,159528:0:0:0:0:
182,192,159271,128,0,159528:0:0:0:0:
475,192,159357,128,0,159442:0:0:0:0:
329,192,159357,128,0,159614:0:0:0:0:
256,192,159442,128,0,159700:0:0:0:0:
109,192,159442,128,0,159700:0:0:0:0:
402,192,159528,128,0,159614:0:0:0:0:
475,192,159528,128,0,159785:0:0:0:0:
182,192,159614,128,0,159871:0:0:0:0:
36,192,159614,128,0,159871:0:0:0:0:
402,192,159700,128,0,159957:0:0:0:0:
329,192,159700,128,0,159785:0:0:0:0:
109,192,159785,128,0,160042:0:0:0:0:
256,192,159785,128,0,159957:0:0:0:0:
329,192,159871,128,0,160042:0:0:0:0:
475,192,159871,128,0,160042:0:0:0:0:
182,192,159957,128,0,160042:0:0:0:0:
36,192,159957,128,0,160128:0:0:0:0:
256,192,160042,128,0,160128:0:0:0:0:
402,192,160042,128,0,160128:0:0:0:0:
329,192,160128,128,0,160471:0:0:0:0:
475,192,160128,128,0,160471:0:0:0:0:
109,192,160128,1,0,0:0:0:0:
182,192,160128,1,0,0:0:0:0:
256,192,160214,1,0,0:0:0:0:
36,192,160300,1,0,0:0:0:0:
182,192,160300,1,0,0:0:0:0:
109,192,160385,1,0,0:0:0:0:
36,192,160471,128,0,160642:0:0:0:0:
402,192,160471,128,0,160514:0:0:0:0:
256,192,160471,1,0,0:0:0:0:
109,192,160557,128,0,160600:0:0:0:0:
182,192,160557,128,0,160642:0:0:0:0:
402,192,160642,128,0,160685:0:0:0:0:
329,192,160642,128,0,160814:0:0:0:0:
36,192,160728,128,0,160771:0:0:0:0:
182,192,160728,128,0,160814:0:0:0:0:
402,192,160814,1,0,0:0:0:0:
109,192,160814,128,0,160985:0:0:0:0:
475,192,160814,128,0,160857:0:0:0:0:
182,192,160900,128,0,160942:0:0:0:0:
256,192,160900,128,0,160985:0:0:0:0:
402,192,160985,128,0,161157:0:0:0:0:
475,192,160985,128,0,161028:0:0:0:0:
329,192,161071,128,0,161114:0:0:0:0:
256,192,161071,128,0,161157:0:0:0:0:
36,192,161157,128,0,161200:0:0:0:0:
182,192,161157,128,0,161328:0:0:0:0:
475,192,161157,1,0,0:0:0:0:
109,192,161157,1,0,0:0:0:0:
329,192,161242,128,0,161328:0:0:0:0:
402,192,161242,128,0,161285:0:0:0:0:
475,192,161328,128,0,161500:0:0:0:0:
109,192,161328,128,0,161371:0:0:0:0:
256,192,161414,128,0,161457:0:0:0:0:
329,192,161414,128,0,161500:0:0:0:0:
402,192,161500,128,0,161542:0:0:0:0:
36,192,161500,1,0,0:0:0:0:
109,192,161500,128,0,161671:0:0:0:0:
256,192,161585,128,0,161671:0:0:0:0:
329,192,161585,128,0,161628:0:0:0:0:
402,192,161671,128,0,161842:0:0:0:0:
36,192,161671,128,0,161714:0:0:0:0:
182,192,161757,128,0,161800:0:0:0:0:
256,192,161757,128,0,161842:0:0:0:0:
329,192,161842,1,0,0:0:0:0:
36,192,161842,1,0,0:0:0:0:
475,192,161842,128,0,162185:0:0:0:0:
109,192,161885,1,0,0:0:0:0:
182,192,161928,1,0,0:0:0:0:
402,192,161971,1,0,0:0:0:0:
256,192,162014,128,0,162357:0:0:0:0:
329,192,162014,1,0,0:0:0:0:
36,192,162057,1,0,0:0:0:0:
109,192,162100,1,0,0:0:0:0:
182,192,162142,1,0,0:0:0:0:
402,192,162142,1,0,0:0:0:0:
109,192,162185,128,0,162528:0:0:0:0:
329,192,162185,1,0,0:0:0:0:
36,192,162228,1,0,0:0:0:0:
182,192,162271,1,0,0:0:0:0:
329,192,162314,1,0,0:0:0:0:
402,192,162357,128,0,162700:0:0:0:0:
475,192,162357,1,0,0:0:0:0:
36,192,162400,1,0,0:0:0:0:
182,192,162442,1,0,0:0:0:0:
329,192,162485,1,0,0:0:0:0:
182,192,162528,128,0,162871:0:0:0:0:
475,192,162528,1,0,0:0:0:0:
36,192,162528,1,0,0:0:0:0:
109,192,162571,1,0,0:0:0:0:
475,192,162614,1,0,0:0:0:0:
256,192,162657,1,0,0:0:0:0:
329,192,162700,128,0,163042:0:0:0:0:
36,192,162700,1,0,0:0:0:0:
109,192,162742,1,0,0:0:0:0:
475,192,162785,1,0,0:0:0:0:
256,192,162828,1,0,0:0:0:0:
402,192,162871,128,0,163214:0:0:0:0:
36,192,162871,1,0,0:0:0:0:
109,192,162914,1,0,0:0:0:0:
182,192,162957,1,0,0:0:0:0:
475,192,162957,1,0,0:0:0:0:
256,192,163000,1,0,0:0:0:0:
36,192,163042,128,0,163214:0:0:0:0:
109,192,163042,1,0,0:0:0:0:
182,192,163085,1,0,0:0:0:0:
475,192,163085,1,0,0:0:0:0:
256,192,163128,128,0,163214:0:0:0:0:
329,192,163128,1,0,0:0:0:0:
109,192,163171,1,0,0:0:0:0:
182,192,163214,128,0,163300:0:0:0:0:
475,192,163214,1,0,0:0:0:0:
329,192,163214,1,0,0:0:0:0:
256,192,163300,1,0,0:0:0:0:
329,192,163385,1,0,0:0:0:0:
182,192,163385,1,0,0:0:0:0:
402,192,163471,1,0,0:0:0:0:
109,192,163471,1,0,0:0:0:0:
475,192,163557,1,0,0:0:0:0:
36,192,163557,1,0,0:0:0:0:
329,192,163557,1,0,0:0:0:0:
109,192,163642,1,0,0:0:0:0:
256,192,163642,1,0,0:0:0:0:
182,192,163728,1,0,0:0:0:0:
402,192,163728,1,0,0:0:0:0:
329,192,163814,128,0,163900:0:0:0:0:
109,192,163814,1,0,0:0:0:0:
475,192,163900,1,0,0:0:0:0:
256,192,163900,128,0,163985:0:0:0:0:
36,192,163900,1,0,0:0:0:0:
109,192,163985,1,0,0:0:0:0:
329,192,164071,1,0,0:0:0:0:
182,192,164071,1,0,0:0:0:0:
256,192,164157,1,0,0:0:0:0:
36,192,164157,1,0,0:0:0:0:
109,192,164242,1,0,0:0:0:0:
475,192,164242,1,0,0:0:0:0:
329,192,164242,1,0,0:0:0:0:
402,192,164328,1,0,0:0:0:0:
182,192,164328,1,0,0:0:0:0:
329,192,164414,1,0,0:0:0:0:
256,192,164414,1,0,0:0:0:0:
402,192,164500,1,0,0:0:0:0:
182,192,164500,128,0,164585:0:0:0:0:
475,192,164585,1,0,0:0:0:0:
256,192,164585,128,0,164671:0:0:0:0:
109,192,164585,1,0,0:0:0:0:
402,192,164671,1,0,0:0:0:0:
36,192,164757,1,0,0:0:0:0:
329,192,164757,1,0,0:0:0:0:
182,192,164842,1,0,0:0:0:0:
256,192,164842,1,0,0:0:0:0:
109,192,164928,1,0,0:0:0:0:
402,192,164928,1,0,0:0:0:0:
329,192,164928,1,0,0:0:0:0:
182,192,165014,1,0,0:0:0:0:
475,192,165014,1,0,0:0:0:0:
329,192,165100,1,0,0:0:0:0:
256,192,165100,1,0,0:0:0:0:
402,192,165185,128,0,165271:0:0:0:0:
182,192,165185,1,0,0:0:0:0:
256,192,165271,1,0,0:0:0:0:
109,192,165271,128,0,165357:0:0:0:0:
475,192,165271,1,0,0:0:0:0:
182,192,165357,1,0,0:0:0:0:
329,192,165357,1,0,0:0:0:0:
402,192,165442,1,0,0:0:0:0:
109,192,165442,1,0,0:0:0:0:
182,192,165528,1,0,0:0:0:0:
329,192,165528,128,0,165614:0:0:0:0:
256,192,165614,1,0,0:0:0:0:
402,192,165614,1,0,0:0:0:0:
36,192,165614,128,0,165700:0:0:0:0:
475,192,165700,1,0,0:0:0:0:
182,192,165700,1,0,0:0:0:0:
109,192,165785,1,0,0:0:0:0:
329,192,165785,1,0,0:0:0:0:
256,192,165871,128,0,165957:0:0:0:0:
402,192,165871,1,0,0:0:0:0:
475,192,165957,1,0,0:0:0:0:
182,192,165957,1,0,0:0:0:0:
36,192,165957,128,0,166042:0:0:0:0:
256,192,166042,1,0,0:0:0:0:
402,192,166042,1,0,0:0:0:0:
182,192,166128,1,0,0:0:0:0:
329,192,166128,1,0,0:0:0:0:
109,192,166214,1,0,0:0:0:0:
402,192,166214,1,0,0:0:0:0:
182,192,166300,1,0,0:0:0:0:
36,192,166300,1,0,0:0:0:0:
475,192,166300,1,0,0:0:0:0:
402,192,166385,1,0,0:0:0:0:
36,192,166471,1,0,0:0:0:0:
329,192,166471,1,0,0:0:0:0:
402,192,166557,1,0,0:0:0:0:
109,192,166557,1,0,0:0:0:0:
256,192,166642,128,0,166685:0:0:0:0:
182,192,166642,128,0,166685:0:0:0:0:
475,192,166642,1,0,0:0:0:0:
109,192,166728,1,0,0:0:0:0:
329,192,166814,128,0,166857:0:0:0:0:
256,192,166814,128,0,166857:0:0:0:0:
36,192,166814,1,0,0:0:0:0:
109,192,166900,1,0,0:0:0:0:
182,192,166985,1,0,0:0:0:0:
402,192,166985,128,0,167028:0:0:0:0:
329,192,166985,128,0,167028:0:0:0:0:
256,192,167071,1,0,0:0:0:0:
329,192,167157,128,0,167200:0:0:0:0:
475,192,167157,128,0,167200:0:0:0:0:
109,192,167157,1,0,0:0:0:0:
36,192,167157,1,0,0:0:0:0:
182,192,167242,1,0,0:0:0:0:
36,192,167328,1,0,0:0:0:0:
256,192,167328,128,0,167371:0:0:0:0:
402,192,167328,128,0,167371:0:0:0:0:
182,192,167414,1,0,0:0:0:0:
329,192,167500,1,0,0:0:0:0:
109,192,167500,1,0,0:0:0:0:
402,192,167585,1,0,0:0:0:0:
36,192,167585,1,0,0:0:0:0:
182,192,167671,128,0,167757:0:0:0:0:
475,192,167671,1,0,0:0:0:0:
256,192,167671,128,0,167757:0:0:0:0:
109,192,167757,1,0,0:0:0:0:
475,192,167842,1,0,0:0:0:0:
182,192,167842,1,0,0:0:0:0:
36,192,167928,1,0,0:0:0:0:
256,192,167928,1,0,0:0:0:0:
109,192,168014,1,0,0:0:0:0:
475,192,168014,128,0,168057:0:0:0:0:
329,192,168057,128,0,168100:0:0:0:0:
182,192,168100,128,0,168142:0:0:0:0:
36,192,168142,128,0,168185:0:0:0:0:
402,192,168185,128,0,168228:0:0:0:0:
256,192,168228,128,0,168271:0:0:0:0:
109,192,168271,128,0,168314:0:0:0:0:
329,192,168314,128,0,168357:0:0:0:0:
182,192,168357,128,0,168400:0:0:0:0:
402,192,168400,128,0,168442:0:0:0:0:
256,192,168442,128,0,168485:0:0:0:0:
109,192,168485,128,0,168528:0:0:0:0:
475,192,168528,128,0,168571:0:0:0:0:
329,192,168571,128,0,168614:0:0:0:0:
182,192,168614,128,0,168657:0:0:0:0:
36,192,168657,128,0,168700:0:0:0:0:
402,192,168700,1,0,0:0:0:0:
256,192,168700,1,0,0:0:0:0:
475,192,168700,1,0,0:0:0:0:
182,192,168785,1,0,0:0:0:0:
475,192,168871,1,0,0:0:0:0:
109,192,168871,1,0,0:0:0:0:
329,192,168871,1,0,0:0:0:0:
36,192,168957,1,0,0:0:0:0:
402,192,169042,1,0,0:0:0:0:
109,192,169042,1,0,0:0:0:0:
256,192,169042,1,0,0:0:0:0:
182,192,169128,1,0,0:0:0:0:
475,192,169214,1,0,0:0:0:0:
36,192,169214,1,0,0:0:0:0:
329,192,169214,1,0,0:0:0:0:
182,192,169300,1,0,0:0:0:0:
402,192,169385,1,0,0:0:0:0:
36,192,169385,1,0,0:0:0:0:
256,192,169385,1,0,0:0:0:0:
109,192,169385,1,0,0:0:0:0:
329,192,169471,1,0,0:0:0:0:
256,192,169557,1,0,0:0:0:0:
475,192,169557,1,0,0:0:0:0:
109,192,169557,1,0,0:0:0:0:
402,192,169642,1,0,0:0:0:0:
182,192,169728,1,0,0:0:0:0:
36,192,169728,1,0,0:0:0:0:
329,192,169728,1,0,0:0:0:0:
402,192,169814,1,0,0:0:0:0:
256,192,169900,1,0,0:0:0:0:
109,192,169900,1,0,0:0:0:0:
475,192,169900,1,0,0:0:0:0:
402,192,169985,1,0,0:0:0:0:
36,192,170071,1,0,0:0:0:0:
329,192,170071,1,0,0:0:0:0:
182,192,170071,1,0,0:0:0:0:
256,192,170157,1,0,0:0:0:0:
402,192,170242,1,0,0:0:0:0:
36,192,170242,1,0,0:0:0:0:
182,192,170242,1,0,0:0:0:0:
329,192,170328,1,0,0:0:0:0:
109,192,170414,1,0,0:0:0:0:
36,192,170414,1,0,0:0:0:0:
475,192,170414,1,0,0:0:0:0:
256,192,170414,1,0,0:0:0:0:
182,192,170500,1,0,0:0:0:0:
329,192,170585,1,0,0:0:0:0:
109,192,170585,1,0,0:0:0:0:
402,192,170671,1,0,0:0:0:0:
256,192,170757,1,0,0:0:0:0:
475,192,170757,1,0,0:0:0:0:
36,192,170757,1,0,0:0:0:0:
182,192,170757,1,0,0:0:0:0:
109,192,170842,1,0,0:0:0:0:
402,192,170928,1,0,0:0:0:0:
182,192,170928,1,0,0:0:0:0:
329,192,171014,1,0,0:0:0:0:
256,192,171100,1,0,0:0:0:0:
109,192,171100,1,0,0:0:0:0:
475,192,171100,1,0,0:0:0:0:
36,192,171100,1,0,0:0:0:0:
402,192,171100,1,0,0:0:0:0:
36,192,171271,1,0,0:0:0:0:
182,192,171271,1,0,0:0:0:0:
256,192,171271,1,0,0:0:0:0:
475,192,171271,1,0,0:0:0:0:
402,192,171357,1,0,0:0:0:0:
256,192,171442,128,0,172128:0:0:0:0:
329,192,171442,128,0,171528:0:0:0:0:
475,192,171442,128,0,171528:0:0:0:0:
36,192,171442,128,0,171528:0:0:0:0:
109,192,171528,128,0,171614:0:0:0:0:
182,192,171614,128,0,171700:0:0:0:0:
402,192,171614,128,0,171700:0:0:0:0:
329,192,171700,128,0,171785:0:0:0:0:
36,192,171785,128,0,171871:0:0:0:0:
475,192,171785,128,0,171871:0:0:0:0:
109,192,171871,128,0,171957:0:0:0:0:
402,192,171957,128,0,172042:0:0:0:0:
182,192,171957,128,0,172042:0:0:0:0:
109,192,172042,1,0,0:0:0:0:
329,192,172042,128,0,172128:0:0:0:0:
109,192,172128,128,0,172814:0:0:0:0:
475,192,172128,128,0,172214:0:0:0:0:
36,192,172128,128,0,172214:0:0:0:0:
402,192,172214,128,0,172300:0:0:0:0:
182,192,172300,128,0,172385:0:0:0:0:
329,192,172300,128,0,172385:0:0:0:0:
256,192,172385,128,0,172471:0:0:0:0:
36,192,172471,128,0,172557:0:0:0:0:
329,192,172471,128,0,172557:0:0:0:0:
402,192,172557,128,0,172642:0:0:0:0:
475,192,172642,128,0,172728:0:0:0:0:
256,192,172642,128,0,172728:0:0:0:0:
402,192,172728,1,0,0:0:0:0:
182,192,172728,128,0,172814:0:0:0:0:
256,192,172814,128,0,172900:0:0:0:0:
402,192,172814,128,0,173500:0:0:0:0:
36,192,172814,128,0,172900:0:0:0:0:
109,192,172900,128,0,172985:0:0:0:0:
475,192,172985,128,0,173071:0:0:0:0:
182,192,172985,128,0,173071:0:0:0:0:
256,192,173071,128,0,173157:0:0:0:0:
36,192,173157,128,0,173242:0:0:0:0:
329,192,173157,128,0,173242:0:0:0:0:
109,192,173242,128,0,173328:0:0:0:0:
256,192,173328,128,0,173414:0:0:0:0:
36,192,173328,128,0,173414:0:0:0:0:
182,192,173414,1,0,0:0:0:0:
182,192,173500,128,0,173842:0:0:0:0:
329,192,173500,128,0,173585:0:0:0:0:
36,192,173500,128,0,173585:0:0:0:0:
256,192,173585,128,0,173671:0:0:0:0:
109,192,173671,128,0,173757:0:0:0:0:
475,192,173671,128,0,173757:0:0:0:0:
36,192,173757,128,0,173842:0:0:0:0:
329,192,173757,1,0,0:0:0:0:
256,192,173842,128,0,173928:0:0:0:0:
329,192,173842,128,0,174185:0:0:0:0:
109,192,173842,128,0,173928:0:0:0:0:
402,192,173928,128,0,174014:0:0:0:0:
182,192,174014,128,0,174100:0:0:0:0:
475,192,174014,128,0,174100:0:0:0:0:
109,192,174100,128,0,174185:0:0:0:0:
475,192,174185,128,0,174271:0:0:0:0:
36,192,174185,128,0,174271:0:0:0:0:
256,192,174185,128,0,174871:0:0:0:0:
402,192,174185,128,0,174271:0:0:0:0:
109,192,174271,128,0,174357:0:0:0:0:
329,192,174357,128,0,174442:0:0:0:0:
182,192,174357,128,0,174442:0:0:0:0:
109,192,174442,128,0,174528:0:0:0:0:
475,192,174528,128,0,174614:0:0:0:0:
329,192,174528,128,0,174614:0:0:0:0:
36,192,174528,128,0,174614:0:0:0:0:
109,192,174614,128,0,174700:0:0:0:0:
182,192,174700,128,0,174785:0:0:0:0:
402,192,174700,128,0,174785:0:0:0:0:
109,192,174785,128,0,174871:0:0:0:0:
36,192,174871,128,0,175214:0:0:0:0:
329,192,174871,128,0,174957:0:0:0:0:
475,192,174871,128,0,174957:0:0:0:0:
256,192,174957,128,0,175042:0:0:0:0:
402,192,175042,128,0,175128:0:0:0:0:
182,192,175042,128,0,175385:0:0:0:0:
329,192,175128,128,0,175214:0:0:0:0:
109,192,175214,128,0,175300:0:0:0:0:
256,192,175214,128,0,175300:0:0:0:0:
475,192,175214,128,0,175557:0:0:0:0:
36,192,175300,128,0,175385:0:0:0:0:
402,192,175385,128,0,175471:0:0:0:0:
109,192,175385,128,0,175471:0:0:0:0:
329,192,175385,128,0,175728:0:0:0:0:
256,192,175471,128,0,175557:0:0:0:0:
182,192,175557,128,0,175900:0:0:0:0:
36,192,175557,128,0,175642:0:0:0:0:
402,192,175557,128,0,175642:0:0:0:0:
109,192,175642,128,0,175728:0:0:0:0:
475,192,175728,128,0,175814:0:0:0:0:
256,192,175728,128,0,175814:0:0:0:0:
329,192,175814,128,0,175900:0:0:0:0:
402,192,175900,128,0,175985:0:0:0:0:
256,192,175900,128,0,176242:0:0:0:0:
109,192,175900,128,0,175985:0:0:0:0:
36,192,175900,128,0,175985:0:0:0:0:
182,192,175985,128,0,176071:0:0:0:0:
475,192,176071,128,0,176157:0:0:0:0:
329,192,176071,128,0,176157:0:0:0:0:
402,192,176157,128,0,176242:0:0:0:0:
109,192,176242,1,0,0:0:0:0:
475,192,176242,128,0,176285:0:0:0:0:
329,192,176285,128,0,176328:0:0:0:0:
36,192,176328,128,0,176371:0:0:0:0:
182,192,176371,128,0,176414:0:0:0:0:
402,192,176414,128,0,176457:0:0:0:0:
256,192,176457,128,0,176500:0:0:0:0:
36,192,176500,128,0,176542:0:0:0:0:
182,192,176542,128,0,176585:0:0:0:0:
475,192,176585,128,0,176628:0:0:0:0:
329,192,176628,128,0,176671:0:0:0:0:
109,192,176671,128,0,176714:0:0:0:0:
256,192,176714,128,0,176757:0:0:0:0:
402,192,176757,128,0,176800:0:0:0:0:
329,192,176800,128,0,176842:0:0:0:0:
109,192,176842,128,0,176885:0:0:0:0:
182,192,176885,128,0,176928:0:0:0:0:
475,192,176928,1,0,0:0:0:0:
256,192,176928,128,0,177614:0:0:0:0:
36,192,176928,1,0,0:0:0:0:
329,192,177014,1,0,0:0:0:0:
475,192,177100,1,0,0:0:0:0:
109,192,177100,1,0,0:0:0:0:
329,192,177185,1,0,0:0:0:0:
402,192,177271,1,0,0:0:0:0:
109,192,177271,1,0,0:0:0:0:
475,192,177271,1,0,0:0:0:0:
182,192,177357,1,0,0:0:0:0:
36,192,177442,1,0,0:0:0:0:
329,192,177442,1,0,0:0:0:0:
182,192,177528,1,0,0:0:0:0:
36,192,177614,128,0,177785:0:0:0:0:
402,192,177614,1,0,0:0:0:0:
475,192,177614,1,0,0:0:0:0:
256,192,177700,1,0,0:0:0:0:
402,192,177785,1,0,0:0:0:0:
109,192,177785,128,0,177957:0:0:0:0:
329,192,177785,1,0,0:0:0:0:
256,192,177871,1,0,0:0:0:0:
36,192,177957,1,0,0:0:0:0:
329,192,177957,1,0,0:0:0:0:
475,192,177957,128,0,178128:0:0:0:0:
182,192,178042,1,0,0:0:0:0:
109,192,178128,1,0,0:0:0:0:
402,192,178128,128,0,178300:0:0:0:0:
256,192,178128,1,0,0:0:0:0:
182,192,178214,1,0,0:0:0:0:
256,192,178300,1,0,0:0:0:0:
329,192,178300,128,0,178642:0:0:0:0:
475,192,178300,1,0,0:0:0:0:
36,192,178300,1,0,0:0:0:0:
109,192,178385,1,0,0:0:0:0:
402,192,178471,1,0,0:0:0:0:
182,192,178471,1,0,0:0:0:0:
256,192,178557,1,0,0:0:0:0:
36,192,178642,1,0,0:0:0:0:
475,192,178642,1,0,0:0:0:0:
109,192,178642,128,0,178985:0:0:0:0:
402,192,178728,1,0,0:0:0:0:
182,192,178814,1,0,0:0:0:0:
329,192,178814,1,0,0:0:0:0:
256,192,178900,1,0,0:0:0:0:
329,192,178985,1,0,0:0:0:0:
402,192,178985,128,0,179328:0:0:0:0:
36,192,178985,1,0,0:0:0:0:
109,192,179071,1,0,0:0:0:0:
475,192,179157,1,0,0:0:0:0:
182,192,179157,1,0,0:0:0:0:
109,192,179242,1,0,0:0:0:0:
329,192,179328,1,0,0:0:0:0:
36,192,179328,1,0,0:0:0:0:
256,192,179328,128,0,179671:0:0:0:0:
182,192,179414,1,0,0:0:0:0:
109,192,179500,1,0,0:0:0:0:
329,192,179500,1,0,0:0:0:0:
402,192,179585,1,0,0:0:0:0:
36,192,179671,1,0,0:0:0:0:
182,192,179671,128,0,180528:0:0:0:0:
475,192,179671,128,0,179757:0:0:0:0:
402,192,179757,128,0,179842:0:0:0:0:
329,192,179842,128,0,179928:0:0:0:0:
256,192,179928,128,0,180014:0:0:0:0:
475,192,180014,128,0,180100:0:0:0:0:
402,192,180100,128,0,180185:0:0:0:0:
256,192,180185,128,0,180271:0:0:0:0:
36,192,180271,128,0,180357:0:0:0:0:
475,192,180357,128,0,180442:0:0:0:0:
329,192,180442,128,0,180528:0:0:0:0:
109,192,180528,128,0,180871:0:0:0:0:
402,192,180528,128,0,180614:0:0:0:0:
329,192,180614,128,0,180700:0:0:0:0:
256,192,180700,128,0,181042:0:0:0:0:
182,192,180785,128,0,180871:0:0:0:0:
36,192,180871,128,0,180957:0:0:0:0:
475,192,180871,128,0,181385:0:0:0:0:
109,192,180957,128,0,181042:0:0:0:0:
182,192,181042,128,0,181128:0:0:0:0:
329,192,181042,128,0,181385:0:0:0:0:
256,192,181128,128,0,181214:0:0:0:0:
36,192,181214,128,0,181300:0:0:0:0:
182,192,181300,128,0,181385:0:0:0:0:
402,192,181385,128,0,181642:0:0:0:0:
109,192,181385,128,0,182414:0:0:0:0:
256,192,181471,128,0,181728:0:0:0:0:
36,192,181557,128,0,181985:0:0:0:0:
329,192,181557,128,0,181814:0:0:0:0:
475,192,181642,128,0,182071:0:0:0:0:
182,192,181728,128,0,181900:0:0:0:0:
402,192,181728,128,0,182414:0:0:0:0:
256,192,181814,128,0,181985:0:0:0:0:
329,192,181900,128,0,182157:0:0:0:0:
182,192,181985,128,0,182242:0:0:0:0:
36,192,182071,128,0,182328:0:0:0:0:
256,192,182071,128,0,182414:0:0:0:0:
475,192,182157,128,0,182414:0:0:0:0:
329,192,182242,128,0,182328:0:0:0:0:
182,192,182328,128,0,182414:0:0:0:0:
329,192,182414,1,0,0:0:0:0:
36,192,182414,1,0,0:0:0:0:
475,192,182500,1,0,0:0:0:0:
109,192,182500,1,0,0:0:0:0:
256,192,182500,1,0,0:0:0:0:
329,192,182585,1,0,0:0:0:0:
36,192,182585,1,0,0:0:0:0:
475,192,182671,1,0,0:0:0:0:
109,192,182671,1,0,0:0:0:0:
256,192,182671,1,0,0:0:0:0:
36,192,182757,1,0,0:0:0:0:
329,192,182757,1,0,0:0:0:0:
109,192,182842,1,0,0:0:0:0:
256,192,182842,1,0,0:0:0:0:
475,192,182842,1,0,0:0:0:0:
36,192,182928,1,0,0:0:0:0:
329,192,182928,1,0,0:0:0:0:
475,192,183014,1,0,0:0:0:0:
256,192,183014,1,0,0:0:0:0:
109,192,183014,1,0,0:0:0:0:
329,192,183100,1,0,0:0:0:0:
182,192,183100,1,0,0:0:0:0:
36,192,183100,1,0,0:0:0:0:
402,192,183185,1,0,0:0:0:0:
109,192,183271,128,0,183442:0:0:0:0:
329,192,183271,1,0,0:0:0:0:
182,192,183271,1,0,0:0:0:0:
402,192,183357,1,0,0:0:0:0:
256,192,183442,128,0,183614:0:0:0:0:
475,192,183442,1,0,0:0:0:0:
329,192,183442,1,0,0:0:0:0:
36,192,183442,1,0,0:0:0:0:
109,192,183528,1,0,0:0:0:0:
402,192,183614,128,0,183785:0:0:0:0:
329,192,183614,1,0,0:0:0:0:
182,192,183614,1,0,0:0:0:0:
109,192,183700,1,0,0:0:0:0:
182,192,183785,128,0,183957:0:0:0:0:
475,192,183785,1,0,0:0:0:0:
256,192,183785,1,0,0:0:0:0:
329,192,183785,1,0,0:0:0:0:
36,192,183785,1,0,0:0:0:0:
402,192,183871,1,0,0:0:0:0:
329,192,183957,128,0,184128:0:0:0:0:
109,192,183957,1,0,0:0:0:0:
475,192,183957,1,0,0:0:0:0:
182,192,184042,1,0,0:0:0:0:
475,192,184128,1,0,0:0:0:0:
402,192,184128,1,0,0:0:0:0:
109,192,184128,1,0,0:0:0:0:
256,192,184128,1,0,0:0:0:0:
36,192,184128,128,0,184300:0:0:0:0:
329,192,184214,1,0,0:0:0:0:
182,192,184300,1,0,0:0:0:0:
256,192,184300,1,0,0:0:0:0:
475,192,184300,128,0,184471:0:0:0:0:
329,192,184385,1,0,0:0:0:0:
256,192,184471,1,0,0:0:0:0:
36,192,184471,1,0,0:0:0:0:
402,192,184471,1,0,0:0:0:0:
182,192,184471,128,0,184814:0:0:0:0:
109,192,184471,1,0,0:0:0:0:
36,192,184642,1,0,0:0:0:0:
475,192,184642,1,0,0:0:0:0:
329,192,184642,128,0,184985:0:0:0:0:
256,192,184814,128,0,185157:0:0:0:0:
402,192,184814,1,0,0:0:0:0:
36,192,184814,1,0,0:0:0:0:
475,192,184900,1,0,0:0:0:0:
182,192,184900,1,0,0:0:0:0:
402,192,184985,1,0,0:0:0:0:
36,192,184985,1,0,0:0:0:0:
182,192,185071,1,0,0:0:0:0:
475,192,185071,1,0,0:0:0:0:
329,192,185157,1,0,0:0:0:0:
109,192,185157,1,0,0:0:0:0:
36,192,185157,1,0,0:0:0:0:
402,192,185157,1,0,0:0:0:0:
182,192,185242,1,0,0:0:0:0:
329,192,185328,1,0,0:0:0:0:
256,192,185414,1,0,0:0:0:0:
475,192,185500,1,0,0:0:0:0:
109,192,185500,1,0,0:0:0:0:
402,192,185585,1,0,0:0:0:0:
329,192,185671,1,0,0:0:0:0:
36,192,185671,1,0,0:0:0:0:
109,192,185757,1,0,0:0:0:0:
182,192,185842,1,0,0:0:0:0:
475,192,185842,1,0,0:0:0:0:
36,192,185842,1,0,0:0:0:0:
402,192,185928,1,0,0:0:0:0:
329,192,186014,1,0,0:0:0:0:
109,192,186014,1,0,0:0:0:0:
256,192,186100,1,0,0:0:0:0:
475,192,186185,1,0,0:0:0:0:
182,192,186185,1,0,0:0:0:0:
36,192,186185,1,0,0:0:0:0:
329,192,186271,1,0,0:0:0:0:
402,192,186357,1,0,0:0:0:0:
182,192,186357,1,0,0:0:0:0:
256,192,186442,1,0,0:0:0:0:
36,192,186528,1,0,0:0:0:0:
182,192,186528,1,0,0:0:0:0:
329,192,186528,128,0,186614:0:0:0:0:
475,192,186528,128,0,186614:0:0:0:0:
109,192,186528,1,0,0:0:0:0:
256,192,186614,128,0,186700:0:0:0:0:
109,192,186700,128,0,186785:0:0:0:0:
475,192,186700,128,0,186785:0:0:0:0:
329,192,186785,128,0,186871:0:0:0:0:
182,192,186871,128,0,186957:0:0:0:0:
402,192,186957,128,0,187042:0:0:0:0:
36,192,187042,128,0,187128:0:0:0:0:
256,192,187128,128,0,187214:0:0:0:0:
109,192,187214,128,0,187300:0:0:0:0:
402,192,187214,128,0,187300:0:0:0:0:
182,192,187300,128,0,187385:0:0:0:0:
329,192,187385,128,0,187471:0:0:0:0:
475,192,187471,128,0,187557:0:0:0:0:
256,192,187557,128,0,187642:0:0:0:0:
36,192,187642,128,0,187728:0:0:0:0:
402,192,187728,128,0,187814:0:0:0:0:
182,192,187814,128,0,187900:0:0:0:0:
109,192,187900,1,0,0:0:0:0:
475,192,187900,1,0,0:0:0:0:
256,192,187900,1,0,0:0:0:0:
36,192,187900,1,0,0:0:0:0:
329,192,187985,1,0,0:0:0:0:
402,192,187985,1,0,0:0:0:0:
109,192,188071,1,0,0:0:0:0:
182,192,188071,1,0,0:0:0:0:
256,192,188157,1,0,0:0:0:0:
329,192,188157,1,0,0:0:0:0:
36,192,188242,1,0,0:0:0:0:
109,192,188242,1,0,0:0:0:0:
475,192,188328,1,0,0:0:0:0:
402,192,188328,1,0,0:0:0:0:
182,192,188414,1,0,0:0:0:0:
109,192,188414,1,0,0:0:0:0:
329,192,188500,1,0,0:0:0:0:
256,192,188500,1,0,0:0:0:0:
36,192,188585,1,0,0:0:0:0:
475,192,188585,1,0,0:0:0:0:
109,192,188585,1,0,0:0:0:0:
402,192,188671,1,0,0:0:0:0:
329,192,188671,1,0,0:0:0:0:
182,192,188757,1,0,0:0:0:0:
109,192,188757,1,0,0:0:0:0:
256,192,188842,1,0,0:0:0:0:
329,192,188842,1,0,0:0:0:0:
36,192,188928,1,0,0:0:0:0:
109,192,188928,1,0,0:0:0:0:
475,192,189014,1,0,0:0:0:0:
402,192,189014,1,0,0:0:0:0:
182,192,189100,1,0,0:0:0:0:
256,192,189100,1,0,0:0:0:0:
329,192,189185,1,0,0:0:0:0:
402,192,189185,1,0,0:0:0:0:
475,192,189271,128,0,189357:0:0:0:0:
256,192,189271,128,0,189357:0:0:0:0:
36,192,189271,1,0,0:0:0:0:
182,192,189271,1,0,0:0:0:0:
109,192,189357,128,0,189442:0:0:0:0:
402,192,189357,128,0,189442:0:0:0:0:
256,192,189442,128,0,189528:0:0:0:0:
475,192,189442,128,0,189528:0:0:0:0:
36,192,189528,128,0,189614:0:0:0:0:
329,192,189528,128,0,189614:0:0:0:0:
109,192,189614,128,0,189700:0:0:0:0:
402,192,189614,128,0,189700:0:0:0:0:
36,192,189700,128,0,189785:0:0:0:0:
256,192,189700,128,0,189785:0:0:0:0:
109,192,189785,128,0,189871:0:0:0:0:
329,192,189785,128,0,189871:0:0:0:0:
402,192,189871,128,0,189957:0:0:0:0:
182,192,189871,128,0,189957:0:0:0:0:
36,192,189957,128,0,190042:0:0:0:0:
256,192,189957,128,0,190042:0:0:0:0:
475,192,189957,128,0,190042:0:0:0:0:
109,192,190042,128,0,190128:0:0:0:0:
402,192,190042,128,0,190128:0:0:0:0:
182,192,190128,128,0,190214:0:0:0:0:
329,192,190128,128,0,190214:0:0:0:0:
36,192,190214,128,0,190300:0:0:0:0:
109,192,190214,128,0,190300:0:0:0:0:
329,192,190300,128,0,190385:0:0:0:0:
402,192,190300,128,0,190385:0:0:0:0:
182,192,190385,128,0,190471:0:0:0:0:
109,192,190385,128,0,190471:0:0:0:0:
475,192,190471,128,0,190557:0:0:0:0:
402,192,190471,128,0,190557:0:0:0:0:
256,192,190557,128,0,190642:0:0:0:0:
182,192,190557,128,0,190642:0:0:0:0:
475,192,190642,128,0,190728:0:0:0:0:
402,192,190642,1,0,0:0:0:0:
36,192,190642,1,0,0:0:0:0:
109,192,190728,1,0,0:0:0:0:
329,192,190728,128,0,190814:0:0:0:0:
182,192,190814,128,0,190900:0:0:0:0:
475,192,190814,128,0,190857:0:0:0:0:
36,192,190900,128,0,190985:0:0:0:0:
329,192,190900,128,0,190942:0:0:0:0:
402,192,190985,128,0,191071:0:0:0:0:
182,192,190985,128,0,191028:0:0:0:0:
256,192,191071,128,0,191157:0:0:0:0:
36,192,191071,128,0,191114:0:0:0:0:
109,192,191157,128,0,191242:0:0:0:0:
402,192,191157,128,0,191200:0:0:0:0:
329,192,191242,128,0,191328:0:0:0:0:
256,192,191242,128,0,191285:0:0:0:0:
182,192,191328,128,0,191414:0:0:0:0:
109,192,191328,128,0,191371:0:0:0:0:
402,192,191328,128,0,191371:0:0:0:0:
329,192,191414,128,0,191500:0:0:0:0:
475,192,191414,128,0,191457:0:0:0:0:
109,192,191500,128,0,191585:0:0:0:0:
182,192,191500,128,0,191542:0:0:0:0:
402,192,191585,128,0,191671:0:0:0:0:
329,192,191585,128,0,191628:0:0:0:0:
109,192,191671,128,0,191757:0:0:0:0:
256,192,191671,128,0,191714:0:0:0:0:
475,192,191757,128,0,191842:0:0:0:0:
402,192,191757,128,0,191800:0:0:0:0:
256,192,191842,128,0,191928:0:0:0:0:
109,192,191842,128,0,191885:0:0:0:0:
475,192,191928,128,0,192014:0:0:0:0:
329,192,191928,128,0,191971:0:0:0:0:
36,192,192014,128,0,192100:0:0:0:0:
182,192,192014,128,0,192100:0:0:0:0:
402,192,192014,128,0,192100:0:0:0:0:
109,192,192014,128,0,192100:0:0:0:0:
256,192,192100,128,0,192185:0:0:0:0:
329,192,192100,128,0,192185:0:0:0:0:
109,192,192185,128,0,192271:0:0:0:0:
475,192,192185,128,0,192271:0:0:0:0:
256,192,192271,128,0,192357:0:0:0:0:
402,192,192271,128,0,192357:0:0:0:0:
109,192,192357,128,0,192442:0:0:0:0:
329,192,192357,128,0,192442:0:0:0:0:
475,192,192442,128,0,192528:0:0:0:0:
256,192,192442,128,0,192528:0:0:0:0:
36,192,192528,128,0,192614:0:0:0:0:
182,192,192528,128,0,192614:0:0:0:0:
329,192,192614,128,0,192700:0:0:0:0:
109,192,192614,128,0,192700:0:0:0:0:
475,192,192700,128,0,192785:0:0:0:0:
182,192,192700,128,0,192785:0:0:0:0:
256,192,192700,128,0,192785:0:0:0:0:
36,192,192700,128,0,192785:0:0:0:0:
109,192,192785,128,0,192871:0:0:0:0:
402,192,192785,128,0,192871:0:0:0:0:
182,192,192871,128,0,192957:0:0:0:0:
256,192,192871,128,0,192957:0:0:0:0:
402,192,192957,128,0,193042:0:0:0:0:
109,192,192957,128,0,193042:0:0:0:0:
475,192,193042,128,0,193128:0:0:0:0:
256,192,193042,128,0,193128:0:0:0:0:
329,192,193128,128,0,193214:0:0:0:0:
36,192,193128,128,0,193214:0:0:0:0:
182,192,193214,128,0,193300:0:0:0:0:
475,192,193214,128,0,193300:0:0:0:0:
109,192,193300,128,0,193385:0:0:0:0:
329,192,193300,128,0,193385:0:0:0:0:
402,192,193385,128,0,193471:0:0:0:0:
475,192,193385,128,0,193471:0:0:0:0:
182,192,193385,128,0,193642:0:0:0:0:
36,192,193385,1,0,0:0:0:0:
256,192,193471,128,0,193557:0:0:0:0:
109,192,193471,128,0,193557:0:0:0:0:
36,192,193557,1,0,0:0:0:0:
329,192,193557,128,0,193642:0:0:0:0:
475,192,193557,128,0,193642:0:0:0:0:
256,192,193642,128,0,193728:0:0:0:0:
109,192,193642,128,0,193728:0:0:0:0:
36,192,193728,1,0,0:0:0:0:
402,192,193728,128,0,193900:0:0:0:0:
182,192,193728,128,0,193814:0:0:0:0:
256,192,193814,128,0,193900:0:0:0:0:
109,192,193814,128,0,193900:0:0:0:0:
329,192,193900,128,0,193985:0:0:0:0:
475,192,193900,128,0,193985:0:0:0:0:
36,192,193900,1,0,0:0:0:0:
402,192,193985,128,0,194071:0:0:0:0:
182,192,193985,128,0,194071:0:0:0:0:
256,192,194071,128,0,194157:0:0:0:0:
475,192,194071,128,0,194328:0:0:0:0:
329,192,194071,128,0,194157:0:0:0:0:
36,192,194071,1,0,0:0:0:0:
182,192,194157,1,0,0:0:0:0:
109,192,194157,128,0,194242:0:0:0:0:
402,192,194157,128,0,194242:0:0:0:0:
329,192,194242,128,0,194328:0:0:0:0:
36,192,194242,1,0,0:0:0:0:
256,192,194242,128,0,194328:0:0:0:0:
109,192,194328,128,0,194414:0:0:0:0:
182,192,194328,1,0,0:0:0:0:
402,192,194328,128,0,194414:0:0:0:0:
256,192,194414,128,0,194500:0:0:0:0:
475,192,194414,128,0,194500:0:0:0:0:
36,192,194414,1,0,0:0:0:0:
109,192,194500,128,0,194585:0:0:0:0:
182,192,194500,1,0,0:0:0:0:
402,192,194500,128,0,194585:0:0:0:0:
36,192,194585,1,0,0:0:0:0:
329,192,194585,128,0,194757:0:0:0:0:
256,192,194585,128,0,194671:0:0:0:0:
182,192,194671,1,0,0:0:0:0:
36,192,194757,1,0,0:0:0:0:
475,192,194757,1,0,0:0:0:0:
109,192,194757,128,0,194842:0:0:0:0:
256,192,194842,128,0,195014:0:0:0:0:
182,192,194928,128,0,195100:0:0:0:0:
109,192,195014,128,0,195185:0:0:0:0:
36,192,195100,128,0,195271:0:0:0:0:
256,192,195185,128,0,195357:0:0:0:0:
329,192,195271,128,0,195442:0:0:0:0:
402,192,195357,128,0,195528:0:0:0:0:
36,192,195442,1,0,0:0:0:0:
182,192,195442,128,0,195614:0:0:0:0:
109,192,195442,1,0,0:0:0:0:
256,192,195528,128,0,195700:0:0:0:0:
329,192,195614,128,0,195785:0:0:0:0:
402,192,195700,128,0,195871:0:0:0:0:
36,192,195785,128,0,195957:0:0:0:0:
182,192,195871,128,0,196042:0:0:0:0:
329,192,195957,128,0,196128:0:0:0:0:
475,192,196042,128,0,196214:0:0:0:0:
36,192,196128,1,0,0:0:0:0:
256,192,196128,1,0,0:0:0:0:
109,192,196128,1,0,0:0:0:0:
182,192,196214,1,0,0:0:0:0:
329,192,196214,1,0,0:0:0:0:
256,192,196300,1,0,0:0:0:0:
402,192,196300,1,0,0:0:0:0:
329,192,196385,1,0,0:0:0:0:
475,192,196385,1,0,0:0:0:0:
182,192,196471,1,0,0:0:0:0:
402,192,196471,1,0,0:0:0:0:
329,192,196557,1,0,0:0:0:0:
109,192,196557,1,0,0:0:0:0:
256,192,196642,1,0,0:0:0:0:
36,192,196642,1,0,0:0:0:0:
109,192,196728,1,0,0:0:0:0:
329,192,196728,1,0,0:0:0:0:
182,192,196814,1,0,0:0:0:0:
402,192,196814,1,0,0:0:0:0:
256,192,196900,1,0,0:0:0:0:
475,192,196900,1,0,0:0:0:0:
402,192,196985,1,0,0:0:0:0:
182,192,196985,1,0,0:0:0:0:
329,192,197071,1,0,0:0:0:0:
109,192,197071,1,0,0:0:0:0:
256,192,197157,1,0,0:0:0:0:
36,192,197157,1,0,0:0:0:0:
182,192,197242,1,0,0:0:0:0:
329,192,197242,1,0,0:0:0:0:
109,192,197328,1,0,0:0:0:0:
402,192,197328,128,0,197500:0:0:0:0:
182,192,197414,1,0,0:0:0:0:
256,192,197500,1,0,0:0:0:0:
329,192,197500,128,0,197671:0:0:0:0:
182,192,197585,128,0,197757:0:0:0:0:
109,192,197671,128,0,197842:0:0:0:0:
329,192,197757,128,0,197928:0:0:0:0:
402,192,197842,128,0,198014:0:0:0:0:
36,192,197928,128,0,198100:0:0:0:0:
182,192,198014,128,0,198185:0:0:0:0:
256,192,198100,128,0,198271:0:0:0:0:
109,192,198185,128,0,198357:0:0:0:0:
329,192,198185,1,0,0:0:0:0:
475,192,198185,1,0,0:0:0:0:
402,192,198271,128,0,198442:0:0:0:0:
329,192,198357,128,0,198528:0:0:0:0:
256,192,198442,128,0,198614:0:0:0:0:
36,192,198528,128,0,198700:0:0:0:0:
109,192,198614,128,0,198785:0:0:0:0:
329,192,198700,128,0,198871:0:0:0:0:
402,192,198785,128,0,198957:0:0:0:0:
182,192,198871,1,0,0:0:0:0:
475,192,198871,1,0,0:0:0:0:
256,192,198871,1,0,0:0:0:0:
109,192,198957,1,0,0:0:0:0:
329,192,198957,1,0,0:0:0:0:
256,192,199042,1,0,0:0:0:0:
36,192,199042,1,0,0:0:0:0:
109,192,199128,1,0,0:0:0:0:
329,192,199128,1,0,0:0:0:0:
36,192,199214,1,0,0:0:0:0:
256,192,199214,1,0,0:0:0:0:
109,192,199300,1,0,0:0:0:0:
329,192,199300,1,0,0:0:0:0:
182,192,199385,1,0,0:0:0:0:
475,192,199385,1,0,0:0:0:0:
109,192,199471,1,0,0:0:0:0:
329,192,199471,1,0,0:0:0:0:
256,192,199557,1,0,0:0:0:0:
402,192,199557,1,0,0:0:0:0:
36,192,199642,1,0,0:0:0:0:
329,192,199642,1,0,0:0:0:0:
109,192,199728,1,0,0:0:0:0:
402,192,199728,1,0,0:0:0:0:
182,192,199814,1,0,0:0:0:0:
329,192,199814,1,0,0:0:0:0:
256,192,199900,1,0,0:0:0:0:
109,192,199900,1,0,0:0:0:0:
36,192,199985,1,0,0:0:0:0:
329,192,199985,1,0,0:0:0:0:
402,192,200071,1,0,0:0:0:0:
109,192,200071,128,0,200242:0:0:0:0:
256,192,200157,1,0,0:0:0:0:
475,192,200157,1,0,0:0:0:0:
329,192,200242,1,0,0:0:0:0:
182,192,200242,128,0,200585:0:0:0:0:
36,192,200242,1,0,0:0:0:0:
256,192,200328,128,0,200671:0:0:0:0:
402,192,200414,128,0,200757:0:0:0:0:
329,192,200500,128,0,200842:0:0:0:0:
36,192,200585,128,0,200928:0:0:0:0:
109,192,200671,128,0,201014:0:0:0:0:
256,192,200757,128,0,201100:0:0:0:0:
182,192,200842,128,0,201185:0:0:0:0:
329,192,200928,1,0,0:0:0:0:
475,192,200928,128,0,201271:0:0:0:0:
402,192,201014,128,0,201357:0:0:0:0:
329,192,201100,128,0,201442:0:0:0:0:
109,192,201185,128,0,201528:0:0:0:0:
182,192,201271,128,0,201614:0:0:0:0:
256,192,201357,128,0,201528:0:0:0:0:
402,192,201442,128,0,201614:0:0:0:0:
329,192,201528,128,0,201614:0:0:0:0:
36,192,201614,1,0,0:0:0:0:
475,192,201614,1,0,0:0:0:0:
109,192,201614,1,0,0:0:0:0:
256,192,201614,128,0,201700:0:0:0:0:
329,192,201700,1,0,0:0:0:0:
182,192,201700,128,0,201785:0:0:0:0:
256,192,201785,1,0,0:0:0:0:
109,192,201785,128,0,201871:0:0:0:0:
475,192,201785,1,0,0:0:0:0:
329,192,201871,1,0,0:0:0:0:
182,192,201871,128,0,201957:0:0:0:0:
256,192,201957,1,0,0:0:0:0:
402,192,201957,128,0,202042:0:0:0:0:
36,192,201957,1,0,0:0:0:0:
182,192,202042,1,0,0:0:0:0:
329,192,202042,128,0,202128:0:0:0:0:
109,192,202128,1,0,0:0:0:0:
256,192,202128,128,0,202214:0:0:0:0:
475,192,202128,1,0,0:0:0:0:
36,192,202214,1,0,0:0:0:0:
182,192,202214,128,0,202300:0:0:0:0:
256,192,202300,1,0,0:0:0:0:
109,192,202300,128,0,202385:0:0:0:0:
402,192,202300,1,0,0:0:0:0:
329,192,202385,1,0,0:0:0:0:
182,192,202385,128,0,202471:0:0:0:0:
402,192,202471,1,0,0:0:0:0:
256,192,202471,128,0,202557:0:0:0:0:
36,192,202471,1,0,0:0:0:0:
475,192,202557,1,0,0:0:0:0:
329,192,202557,128,0,202642:0:0:0:0:
256,192,202642,1,0,0:0:0:0:
402,192,202642,128,0,202728:0:0:0:0:
109,192,202642,1,0,0:0:0:0:
182,192,202728,1,0,0:0:0:0:
329,192,202728,128,0,202814:0:0:0:0:
109,192,202814,1,0,0:0:0:0:
256,192,202814,128,0,202900:0:0:0:0:
475,192,202814,1,0,0:0:0:0:
36,192,202900,1,0,0:0:0:0:
182,192,202900,128,0,202985:0:0:0:0:
475,192,202985,1,0,0:0:0:0:
109,192,202985,128,0,203071:0:0:0:0:
256,192,202985,1,0,0:0:0:0:
329,192,202985,128,0,203071:0:0:0:0:
402,192,203071,1,0,0:0:0:0:
256,192,203071,128,0,203157:0:0:0:0:
36,192,203071,128,0,203157:0:0:0:0:
475,192,203071,1,0,0:0:0:0:
329,192,203157,128,0,203242:0:0:0:0:
182,192,203157,1,0,0:0:0:0:
475,192,203157,128,0,203242:0:0:0:0:
402,192,203157,1,0,0:0:0:0:
109,192,203242,1,0,0:0:0:0:
36,192,203242,128,0,203328:0:0:0:0:
182,192,203242,128,0,203328:0:0:0:0:
256,192,203242,1,0,0:0:0:0:
475,192,203328,1,0,0:0:0:0:
402,192,203328,128,0,203414:0:0:0:0:
329,192,203328,1,0,0:0:0:0:
256,192,203328,128,0,203414:0:0:0:0:
109,192,203414,128,0,203500:0:0:0:0:
475,192,203414,1,0,0:0:0:0:
182,192,203414,128,0,203500:0:0:0:0:
36,192,203414,1,0,0:0:0:0:
329,192,203500,1,0,0:0:0:0:
402,192,203500,128,0,203585:0:0:0:0:
256,192,203500,128,0,203585:0:0:0:0:
36,192,203500,1,0,0:0:0:0:
36,192,203585,128,0,203671:0:0:0:0:
182,192,203585,1,0,0:0:0:0:
109,192,203585,128,0,203671:0:0:0:0:
475,192,203585,1,0,0:0:0:0:
475,192,203671,1,0,0:0:0:0:
182,192,203671,128,0,203928:0:0:0:0:
329,192,203671,128,0,203757:0:0:0:0:
256,192,203671,128,0,203757:0:0:0:0:
402,192,203714,1,0,0:0:0:0:
109,192,203757,1,0,0:0:0:0:
36,192,203800,1,0,0:0:0:0:
475,192,203842,1,0,0:0:0:0:
256,192,203842,128,0,204100:0:0:0:0:
329,192,203842,128,0,203928:0:0:0:0:
402,192,203885,1,0,0:0:0:0:
109,192,203928,1,0,0:0:0:0:
36,192,203971,1,0,0:0:0:0:
475,192,203971,1,0,0:0:0:0:
402,192,204014,1,0,0:0:0:0:
329,192,204014,128,0,204271:0:0:0:0:
182,192,204014,128,0,204100:0:0:0:0:
109,192,204057,1,0,0:0:0:0:
36,192,204100,1,0,0:0:0:0:
475,192,204142,1,0,0:0:0:0:
402,192,204185,1,0,0:0:0:0:
256,192,204185,128,0,204357:0:0:0:0:
182,192,204185,128,0,204271:0:0:0:0:
109,192,204228,1,0,0:0:0:0:
36,192,204271,1,0,0:0:0:0:
475,192,204314,1,0,0:0:0:0:
402,192,204357,1,0,0:0:0:0:
182,192,204357,1,0,0:0:0:0:
329,192,204357,1,0,0:0:0:0:
36,192,205042,1,0,0:0:0:0:
256,192,205042,1,0,0:0:0:0:
182,192,205042,1,0,0:0:0:0:
329,192,205042,1,0,0:0:0:0:
475,192,205042,1,0,0:0:0:0:
36,192,205728,1,0,0:0:0:0:
109,192,205728,1,0,0:0:0:0:
475,192,205728,1,0,0:0:0:0:
402,192,205728,1,0,0:0:0:0:
182,192,205728,128,0,207785:0:0:0:0:
329,192,205728,128,0,207785:0:0:0:0:
