osu file format v12

[General]
AudioFilename: Anhedonia.mp3
AudioLeadIn: 0
PreviewTime: 513999
Countdown: 0
SampleSet: Soft
StackLeniency: 0.7
Mode: 0
LetterboxInBreaks: 1
WidescreenStoryboard: 0

[Editor]
Bookmarks: 300666,404833,405083,406583,450583,461333,491583,491916,557083,578333,578499,589083
DistanceSpacing: 0.5
BeatDivisor: 4
GridSize: 16

[Metadata]
Title:Anhedonia
TitleUnicode:Anhedonia
Artist:a_hisa
ArtistUnicode:a_hisa
Creator:Xleonq
Version:Core
Source:
Tags:
BeatmapID:351408
BeatmapSetID:140766

[Difficulty]
HPDrainRate:7
CircleSize:5
OverallDifficulty:6
ApproachRate:8
SliderMultiplier:1.4
SliderTickRate:2

[Events]
//Background and Video events
0,0,"bg.jpg",0,0
//Break Periods
2,194116,203916
2,253616,277916
2,493199,512583
//Storyboard Layer 0 (Background)
//Storyboard Layer 1 (Fail)
//Storyboard Layer 2 (Pass)
//Storyboard Layer 3 (Foreground)
//Storyboard Sound Samples
//Background Colour Transformations
3,100,163,162,255

[TimingPoints]
0,333.333333333333,4,2,0,100,1,0
16666,-200,4,2,0,100,0,0
64333,-50,4,2,0,25,0,0
65416,-100,4,2,0,50,0,0
172666,-100,4,2,0,50,0,1
193999,-100,4,2,0,50,0,0
236833,-100,4,2,0,50,0,1
247666,-100,4,2,0,50,0,0
364333,-100,4,2,0,25,0,0
364999,-100,4,2,0,50,0,0
406583,-100,4,2,0,50,0,1
429166,-200,4,2,0,50,0,0
471999,-100,4,2,0,50,0,0
514666,-100,4,2,0,50,0,1
544999,-100,4,2,0,50,0,0
546666,-100,4,2,0,50,0,1
556999,-100,4,2,0,50,0,0
567666,-100,4,2,0,50,0,1
578333,-100,4,2,0,50,0,0

[HitObjects]
128,128,16666,2,0,B|160:112|272:80|304:80,1,163.333333333333
384,96,18000,2,0,P|400:176|384:240,1,140
288,256,19333,2,0,P|208:256|144:224,1,140
144,160,20666,2,0,P|160:112|224:48,1,140
320,128,21999,2,0,P|304:176|336:256,1,140
384,192,22999,1,0,0:0:0:0:
208,208,23333,2,0,P|224:144|208:64,1,140
128,160,24666,2,0,P|112:224|144:304,1,140
224,224,25999,2,0,P|240:176|320:112,1,140
384,144,27333,6,0,L|368:176,3,23.3333333333333
432,176,27999,1,0,0:0:0:0:
432,224,28333,1,0,0:0:0:0:
416,272,28666,1,0,0:0:0:0:
296,241,28999,2,0,P|312:195|328:180,1,70
259,134,29666,2,0,P|239:167|205:178,1,70
192,144,30333,1,0,0:0:0:0:
137,333,30666,1,0,0:0:0:0:
256,176,30999,1,0,0:0:0:0:
137,333,31333,1,0,0:0:0:0:
320,224,31666,1,0,0:0:0:0:
137,333,31999,1,0,0:0:0:0:
368,288,32333,1,0,0:0:0:0:
137,333,32666,1,0,0:0:0:0:
97,185,32999,6,0,P|114:146|175:67,1,140
219,135,33999,1,0,0:0:0:0:
317,130,34333,1,0,0:0:0:0:
219,135,34666,1,0,0:0:0:0:
317,130,34999,1,0,0:0:0:0:
388,162,35333,2,0,P|368:210|303:277,1,140
201,268,36333,1,0,0:0:0:0:
201,268,36666,2,0,P|177:206|206:138,1,140
294,82,37666,1,0,0:0:0:0:
301,229,37999,2,0,P|345:186|376:101,1,140
294,82,38999,5,0,0:0:0:0:
201,104,39333,2,0,P|199:162|179:251,1,140
116,230,40333,1,0,0:0:0:0:
177,320,40666,1,0,0:0:0:0:
237,227,40999,1,0,0:0:0:0:
116,230,41333,1,0,0:0:0:0:
177,320,41666,1,0,0:0:0:0:
237,227,41999,1,0,0:0:0:0:
180,176,42333,2,0,L|183:29,1,140
255,189,43333,6,0,L|399:189,1,140
403,284,44333,1,0,0:0:0:0:
319,315,44666,1,0,0:0:0:0:
234,306,44999,1,0,0:0:0:0:
234,306,45333,2,0,B|221:253|203:243|203:242|246:172,1,140
354,84,46333,2,0,B|368:146|381:166|381:166|336:215,1,140
254,192,47333,1,0,0:0:0:0:
254,192,47666,1,0,0:0:0:0:
254,192,47999,1,0,0:0:0:0:
254,192,48333,1,0,0:0:0:0:
254,192,48666,1,0,0:0:0:0:
256,192,48999,12,0,53111,0:0:0:0:
111,71,53999,6,0,P|114:98|133:137,1,70
220,139,54666,1,0,0:0:0:0:
345,135,54999,1,0,0:0:0:0:
281,229,55333,1,0,0:0:0:0:
220,139,55666,1,0,0:0:0:0:
170,230,55999,1,0,0:0:0:0:
220,139,56333,1,0,0:0:0:0:
406,58,56666,6,0,P|401:113|388:213,1,140
270,282,57999,2,0,L|316:135,1,140
213,100,59333,2,0,P|195:149|119:195,1,140
119,252,60666,2,0,P|203:255|236:313,1,140
290,286,61999,2,0,P|304:244|398:213,1,140
366,145,62999,2,0,P|304:134|290:124,2,70
366,146,63999,1,0,0:0:0:0:
428,60,64333,6,4,L|426:104,24,35
96,69,65999,6,0,P|166:86|235:163,1,175
147,172,66583,1,0,0:0:0:0:
197,236,66750,1,0,0:0:0:0:
237,178,66916,1,0,0:0:0:0:
283,236,67083,2,0,P|323:180|354:153,1,105
343,249,67499,2,0,P|288:290|199:303,1,140
147,258,67999,1,0,0:0:0:0:
134,232,68083,1,0,0:0:0:0:
121,207,68166,1,0,0:0:0:0:
107,184,68249,1,0,0:0:0:0:
425,48,68666,5,0,0:0:0:0:
425,48,68916,2,0,P|401:122|360:189,1,140
288,176,69416,1,0,0:0:0:0:
192,176,69583,1,0,0:0:0:0:
192,96,69749,1,0,0:0:0:0:
288,96,69916,1,0,0:0:0:0:
288,176,70083,1,0,0:0:0:0:
192,176,70249,1,0,0:0:0:0:
192,96,70416,1,0,0:0:0:0:
288,96,70583,1,0,0:0:0:0:
288,176,70749,1,0,0:0:0:0:
288,176,70833,1,0,0:0:0:0:
288,176,70916,1,0,0:0:0:0:
288,176,70999,1,0,0:0:0:0:
192,320,71333,1,0,0:0:0:0:
64,336,71666,6,0,L|64:144,1,175
136,131,72249,2,0,L|230:78,1,105
138,170,72749,2,0,L|259:181,1,105
133,210,73166,1,0,0:0:0:0:
187,276,73333,1,0,0:0:0:0:
212,248,73416,1,0,0:0:0:0:
234,222,73499,1,0,0:0:0:0:
252,195,73583,1,0,0:0:0:0:
434,332,73999,5,0,0:0:0:0:
434,332,74249,2,0,L|433:145,1,175
363,144,74833,1,0,0:0:0:0:
256,146,75000,1,0,0:0:0:0:
363,144,75166,1,0,0:0:0:0:
256,146,75333,1,0,0:0:0:0:
363,144,75500,1,0,0:0:0:0:
256,146,75666,1,0,0:0:0:0:
363,144,75833,1,0,0:0:0:0:
363,144,76000,1,0,0:0:0:0:
363,144,76083,1,0,0:0:0:0:
363,144,76167,1,0,0:0:0:0:
363,144,76250,1,0,0:0:0:0:
363,144,76333,1,0,0:0:0:0:
64,64,76666,6,0,L|160:64,1,70
208,64,76999,2,0,L|288:64,1,70
368,64,77333,2,0,L|368:144,1,70
368,208,77666,2,0,L|368:304,1,70
368,352,77999,2,0,L|288:352,1,70
208,352,78333,6,0,L|128:352,1,70
64,352,78666,2,0,L|64:272,1,70
64,208,78999,2,0,L|160:208,1,70
144,288,79333,2,0,L|240:288,1,70
208,208,79666,2,0,L|288:208,1,70
320,288,79999,6,0,L|400:288,1,70
352,208,80333,2,0,L|448:208,1,70
464,288,80666,2,0,L|464:192,1,70
464,128,80999,2,0,L|464:48,1,70
384,80,81333,2,0,L|288:80,1,70
224,80,81666,6,0,L|144:80,1,70
64,80,81999,2,0,L|64:160,1,70
144,160,82333,2,0,L|240:160,1,70
304,160,82666,2,0,L|384:160,1,70
464,160,82999,2,0,L|464:256,1,70
464,304,83333,6,0,L|384:304,1,70
320,304,83666,2,0,L|320:224,1,70
240,240,83999,2,0,L|160:240,1,70
96,240,84333,2,0,L|96:144,1,70
160,160,84666,2,0,L|256:160,1,70
320,160,84999,6,0,L|320:80,1,70
224,80,85333,2,0,L|128:80,1,70
128,16,85666,2,0,L|224:16,1,70
288,16,85999,2,0,L|384:16,1,70
448,32,86333,2,0,L|448:112,1,70
448,192,86666,6,0,L|352:192,1,70
304,176,86999,2,0,L|304:96,1,70
224,112,87333,2,0,L|144:112,1,70
192,176,87666,2,0,L|192:256,1,70
272,256,87999,2,0,L|368:256,1,70
432,256,88333,6,0,L|432:160,1,70
352,160,88666,2,0,L|272:160,1,70
192,208,88999,2,0,L|192:288,1,70
144,336,89333,2,0,L|48:336,1,70
64,272,89666,2,0,L|64:192,1,70
64,128,89999,6,0,L|160:128,1,70
208,128,90333,2,0,L|208:48,1,70
288,64,90666,2,0,L|384:64,1,70
448,64,90999,2,0,L|448:144,1,70
384,144,91333,2,0,L|304:144,1,70
80,112,91666,6,0,L|128:64|144:48,1,70
96,224,91999,2,0,L|160:160,1,70
208,112,92333,2,0,L|256:48,1,70
464,256,92666,6,0,L|432:336,1,70
432,160,92999,2,0,L|400:224,1,70
368,288,93333,2,0,L|336:352,1,70
192,320,93666,6,0,L|128:272,1,70
272,288,93999,2,0,L|208:240,1,70
160,208,94333,2,0,L|96:160,1,70
400,32,94666,6,0,L|464:80,1,70
304,48,94999,2,0,L|368:96,1,70
416,128,95333,2,0,L|480:176,1,70
112,304,95666,1,0,0:0:0:0:
112,64,95833,1,0,0:0:0:0:
112,64,95999,1,0,0:0:0:0:
112,64,96166,1,0,0:0:0:0:
112,304,96333,1,0,0:0:0:0:
224,304,96499,5,0,0:0:0:0:
448,304,96666,1,0,0:0:0:0:
224,304,96833,1,0,0:0:0:0:
224,304,96999,1,0,0:0:0:0:
224,304,97166,1,0,0:0:0:0:
448,304,97333,1,0,0:0:0:0:
448,304,97499,1,0,0:0:0:0:
448,224,97666,5,0,0:0:0:0:
448,192,97749,1,0,0:0:0:0:
448,160,97833,1,0,0:0:0:0:
448,128,97916,1,0,0:0:0:0:
352,48,98083,6,0,L|240:48,1,105
160,48,98499,2,0,L|48:48,1,105
256,192,98999,12,0,100499,0:0:0:0:
128,320,100666,6,0,L|240:320,1,105
304,320,101083,2,0,L|432:320,1,105
256,192,101499,12,0,103249,0:0:0:0:
416,80,103416,6,0,L|416:192,1,105
416,256,103833,2,0,L|416:368,1,105
256,192,104249,12,0,105916,0:0:0:0:
80,336,106083,6,0,L|80:208,1,105
80,144,106499,2,0,L|80:32,1,105
256,192,106916,12,0,108666,0:0:0:0:
96,64,108833,6,0,L|96:144,1,70
96,208,109166,2,0,L|96:304,1,70
176,272,109499,2,0,L|256:272,1,70
256,208,109833,2,0,L|256:128,1,70
336,128,110166,2,0,L|416:128,1,70
384,192,110499,2,0,L|384:272,1,70
464,208,110832,1,0,0:0:0:0:
464,208,110916,1,0,0:0:0:0:
464,208,110999,1,0,0:0:0:0:
96,304,111333,6,0,L|96:224,1,70
96,160,111666,2,0,L|96:80,1,70
176,80,111999,2,0,L|256:80,1,70
176,160,112333,2,0,L|256:160,1,70
176,240,112666,2,0,L|256:240,1,70
176,320,112999,2,0,L|256:320,1,70
240,288,113499,5,0,0:0:0:0:
352,176,113665,1,0,0:0:0:0:
448,304,113832,1,0,0:0:0:0:
256,160,113999,2,0,L|256:64,1,70
256,160,114333,2,0,L|176:160,1,70
256,160,114666,2,0,L|256:240,1,70
256,160,114999,2,0,L|352:160,1,70
256,160,115333,2,0,L|256:64,1,70
256,160,115583,1,0,0:0:0:0:
256,160,115666,1,0,0:0:0:0:
256,160,115749,1,0,0:0:0:0:
256,160,115833,1,0,0:0:0:0:
256,160,115916,1,0,0:0:0:0:
256,160,115999,1,0,0:0:0:0:
256,160,116083,1,0,0:0:0:0:
256,160,116166,1,0,0:0:0:0:
256,160,116249,1,0,0:0:0:0:
256,160,116333,1,0,0:0:0:0:
80,288,116499,6,0,L|160:240,1,70
224,288,116833,1,0,0:0:0:0:
304,240,116999,2,0,L|352:304,1,70
384,224,117333,1,0,0:0:0:0:
448,160,117499,2,0,L|384:128,1,70
432,64,117833,1,0,0:0:0:0:
304,64,117999,5,0,0:0:0:0:
304,64,118083,1,0,0:0:0:0:
304,64,118166,1,0,0:0:0:0:
304,64,118249,1,0,0:0:0:0:
304,64,118333,1,0,0:0:0:0:
208,96,118416,1,0,0:0:0:0:
208,96,118499,1,0,0:0:0:0:
208,96,118583,1,0,0:0:0:0:
208,96,118666,1,0,0:0:0:0:
208,96,118749,1,0,0:0:0:0:
208,96,118833,1,0,0:0:0:0:
208,96,118916,1,0,0:0:0:0:
208,96,118999,1,0,0:0:0:0:
208,96,119083,1,0,0:0:0:0:
208,96,119166,1,0,0:0:0:0:
208,96,119249,1,0,0:0:0:0:
208,96,119333,1,0,0:0:0:0:
80,256,119499,6,0,L|176:288,1,70
224,256,119833,1,0,0:0:0:0:
368,224,119999,1,0,0:0:0:0:
432,64,120166,1,0,0:0:0:0:
272,144,120333,1,0,0:0:0:0:
288,224,120499,2,0,L|320:320,1,70
192,160,120833,2,0,L|112:96,1,70
336,128,121166,2,0,L|384:64,1,70
432,192,121499,1,0,0:0:0:0:
432,192,121583,1,0,0:0:0:0:
432,192,121666,1,0,0:0:0:0:
352,288,121833,6,0,L|256:256,1,70
256,112,122166,2,0,L|208:192,1,70
416,112,122499,2,0,L|336:80,1,70
336,192,122833,1,0,0:0:0:0:
336,192,122916,1,0,0:0:0:0:
336,192,122999,1,0,0:0:0:0:
256,256,123166,5,0,0:0:0:0:
112,304,123333,1,0,0:0:0:0:
256,256,123499,1,0,0:0:0:0:
288,80,123666,1,0,0:0:0:0:
160,160,123833,1,0,0:0:0:0:
256,176,123999,1,0,0:0:0:0:
256,176,124083,1,0,0:0:0:0:
256,176,124166,1,0,0:0:0:0:
448,64,124333,5,0,0:0:0:0:
448,192,124499,1,0,0:0:0:0:
448,320,124666,1,0,0:0:0:0:
320,320,124833,1,0,0:0:0:0:
208,320,124999,1,0,0:0:0:0:
112,320,125166,1,0,0:0:0:0:
112,320,125249,1,0,0:0:0:0:
64,256,125416,1,0,0:0:0:0:
64,256,125499,1,0,0:0:0:0:
80,176,125666,1,0,0:0:0:0:
80,176,125749,1,0,0:0:0:0:
64,48,125916,5,0,0:0:0:0:
176,48,126083,1,0,0:0:0:0:
288,48,126249,1,0,0:0:0:0:
384,48,126416,1,0,0:0:0:0:
464,48,126582,1,0,0:0:0:0:
464,48,126666,1,0,0:0:0:0:
464,128,126832,1,0,0:0:0:0:
464,128,126916,1,0,0:0:0:0:
464,208,127082,1,0,0:0:0:0:
464,208,127166,1,0,0:0:0:0:
368,272,127333,6,0,L|320:208,1,70
240,224,127666,2,0,L|192:288,1,70
128,256,127999,2,0,L|112:208,1,35
192,304,128249,2,0,L|256:288,1,35
192,240,128499,2,0,L|224:208,1,35
112,80,128749,5,0,0:0:0:0:
432,336,128999,1,0,0:0:0:0:
432,48,129249,1,0,0:0:0:0:
96,336,129499,1,0,0:0:0:0:
96,336,129749,1,0,0:0:0:0:
400,112,129916,5,0,0:0:0:0:
384,144,129999,1,0,0:0:0:0:
368,176,130083,1,0,0:0:0:0:
352,208,130166,1,0,0:0:0:0:
224,64,130333,2,0,L|144:64,1,70
256,144,130499,5,0,0:0:0:0:
144,192,130666,1,0,0:0:0:0:
272,224,130833,1,0,0:0:0:0:
160,272,131000,1,0,0:0:0:0:
256,320,131166,1,0,0:0:0:0:
288,304,131249,1,0,0:0:0:0:
320,288,131333,1,0,0:0:0:0:
352,272,131416,1,0,0:0:0:0:
384,256,131499,1,0,0:0:0:0:
416,240,131583,1,0,0:0:0:0:
448,224,131666,1,0,0:0:0:0:
480,208,131749,1,0,0:0:0:0:
464,176,131833,1,0,0:0:0:0:
384,48,131916,6,0,P|368:96|336:128,1,70
288,64,132249,1,0,0:0:0:0:
208,160,132416,1,0,0:0:0:0:
288,240,132583,1,0,0:0:0:0:
288,64,132749,1,0,0:0:0:0:
288,64,132833,1,0,0:0:0:0:
288,64,132916,1,0,0:0:0:0:
288,64,132999,1,0,0:0:0:0:
288,64,133083,1,0,0:0:0:0:
288,64,133166,1,0,0:0:0:0:
288,64,133249,1,0,0:0:0:0:
288,64,133333,1,0,0:0:0:0:
288,64,133416,1,0,0:0:0:0:
288,64,133499,1,0,0:0:0:0:
288,64,133583,1,0,0:0:0:0:
288,64,133666,1,0,0:0:0:0:
240,112,133749,2,0,L|208:144,1,35
304,144,133916,2,0,L|304:192,1,35
368,112,134083,2,0,L|400:144,1,35
400,48,134249,2,0,L|432:80,1,35
448,192,134416,6,0,L|416:240,1,35
400,256,134583,1,0,0:0:0:0:
352,272,134666,1,0,0:0:0:0:
304,272,134749,1,0,0:0:0:0:
256,256,134833,1,0,0:0:0:0:
224,224,134916,1,0,0:0:0:0:
208,176,134999,1,0,0:0:0:0:
224,128,135083,1,0,0:0:0:0:
256,96,135166,1,0,0:0:0:0:
304,80,135249,1,0,0:0:0:0:
352,96,135333,1,0,0:0:0:0:
368,144,135416,1,0,0:0:0:0:
336,176,135499,1,0,0:0:0:0:
288,192,135583,1,0,0:0:0:0:
240,192,135666,1,0,0:0:0:0:
208,176,135749,5,0,0:0:0:0:
176,144,135833,1,0,0:0:0:0:
128,160,135916,1,0,0:0:0:0:
96,208,135999,1,0,0:0:0:0:
96,256,136083,1,0,0:0:0:0:
128,288,136166,1,0,0:0:0:0:
176,320,136249,1,0,0:0:0:0:
224,320,136333,1,0,0:0:0:0:
256,304,136416,1,0,0:0:0:0:
288,272,136499,1,0,0:0:0:0:
336,272,136583,1,0,0:0:0:0:
368,304,136666,1,0,0:0:0:0:
416,320,136749,1,0,0:0:0:0:
448,288,136833,1,0,0:0:0:0:
464,256,136916,5,0,0:0:0:0:
464,208,136999,1,0,0:0:0:0:
448,160,137083,1,0,0:0:0:0:
416,144,137166,1,0,0:0:0:0:
384,128,137249,1,0,0:0:0:0:
384,96,137333,1,0,0:0:0:0:
384,48,137416,1,0,0:0:0:0:
336,48,137499,1,0,0:0:0:0:
288,64,137583,1,0,0:0:0:0:
256,96,137666,1,0,0:0:0:0:
240,144,137749,1,0,0:0:0:0:
240,192,137833,1,0,0:0:0:0:
224,240,137916,1,0,0:0:0:0:
192,256,137999,1,0,0:0:0:0:
144,208,138166,1,0,0:0:0:0:
176,80,138333,1,0,0:0:0:0:
80,208,138499,1,0,0:0:0:0:
112,80,138666,1,0,0:0:0:0:
144,208,138833,1,0,0:0:0:0:
176,80,138999,1,0,0:0:0:0:
208,160,139166,5,0,0:0:0:0:
288,96,139333,1,0,0:0:0:0:
288,192,139499,1,0,0:0:0:0:
368,128,139666,1,0,0:0:0:0:
384,224,139833,1,0,0:0:0:0:
448,160,139999,1,0,0:0:0:0:
464,256,140166,1,0,0:0:0:0:
80,288,140333,2,0,P|112:256|160:240,2,70
208,272,140833,2,0,P|192:224|160:192,2,70
272,224,141333,2,0,P|304:208|352:208,2,70
320,128,141833,6,0,P|304:96|272:64,2,70
224,128,142333,2,0,P|176:160|144:160,2,70
112,224,142833,2,0,B|128:256|144:272|176:288,2,70
240,288,143333,2,0,P|288:256|304:224,2,70
352,176,143833,2,0,P|384:144|416:144,2,70
448,208,144333,2,0,P|432:256|400:272,2,70
336,256,144833,5,0,0:0:0:0:
320,64,144999,1,0,0:0:0:0:
240,160,145166,1,0,0:0:0:0:
416,112,145333,1,0,0:0:0:0:
192,256,145499,1,0,0:0:0:0:
80,176,145666,5,0,0:0:0:0:
80,176,145749,1,0,0:0:0:0:
80,176,145833,1,0,0:0:0:0:
80,176,145916,1,0,0:0:0:0:
80,176,145999,1,0,0:0:0:0:
128,112,146166,2,0,P|160:96|208:96,1,70
176,176,146499,2,0,P|192:208|224:224,1,70
288,144,146833,2,0,P|288:208|272:240,1,70
256,288,147166,2,0,P|304:288|336:272,1,70
368,208,147499,2,0,P|384:176|432:144,1,70
416,256,147833,6,0,P|400:304|368:336,1,70
96,208,148166,2,0,P|128:160|160:144,1,70
208,192,148499,2,0,L|272:256,1,70
320,176,148833,2,0,L|256:112,1,70
144,240,149166,2,0,L|208:304,1,70
384,128,149499,2,0,L|304:64,1,70
112,320,149833,5,0,0:0:0:0:
176,192,149999,1,0,0:0:0:0:
256,320,150166,1,0,0:0:0:0:
320,176,150333,1,0,0:0:0:0:
432,304,150499,1,0,0:0:0:0:
320,176,150666,1,0,0:0:0:0:
464,160,150833,1,0,0:0:0:0:
320,176,150999,1,0,0:0:0:0:
448,32,151166,1,0,0:0:0:0:
320,176,151333,2,0,L|320:320,1,140
192,288,151833,6,0,P|128:256|112:192,1,140
160,144,152333,2,0,L|224:96,2,70
256,112,152833,2,0,L|304:176,2,70
336,160,153333,2,0,L|368:96,2,70
416,112,153833,2,0,L|448:192,2,70
432,256,154333,2,0,P|384:272|272:240,1,140
176,224,154750,1,0,0:0:0:0:
192,192,154833,1,0,0:0:0:0:
208,224,154916,1,0,0:0:0:0:
224,192,155000,1,0,0:0:0:0:
240,224,155083,1,0,0:0:0:0:
256,192,155166,1,0,0:0:0:0:
272,224,155250,1,0,0:0:0:0:
288,192,155333,1,0,0:0:0:0:
304,224,155416,1,0,0:0:0:0:
320,192,155500,1,0,0:0:0:0:
336,224,155583,5,0,0:0:0:0:
352,192,155666,1,0,0:0:0:0:
368,224,155750,1,0,0:0:0:0:
384,192,155833,1,0,0:0:0:0:
400,224,155916,1,0,0:0:0:0:
416,192,156000,1,0,0:0:0:0:
432,224,156083,1,0,0:0:0:0:
448,192,156166,1,0,0:0:0:0:
464,224,156249,1,0,0:0:0:0:
464,320,156333,6,0,L|208:320,1,245
256,336,157166,5,0,0:0:0:0:
80,256,157333,1,0,0:0:0:0:
256,176,157499,1,0,0:0:0:0:
464,96,157666,1,0,0:0:0:0:
256,64,157833,1,0,0:0:0:0:
96,48,157999,1,0,0:0:0:0:
112,160,158166,6,0,P|144:240|176:256,1,105
224,224,158582,1,0,0:0:0:0:
352,160,158749,1,0,0:0:0:0:
224,224,158916,1,0,0:0:0:0:
288,304,159082,1,0,0:0:0:0:
400,336,159249,1,0,0:0:0:0:
496,288,159416,1,0,0:0:0:0:
480,224,159582,2,0,P|464:176|400:112,1,140
320,112,160083,1,0,0:0:0:0:
320,112,160249,1,0,0:0:0:0:
320,112,160416,1,0,0:0:0:0:
240,160,160583,5,0,0:0:0:0:
192,208,160666,1,0,0:0:0:0:
144,256,160749,1,0,0:0:0:0:
96,304,160833,1,0,0:0:0:0:
160,320,160916,1,0,0:0:0:0:
224,320,160999,1,0,0:0:0:0:
288,320,161083,1,0,0:0:0:0:
352,320,161166,1,0,0:0:0:0:
416,320,161249,1,0,0:0:0:0:
384,256,161333,1,0,0:0:0:0:
336,208,161416,1,0,0:0:0:0:
288,160,161499,1,0,0:0:0:0:
240,112,161583,1,0,0:0:0:0:
192,64,161666,1,0,0:0:0:0:
144,16,161749,1,0,0:0:0:0:
64,96,161833,5,0,0:0:0:0:
80,128,161917,1,0,0:0:0:0:
96,160,162000,1,0,0:0:0:0:
112,192,162083,1,0,0:0:0:0:
176,176,162249,2,0,P|208:144|240:128,1,70
240,208,162583,2,0,P|208:240|160:256,1,70
384,112,162916,6,0,P|400:64|416:48,1,70
448,128,163249,2,0,P|432:176|416:192,1,70
352,176,163583,2,0,P|320:160|288:128,1,70
336,80,163916,2,0,P|304:64|240:64,1,70
224,128,164249,2,0,P|224:176|240:208,1,70
304,192,164583,2,0,P|272:240|240:256,1,70
192,224,164916,2,0,P|208:272|240:304,1,70
304,288,165249,1,0,0:0:0:0:
304,288,165333,1,0,0:0:0:0:
304,288,165416,1,0,0:0:0:0:
304,288,165499,1,0,0:0:0:0:
384,256,165666,5,0,0:0:0:0:
400,192,165833,1,0,0:0:0:0:
400,128,165999,1,0,0:0:0:0:
400,128,166249,1,0,0:0:0:0:
400,128,166499,1,0,0:0:0:0:
352,64,166666,1,0,0:0:0:0:
352,64,166750,1,0,0:0:0:0:
352,64,166833,1,0,0:0:0:0:
352,64,166916,1,0,0:0:0:0:
96,128,167333,5,0,0:0:0:0:
96,128,167416,1,0,0:0:0:0:
96,128,167499,1,0,0:0:0:0:
160,144,167666,2,0,L|240:128,1,70
160,208,167999,2,0,L|240:208,1,70
160,272,168333,2,0,L|240:304,1,70
432,176,168666,6,0,L|352:144,1,70
432,240,168999,2,0,L|352:240,1,70
432,304,169333,2,0,L|368:336,1,70
224,64,169666,6,0,L|192:128,1,70
288,64,169999,2,0,L|288:144,1,70
352,64,170333,2,0,L|384:144,1,70
240,336,170666,6,0,L|208:272,1,70
304,336,170999,2,0,L|304:256,1,70
368,336,171333,2,0,L|400:272,1,70
160,192,171666,1,0,0:0:0:0:
160,192,171833,1,0,0:0:0:0:
256,192,171999,1,0,0:0:0:0:
256,192,172083,1,0,0:0:0:0:
256,192,172166,1,0,0:0:0:0:
320,192,172333,1,0,0:0:0:0:
320,192,172416,1,0,0:0:0:0:
320,192,172499,1,0,0:0:0:0:
416,48,172666,5,0,0:0:0:0:
384,80,172749,1,0,0:0:0:0:
352,112,172833,1,0,0:0:0:0:
320,112,172916,1,0,0:0:0:0:
288,112,172999,1,0,0:0:0:0:
256,112,173083,1,0,0:0:0:0:
224,144,173166,1,0,0:0:0:0:
208,176,173249,1,0,0:0:0:0:
192,208,173333,1,0,0:0:0:0:
192,240,173416,1,0,0:0:0:0:
224,272,173499,1,0,0:0:0:0:
256,272,173583,1,0,0:0:0:0:
304,256,173666,5,0,0:0:0:0:
352,256,173749,1,0,0:0:0:0:
384,272,173833,1,0,0:0:0:0:
400,320,173916,1,0,0:0:0:0:
352,336,173999,1,0,0:0:0:0:
304,336,174083,1,0,0:0:0:0:
256,336,174166,1,0,0:0:0:0:
224,336,174249,1,0,0:0:0:0:
176,320,174333,1,0,0:0:0:0:
144,304,174416,1,0,0:0:0:0:
128,272,174499,5,0,0:0:0:0:
112,240,174583,1,0,0:0:0:0:
128,208,174666,1,0,0:0:0:0:
160,176,174749,1,0,0:0:0:0:
192,144,174833,1,0,0:0:0:0:
224,128,174916,1,0,0:0:0:0:
256,112,174999,1,0,0:0:0:0:
288,112,175083,1,0,0:0:0:0:
320,112,175166,1,0,0:0:0:0:
352,128,175249,1,0,0:0:0:0:
384,144,175333,1,0,0:0:0:0:
416,176,175416,1,0,0:0:0:0:
432,208,175499,5,0,0:0:0:0:
432,240,175583,1,0,0:0:0:0:
400,272,175666,1,0,0:0:0:0:
368,288,175749,1,0,0:0:0:0:
336,304,175833,1,0,0:0:0:0:
304,320,175916,1,0,0:0:0:0:
272,320,175999,1,0,0:0:0:0:
240,320,176083,1,0,0:0:0:0:
208,304,176166,1,0,0:0:0:0:
176,288,176249,1,0,0:0:0:0:
144,256,176333,1,0,0:0:0:0:
144,224,176416,1,0,0:0:0:0:
160,192,176499,1,0,0:0:0:0:
176,160,176583,1,0,0:0:0:0:
208,128,176666,1,0,0:0:0:0:
240,112,176749,1,0,0:0:0:0:
272,96,176833,1,0,0:0:0:0:
304,80,176916,1,0,0:0:0:0:
336,80,176999,5,0,0:0:0:0:
368,96,177083,1,0,0:0:0:0:
400,112,177166,1,0,0:0:0:0:
416,144,177249,1,0,0:0:0:0:
416,176,177333,1,0,0:0:0:0:
400,208,177416,1,0,0:0:0:0:
368,224,177499,1,0,0:0:0:0:
336,240,177583,1,0,0:0:0:0:
304,240,177666,1,0,0:0:0:0:
272,224,177749,1,0,0:0:0:0:
240,208,177833,1,0,0:0:0:0:
208,176,177916,5,0,0:0:0:0:
208,144,177999,1,0,0:0:0:0:
224,112,178083,1,0,0:0:0:0:
256,80,178166,1,0,0:0:0:0:
288,64,178249,1,0,0:0:0:0:
256,192,178333,12,0,179167,0:0:0:0:
432,320,179333,5,0,0:0:0:0:
400,320,179416,1,0,0:0:0:0:
368,320,179499,1,0,0:0:0:0:
336,304,179583,1,0,0:0:0:0:
304,288,179666,1,0,0:0:0:0:
272,272,179749,1,0,0:0:0:0:
240,256,179833,1,0,0:0:0:0:
208,256,179916,1,0,0:0:0:0:
176,272,179999,1,0,0:0:0:0:
144,288,180083,5,0,0:0:0:0:
112,304,180166,1,0,0:0:0:0:
80,320,180249,1,0,0:0:0:0:
48,304,180333,1,0,0:0:0:0:
32,272,180416,1,0,0:0:0:0:
32,240,180499,1,0,0:0:0:0:
48,208,180583,1,0,0:0:0:0:
64,176,180666,1,0,0:0:0:0:
96,144,180749,1,0,0:0:0:0:
128,128,180833,1,0,0:0:0:0:
160,112,180916,1,0,0:0:0:0:
192,96,180999,1,0,0:0:0:0:
224,96,181083,5,0,0:0:0:0:
256,96,181166,1,0,0:0:0:0:
288,112,181249,1,0,0:0:0:0:
320,128,181333,1,0,0:0:0:0:
352,160,181416,1,0,0:0:0:0:
352,192,181499,1,0,0:0:0:0:
336,224,181583,6,0,L|288:272,3,35
288,272,181916,2,0,L|256:288,3,35
224,288,182249,2,0,L|192:272,3,35
160,240,182583,2,0,L|176:192,3,35
208,176,182916,2,0,L|272:176,3,35
320,176,183249,1,0,0:0:0:0:
352,176,183332,1,0,0:0:0:0:
384,176,183415,1,0,0:0:0:0:
416,176,183499,1,0,0:0:0:0:
448,176,183582,1,0,0:0:0:0:
368,256,183749,5,0,0:0:0:0:
336,288,183833,1,0,0:0:0:0:
304,320,183916,1,0,0:0:0:0:
272,352,183999,1,0,0:0:0:0:
208,256,184166,5,0,0:0:0:0:
176,224,184249,1,0,0:0:0:0:
144,192,184332,1,0,0:0:0:0:
112,160,184415,1,0,0:0:0:0:
80,128,184499,1,0,0:0:0:0:
112,96,184583,1,0,0:0:0:0:
144,64,184666,1,0,0:0:0:0:
176,32,184749,1,0,0:0:0:0:
208,64,184833,1,0,0:0:0:0:
240,96,184916,1,0,0:0:0:0:
272,128,184999,5,0,0:0:0:0:
304,160,185083,1,0,0:0:0:0:
272,192,185166,1,0,0:0:0:0:
240,224,185249,1,0,0:0:0:0:
208,256,185333,1,0,0:0:0:0:
176,288,185416,1,0,0:0:0:0:
208,320,185499,1,0,0:0:0:0:
240,336,185583,1,0,0:0:0:0:
288,336,185666,1,0,0:0:0:0:
336,336,185749,1,0,0:0:0:0:
384,336,185833,5,0,0:0:0:0:
432,336,185916,1,0,0:0:0:0:
480,336,185999,1,0,0:0:0:0:
480,288,186083,1,0,0:0:0:0:
480,240,186166,1,0,0:0:0:0:
256,192,186249,12,0,186999,0:0:0:0:
64,240,187166,5,0,0:0:0:0:
96,208,187249,1,0,0:0:0:0:
128,176,187333,1,0,0:0:0:0:
160,144,187416,1,0,0:0:0:0:
192,128,187499,1,0,0:0:0:0:
240,112,187583,1,0,0:0:0:0:
272,128,187666,1,0,0:0:0:0:
288,160,187749,1,0,0:0:0:0:
288,192,187833,1,0,0:0:0:0:
256,224,187916,1,0,0:0:0:0:
224,240,187999,5,0,0:0:0:0:
208,272,188083,1,0,0:0:0:0:
224,304,188166,1,0,0:0:0:0:
272,304,188249,1,0,0:0:0:0:
320,288,188333,1,0,0:0:0:0:
336,256,188416,1,0,0:0:0:0:
352,224,188499,1,0,0:0:0:0:
352,176,188583,1,0,0:0:0:0:
352,144,188666,1,0,0:0:0:0:
384,112,188749,1,0,0:0:0:0:
416,112,188833,1,0,0:0:0:0:
448,112,188916,5,0,0:0:0:0:
464,144,188999,1,0,0:0:0:0:
464,176,189083,1,0,0:0:0:0:
464,208,189166,1,0,0:0:0:0:
448,240,189249,1,0,0:0:0:0:
416,256,189333,1,0,0:0:0:0:
416,288,189416,1,0,0:0:0:0:
448,304,189499,1,0,0:0:0:0:
416,336,189583,1,0,0:0:0:0:
384,336,189666,1,0,0:0:0:0:
352,336,189749,5,0,0:0:0:0:
304,320,189833,1,0,0:0:0:0:
272,288,189916,1,0,0:0:0:0:
288,256,189999,1,0,0:0:0:0:
288,208,190083,1,0,0:0:0:0:
272,176,190166,1,0,0:0:0:0:
224,192,190249,1,0,0:0:0:0:
192,208,190333,1,0,0:0:0:0:
160,208,190416,1,0,0:0:0:0:
128,192,190499,1,0,0:0:0:0:
96,176,190583,5,0,0:0:0:0:
80,128,190666,1,0,0:0:0:0:
112,96,190749,1,0,0:0:0:0:
160,80,190833,1,0,0:0:0:0:
208,80,190916,1,0,0:0:0:0:
256,80,190999,1,0,0:0:0:0:
288,96,191083,1,0,0:0:0:0:
320,112,191166,1,0,0:0:0:0:
352,96,191249,1,0,0:0:0:0:
368,64,191333,1,0,0:0:0:0:
400,48,191416,5,0,0:0:0:0:
432,64,191499,1,0,0:0:0:0:
448,112,191583,1,0,0:0:0:0:
416,144,191666,1,0,0:0:0:0:
400,192,191749,1,0,0:0:0:0:
432,224,191833,1,0,0:0:0:0:
448,256,191916,1,0,0:0:0:0:
432,288,191999,1,0,0:0:0:0:
384,304,192083,1,0,0:0:0:0:
352,288,192166,1,0,0:0:0:0:
304,288,192249,5,0,0:0:0:0:
272,304,192333,1,0,0:0:0:0:
224,304,192416,1,0,0:0:0:0:
192,288,192499,1,0,0:0:0:0:
176,256,192583,1,0,0:0:0:0:
176,240,192666,1,0,0:0:0:0:
160,208,192749,1,0,0:0:0:0:
144,176,192833,1,0,0:0:0:0:
160,144,192916,1,0,0:0:0:0:
144,112,192999,1,0,0:0:0:0:
96,128,193083,5,0,0:0:0:0:
64,160,193166,1,0,0:0:0:0:
64,208,193249,1,0,0:0:0:0:
80,240,193333,1,0,0:0:0:0:
112,256,193416,1,0,0:0:0:0:
144,240,193499,1,0,0:0:0:0:
160,208,193583,1,0,0:0:0:0:
192,192,193666,1,0,0:0:0:0:
224,208,193749,1,0,0:0:0:0:
256,240,193833,1,0,0:0:0:0:
288,240,193916,1,0,0:0:0:0:
64,80,204666,6,0,L|112:48,14,35
96,160,205999,5,0,0:0:0:0:
208,176,206166,1,0,0:0:0:0:
128,288,206333,1,0,0:0:0:0:
208,176,206499,1,0,0:0:0:0:
304,64,206666,1,0,0:0:0:0:
208,176,206833,1,0,0:0:0:0:
352,224,206999,1,0,0:0:0:0:
256,288,207166,1,0,0:0:0:0:
352,224,207333,1,0,0:0:0:0:
256,288,207499,1,0,0:0:0:0:
128,288,207666,1,0,0:0:0:0:
256,288,207833,5,0,0:0:0:0:
208,176,207999,1,0,0:0:0:0:
352,112,208166,1,0,0:0:0:0:
48,80,208499,5,0,0:0:0:0:
128,160,208666,1,0,0:0:0:0:
224,80,208832,1,0,0:0:0:0:
304,224,208999,1,0,0:0:0:0:
400,48,209166,1,0,0:0:0:0:
432,320,209332,1,0,0:0:0:0:
96,320,209666,5,0,0:0:0:0:
208,208,209833,1,0,0:0:0:0:
96,192,209999,2,0,P|128:144|224:112,1,140
304,128,210499,2,0,P|352:160|432:144,2,140
416,224,211333,2,0,P|384:256|384:352,2,140
272,304,212166,2,0,P|224:320|96:272,1,175
256,192,212833,12,0,215166,0:0:0:0:
96,80,215333,5,0,0:0:0:0:
96,80,215416,1,0,0:0:0:0:
96,80,215499,1,0,0:0:0:0:
144,160,215583,2,0,L|112:224,1,70
192,96,215916,2,0,L|256:64,1,70
288,192,216249,1,0,0:0:0:0:
240,272,216416,1,0,0:0:0:0:
336,272,216583,1,0,0:0:0:0:
240,272,216749,1,0,0:0:0:0:
160,224,216916,5,0,0:0:0:0:
160,224,216999,1,0,0:0:0:0:
160,224,217083,1,0,0:0:0:0:
224,144,217249,1,0,0:0:0:0:
320,96,217416,1,0,0:0:0:0:
384,192,217583,1,0,0:0:0:0:
384,192,217666,1,0,0:0:0:0:
384,192,217749,1,0,0:0:0:0:
304,304,217916,1,0,0:0:0:0:
160,304,218083,1,0,0:0:0:0:
160,304,218166,1,0,0:0:0:0:
160,304,218249,1,0,0:0:0:0:
112,192,218416,5,0,0:0:0:0:
176,112,218583,1,0,0:0:0:0:
176,112,218666,1,0,0:0:0:0:
176,112,218749,1,0,0:0:0:0:
272,96,218916,1,0,0:0:0:0:
240,208,219083,1,0,0:0:0:0:
352,128,219249,1,0,0:0:0:0:
240,208,219416,1,0,0:0:0:0:
400,192,219583,1,0,0:0:0:0:
240,208,219749,1,0,0:0:0:0:
400,272,219916,1,0,0:0:0:0:
240,208,220083,1,0,0:0:0:0:
352,336,220249,1,0,0:0:0:0:
240,208,220416,1,0,0:0:0:0:
48,192,220583,1,0,0:0:0:0:
128,112,220749,5,0,0:0:0:0:
128,112,220833,1,0,0:0:0:0:
128,112,220916,1,0,0:0:0:0:
224,80,221166,1,0,0:0:0:0:
224,80,221333,1,0,0:0:0:0:
224,80,221499,1,0,0:0:0:0:
304,112,221666,1,0,0:0:0:0:
176,256,221833,1,0,0:0:0:0:
304,112,222000,1,0,0:0:0:0:
176,256,222166,1,0,0:0:0:0:
352,160,222333,1,0,0:0:0:0:
176,256,222500,1,0,0:0:0:0:
352,160,222666,1,0,0:0:0:0:
176,256,222833,1,0,0:0:0:0:
352,160,223000,1,0,0:0:0:0:
112,112,223166,6,0,L|96:208,1,70
384,224,223499,2,0,L|416:144,1,70
112,112,223833,2,0,L|96:192,1,70
384,224,224166,2,0,L|400:144,1,70
112,112,224499,2,0,L|96:192,1,70
384,224,224833,2,0,L|384:144,1,70
112,112,225166,2,0,L|112:192,1,70
384,224,225499,1,0,0:0:0:0:
224,320,225666,5,0,0:0:0:0:
192,304,225749,1,0,0:0:0:0:
160,272,225833,1,0,0:0:0:0:
144,240,225916,1,0,0:0:0:0:
128,208,225999,1,0,0:0:0:0:
208,144,226166,5,0,0:0:0:0:
336,96,226333,1,0,0:0:0:0:
304,240,226499,1,0,0:0:0:0:
304,240,226583,1,0,0:0:0:0:
304,240,226666,1,0,0:0:0:0:
96,128,226833,1,0,0:0:0:0:
480,64,226999,1,0,0:0:0:0:
160,336,227166,1,0,0:0:0:0:
272,32,227333,1,0,0:0:0:0:
416,272,227499,5,0,0:0:0:0:
416,272,227583,1,0,0:0:0:0:
416,272,227666,1,0,0:0:0:0:
352,144,227833,1,0,0:0:0:0:
352,144,227916,1,0,0:0:0:0:
352,144,228000,1,0,0:0:0:0:
272,96,228166,1,0,0:0:0:0:
272,96,228249,1,0,0:0:0:0:
272,96,228333,1,0,0:0:0:0:
192,176,228499,5,0,0:0:0:0:
304,320,228666,1,0,0:0:0:0:
128,320,228833,1,0,0:0:0:0:
192,176,228999,1,0,0:0:0:0:
304,320,229166,1,0,0:0:0:0:
128,320,229333,1,0,0:0:0:0:
192,176,229499,1,0,0:0:0:0:
336,96,229666,1,0,0:0:0:0:
432,272,229833,5,0,0:0:0:0:
240,256,229999,1,0,0:0:0:0:
432,272,230166,1,0,0:0:0:0:
240,256,230333,1,0,0:0:0:0:
112,160,230499,5,0,0:0:0:0:
112,160,230583,1,0,0:0:0:0:
112,160,230666,1,0,0:0:0:0:
208,96,230833,1,0,0:0:0:0:
288,208,230999,1,0,0:0:0:0:
336,96,231166,2,0,L|384:32,1,70
352,160,231499,2,0,L|400:240,1,70
288,160,231833,2,0,L|224:224,1,70
288,96,232166,2,0,L|224:48,1,70
192,128,232499,1,0,0:0:0:0:
112,256,232666,5,0,0:0:0:0:
144,288,232749,1,0,0:0:0:0:
192,304,232833,1,0,0:0:0:0:
240,304,232916,1,0,0:0:0:0:
288,288,232999,1,0,0:0:0:0:
320,256,233083,1,0,0:0:0:0:
320,208,233166,1,0,0:0:0:0:
288,176,233249,1,0,0:0:0:0:
240,160,233333,1,0,0:0:0:0:
192,160,233416,1,0,0:0:0:0:
160,192,233499,1,0,0:0:0:0:
112,192,233583,1,0,0:0:0:0:
80,160,233666,1,0,0:0:0:0:
96,128,233749,1,0,0:0:0:0:
128,112,233833,1,0,0:0:0:0:
240,80,233999,5,0,0:0:0:0:
400,48,234165,1,0,0:0:0:0:
240,80,234332,1,0,0:0:0:0:
400,96,234499,1,0,0:0:0:0:
240,80,234665,1,0,0:0:0:0:
384,144,234832,1,0,0:0:0:0:
240,80,234999,1,0,0:0:0:0:
352,176,235165,1,0,0:0:0:0:
240,80,235333,2,0,L|224:48,8,35
272,80,236083,2,0,L|288:48,7,35
432,48,236749,5,0,0:0:0:0:
400,64,236832,1,0,0:0:0:0:
432,96,236915,1,0,0:0:0:0:
384,96,236999,1,0,0:0:0:0:
416,128,237082,1,0,0:0:0:0:
368,128,237165,1,0,0:0:0:0:
400,160,237249,1,0,0:0:0:0:
352,160,237332,5,0,0:0:0:0:
368,192,237415,1,0,0:0:0:0:
336,192,237499,1,0,0:0:0:0:
352,224,237582,1,0,0:0:0:0:
304,192,237665,1,0,0:0:0:0:
304,224,237749,1,0,0:0:0:0:
272,176,237832,1,0,0:0:0:0:
256,208,237915,1,0,0:0:0:0:
240,144,237999,1,0,0:0:0:0:
224,192,238082,1,0,0:0:0:0:
208,128,238166,5,0,0:0:0:0:
192,160,238249,1,0,0:0:0:0:
160,176,238333,1,0,0:0:0:0:
160,128,238416,1,0,0:0:0:0:
128,160,238499,1,0,0:0:0:0:
144,208,238583,1,0,0:0:0:0:
96,192,238666,1,0,0:0:0:0:
112,240,238749,1,0,0:0:0:0:
64,224,238833,1,0,0:0:0:0:
96,272,238916,1,0,0:0:0:0:
48,272,238999,1,0,0:0:0:0:
64,304,239083,1,0,0:0:0:0:
112,304,239166,1,0,0:0:0:0:
144,288,239249,5,0,0:0:0:0:
144,256,239333,1,0,0:0:0:0:
176,256,239416,1,0,0:0:0:0:
176,288,239499,1,0,0:0:0:0:
208,256,239583,1,0,0:0:0:0:
208,288,239666,1,0,0:0:0:0:
240,256,239749,1,0,0:0:0:0:
240,288,239833,1,0,0:0:0:0:
288,288,239916,2,0,L|288:240,9,35
336,256,240749,2,0,L|336:304,7,35
384,288,241416,2,0,L|384:240,7,35
416,288,242083,5,0,0:0:0:0:
448,272,242166,1,0,0:0:0:0:
464,240,242249,1,0,0:0:0:0:
464,208,242333,1,0,0:0:0:0:
448,176,242416,1,0,0:0:0:0:
400,176,242499,1,0,0:0:0:0:
368,192,242583,1,0,0:0:0:0:
352,224,242666,1,0,0:0:0:0:
320,256,242749,1,0,0:0:0:0:
288,272,242833,1,0,0:0:0:0:
240,272,242916,5,0,0:0:0:0:
208,256,242999,1,0,0:0:0:0:
176,224,243083,1,0,0:0:0:0:
144,224,243166,1,0,0:0:0:0:
112,208,243249,1,0,0:0:0:0:
112,176,243333,1,0,0:0:0:0:
128,144,243415,1,0,0:0:0:0:
160,128,243498,1,0,0:0:0:0:
192,112,243582,1,0,0:0:0:0:
208,80,243665,1,0,0:0:0:0:
240,64,243748,5,0,0:0:0:0:
288,80,243832,1,0,0:0:0:0:
288,112,243915,1,0,0:0:0:0:
320,144,243998,1,0,0:0:0:0:
352,160,244082,1,0,0:0:0:0:
400,176,244165,1,0,0:0:0:0:
416,208,244248,1,0,0:0:0:0:
432,240,244332,1,0,0:0:0:0:
416,272,244415,1,0,0:0:0:0:
384,288,244498,1,0,0:0:0:0:
352,288,244582,5,0,0:0:0:0:
320,288,244665,1,0,0:0:0:0:
288,272,244748,1,0,0:0:0:0:
256,256,244832,1,0,0:0:0:0:
224,256,244915,1,0,0:0:0:0:
192,272,244998,1,0,0:0:0:0:
160,256,245082,1,0,0:0:0:0:
128,240,245165,1,0,0:0:0:0:
96,208,245248,1,0,0:0:0:0:
96,176,245332,1,0,0:0:0:0:
96,144,245415,1,0,0:0:0:0:
96,112,245498,5,0,0:0:0:0:
128,80,245582,1,0,0:0:0:0:
160,64,245665,1,0,0:0:0:0:
192,48,245748,1,0,0:0:0:0:
224,80,245832,1,0,0:0:0:0:
256,112,245915,1,0,0:0:0:0:
272,144,245998,1,0,0:0:0:0:
304,176,246082,1,0,0:0:0:0:
336,160,246165,1,0,0:0:0:0:
368,144,246248,1,0,0:0:0:0:
400,144,246332,1,0,0:0:0:0:
432,160,246415,5,0,0:0:0:0:
464,192,246498,1,0,0:0:0:0:
464,224,246582,1,0,0:0:0:0:
448,256,246665,1,0,0:0:0:0:
416,288,246748,1,0,0:0:0:0:
384,304,246832,1,0,0:0:0:0:
352,304,246915,1,0,0:0:0:0:
320,288,246998,1,0,0:0:0:0:
288,272,247082,1,0,0:0:0:0:
256,256,247165,1,0,0:0:0:0:
224,240,247248,5,0,0:0:0:0:
192,240,247332,1,0,0:0:0:0:
160,240,247415,1,0,0:0:0:0:
128,240,247498,1,0,0:0:0:0:
96,240,247582,1,0,0:0:0:0:
64,224,247665,1,0,0:0:0:0:
256,192,247749,12,0,253416,0:0:0:0:
144,80,278666,5,0,0:0:0:0:
256,144,278999,1,0,0:0:0:0:
368,80,279333,1,8,0:0:0:0:
432,192,279666,1,0,0:0:0:0:
384,304,279999,1,0,0:0:0:0:
256,256,280333,1,8,0:0:0:0:
128,320,280666,1,0,0:0:0:0:
192,176,280999,1,0,0:0:0:0:
128,64,281333,1,8,0:0:0:0:
272,112,281666,5,0,0:0:0:0:
384,48,281999,1,0,0:0:0:0:
416,144,282333,1,8,0:0:0:0:
416,176,282499,1,8,0:0:0:0:
416,208,282666,1,8,0:0:0:0:
368,304,282999,1,8,0:0:0:0:
256,240,283333,1,0,0:0:0:0:
144,304,283666,1,0,0:0:0:0:
64,240,283999,1,8,0:0:0:0:
160,160,284333,5,0,0:0:0:0:
80,64,284666,1,0,0:0:0:0:
256,112,284999,1,8,0:0:0:0:
432,64,285333,1,0,0:0:0:0:
368,192,285666,1,0,0:0:0:0:
448,288,285999,1,8,0:0:0:0:
256,256,286333,1,0,0:0:0:0:
112,304,286666,1,0,0:0:0:0:
176,176,286999,1,8,0:0:0:0:
96,64,287333,5,8,0:0:0:0:
128,64,287499,1,8,0:0:0:0:
160,64,287666,1,8,0:0:0:0:
192,64,287833,1,8,0:0:0:0:
224,64,287999,1,8,0:0:0:0:
432,64,288333,1,8,0:0:0:0:
352,176,288666,5,0,0:0:0:0:
448,240,288999,1,0,0:0:0:0:
352,304,289333,1,8,0:0:0:0:
144,176,289666,5,0,0:0:0:0:
48,240,289999,1,0,0:0:0:0:
144,304,290333,1,8,0:0:0:0:
336,128,290666,5,0,0:0:0:0:
256,32,290999,1,0,0:0:0:0:
176,128,291333,1,8,0:0:0:0:
272,256,291666,5,0,0:0:0:0:
208,336,291999,1,0,0:0:0:0:
336,336,292333,1,8,0:0:0:0:
416,64,292666,5,0,0:0:0:0:
416,144,292999,1,0,0:0:0:0:
416,240,293333,1,8,0:0:0:0:
320,240,293666,5,0,0:0:0:0:
320,144,293999,1,0,0:0:0:0:
320,64,294333,1,8,0:0:0:0:
224,64,294666,5,0,0:0:0:0:
224,144,294999,1,0,0:0:0:0:
224,224,295333,1,8,0:0:0:0:
144,224,295666,5,0,0:0:0:0:
144,144,295999,1,0,0:0:0:0:
144,64,296333,1,8,0:0:0:0:
64,64,296666,5,0,0:0:0:0:
64,144,296999,1,0,0:0:0:0:
64,224,297333,1,8,0:0:0:0:
96,320,297666,5,0,0:0:0:0:
192,224,297999,1,0,0:0:0:0:
288,128,298333,1,8,0:0:0:0:
448,320,298666,5,0,0:0:0:0:
320,240,298999,1,0,0:0:0:0:
176,160,299333,1,8,0:0:0:0:
240,32,299666,5,0,0:0:0:0:
240,176,299999,1,0,0:0:0:0:
240,304,300333,1,8,0:0:0:0:
64,128,300666,2,0,P|96:80|176:64,1,140
144,144,301333,1,0,0:0:0:0:
144,144,301666,1,0,0:0:0:0:
224,128,301999,2,0,P|208:176|112:224,1,140
48,240,302666,1,0,0:0:0:0:
48,240,302999,1,0,0:0:0:0:
112,304,303333,2,0,P|192:320|240:288,1,140
480,64,303999,5,0,0:0:0:0:
480,64,304333,1,0,0:0:0:0:
400,80,304666,2,0,P|416:144|464:208,2,140
400,80,305666,1,0,0:0:0:0:
304,160,305999,5,0,0:0:0:0:
304,160,306333,1,0,0:0:0:0:
304,160,306666,1,0,0:0:0:0:
240,192,306999,2,0,P|320:224|384:192,1,140
304,160,307666,1,0,0:0:0:0:
368,112,307999,2,0,P|304:96|240:128,1,140
160,176,308666,1,0,0:0:0:0:
112,304,308999,1,0,0:0:0:0:
160,176,309333,1,0,0:0:0:0:
240,288,309666,1,0,0:0:0:0:
160,176,309999,1,0,0:0:0:0:
240,288,310333,1,0,0:0:0:0:
320,176,310666,1,0,0:0:0:0:
400,288,310999,1,0,0:0:0:0:
432,64,311333,5,0,0:0:0:0:
352,96,311666,1,0,0:0:0:0:
272,64,311999,1,0,0:0:0:0:
208,112,312333,1,0,0:0:0:0:
144,64,312666,1,0,0:0:0:0:
96,128,312999,1,0,0:0:0:0:
128,208,313333,1,0,0:0:0:0:
192,256,313666,1,0,0:0:0:0:
256,208,313999,1,0,0:0:0:0:
320,256,314333,1,0,0:0:0:0:
384,208,314666,1,0,0:0:0:0:
448,256,314999,1,0,0:0:0:0:
400,336,315333,5,0,0:0:0:0:
320,304,315666,1,0,0:0:0:0:
352,208,315999,1,0,0:0:0:0:
304,128,316333,1,0,0:0:0:0:
224,176,316666,1,0,0:0:0:0:
192,272,316999,1,0,0:0:0:0:
128,192,317333,1,0,0:0:0:0:
80,112,317666,1,0,0:0:0:0:
48,208,317999,5,0,0:0:0:0:
96,288,318333,1,0,0:0:0:0:
192,304,318666,1,0,0:0:0:0:
288,304,318999,1,0,0:0:0:0:
384,288,319333,1,0,0:0:0:0:
432,224,319666,1,0,0:0:0:0:
448,128,319999,5,0,0:0:0:0:
352,96,320333,1,0,0:0:0:0:
304,176,320666,1,0,0:0:0:0:
208,176,320999,1,0,0:0:0:0:
144,96,321333,1,0,0:0:0:0:
96,176,321666,1,0,0:0:0:0:
96,256,321999,1,0,0:0:0:0:
192,256,322333,1,0,0:0:0:0:
304,304,322666,6,0,P|336:256|368:160,2,140
304,112,323666,1,0,0:0:0:0:
304,112,323999,1,0,0:0:0:0:
192,144,324333,2,0,P|192:192|224:288,2,140
96,112,325333,1,0,0:0:0:0:
96,112,325666,1,0,0:0:0:0:
96,112,325999,1,0,0:0:0:0:
96,224,326333,2,0,P|160:240|240:224,1,140
288,144,326999,2,0,P|304:208|384:272,1,140
432,96,327666,6,0,P|400:128|384:240,1,140
352,272,328333,1,0,0:0:0:0:
272,224,328666,1,0,0:0:0:0:
192,272,328999,1,0,0:0:0:0:
112,224,329333,2,0,P|112:176|160:96,1,140
240,96,329999,2,0,L|384:96,1,140
384,176,330666,1,0,0:0:0:0:
288,240,330999,1,0,0:0:0:0:
384,176,331333,1,0,0:0:0:0:
288,240,331666,1,0,0:0:0:0:
384,176,331999,1,0,0:0:0:0:
384,176,332333,1,0,0:0:0:0:
384,176,332666,1,0,0:0:0:0:
96,80,333333,6,0,P|80:160|112:224,1,140
192,96,333999,1,0,0:0:0:0:
208,240,334333,2,0,P|240:176|304:112,1,140
320,224,334999,1,0,0:0:0:0:
384,128,335333,2,0,P|416:192|400:272,1,140
304,320,335999,2,0,L|192:224,1,140
112,224,336666,2,0,L|224:112,1,140
288,128,337333,5,0,0:0:0:0:
416,128,337666,1,0,0:0:0:0:
352,208,337999,1,0,0:0:0:0:
288,272,338333,1,0,0:0:0:0:
416,272,338666,1,0,0:0:0:0:
352,208,338999,1,0,0:0:0:0:
288,144,339333,1,0,0:0:0:0:
288,272,339666,1,0,0:0:0:0:
352,208,339999,1,0,0:0:0:0:
416,144,340333,1,0,0:0:0:0:
416,272,340666,1,0,0:0:0:0:
352,208,340999,1,0,0:0:0:0:
288,144,341333,1,0,0:0:0:0:
288,272,341666,1,0,0:0:0:0:
416,272,341999,1,0,0:0:0:0:
416,160,342333,1,0,0:0:0:0:
352,208,342666,5,0,0:0:0:0:
80,80,343999,6,0,L|80:144|80:176,1,70
144,160,344333,1,0,0:0:0:0:
240,96,344499,1,0,0:0:0:0:
240,256,344666,1,0,0:0:0:0:
304,160,344833,2,0,L|368:112,1,70
304,192,345166,2,0,L|400:224,1,70
112,272,345499,5,0,0:0:0:0:
208,208,345666,1,0,0:0:0:0:
288,288,345833,1,0,0:0:0:0:
352,224,345999,1,0,0:0:0:0:
416,144,346166,1,0,0:0:0:0:
320,96,346333,1,0,0:0:0:0:
224,80,346499,1,0,0:0:0:0:
128,144,346666,1,0,0:0:0:0:
160,256,346833,1,0,0:0:0:0:
288,288,346999,2,0,L|272:192,1,70
384,96,347333,2,0,L|336:176,1,70
208,192,347666,6,0,L|176:112,1,70
96,80,347999,2,0,L|80:160,1,70
112,256,348333,2,0,L|192:272,1,70
192,144,348666,2,0,L|224:224,1,70
272,256,348999,2,0,L|320:176,1,70
368,112,349333,2,0,L|432:64,1,70
448,160,349666,2,0,L|432:240,1,70
96,320,349999,5,0,0:0:0:0:
112,304,350166,1,0,0:0:0:0:
128,288,350333,1,0,0:0:0:0:
144,272,350499,1,0,0:0:0:0:
160,256,350666,1,0,0:0:0:0:
96,64,350833,5,0,0:0:0:0:
112,80,350999,1,0,0:0:0:0:
128,96,351166,1,0,0:0:0:0:
144,112,351333,1,0,0:0:0:0:
160,128,351499,1,0,0:0:0:0:
176,144,351666,1,0,0:0:0:0:
192,144,351833,1,0,0:0:0:0:
208,144,351999,1,0,0:0:0:0:
224,144,352166,1,0,0:0:0:0:
240,144,352333,1,0,0:0:0:0:
256,144,352499,1,0,0:0:0:0:
272,144,352666,1,0,0:0:0:0:
288,144,352833,1,0,0:0:0:0:
304,144,352999,5,0,0:0:0:0:
320,144,353166,1,0,0:0:0:0:
336,144,353333,1,0,0:0:0:0:
352,144,353499,1,0,0:0:0:0:
368,144,353666,1,0,0:0:0:0:
384,144,353833,1,0,0:0:0:0:
400,144,353999,1,0,0:0:0:0:
400,160,354166,1,0,0:0:0:0:
400,176,354333,1,0,0:0:0:0:
400,192,354499,1,0,0:0:0:0:
400,208,354666,1,0,0:0:0:0:
128,288,354833,6,0,P|96:224|96:208,6,70
176,224,355999,2,0,P|192:288|192:304,6,70
256,320,357166,2,0,P|304:288|320:272,7,70
272,224,358499,2,0,P|320:208|368:224,7,70
352,288,359833,5,0,0:0:0:0:
432,192,359999,1,0,0:0:0:0:
352,96,360166,1,0,0:0:0:0:
288,192,360333,1,0,0:0:0:0:
192,96,360499,5,0,0:0:0:0:
112,192,360666,1,0,0:0:0:0:
192,288,360833,1,0,0:0:0:0:
288,192,360999,1,0,0:0:0:0:
352,96,361166,5,0,0:0:0:0:
432,192,361333,1,0,0:0:0:0:
352,288,361499,1,0,0:0:0:0:
288,192,361666,1,0,0:0:0:0:
192,96,361833,5,0,0:0:0:0:
112,192,361999,1,0,0:0:0:0:
192,288,362166,1,0,0:0:0:0:
288,192,362333,1,0,0:0:0:0:
256,192,364333,5,0,0:0:0:0:
256,192,364416,1,0,0:0:0:0:
256,192,364499,1,0,0:0:0:0:
256,192,364583,1,0,0:0:0:0:
256,192,364666,1,0,0:0:0:0:
256,192,364749,1,0,0:0:0:0:
256,192,364833,1,0,0:0:0:0:
256,192,364916,1,0,0:0:0:0:
256,192,364999,1,0,0:0:0:0:
96,80,365333,6,0,L|192:64,1,70
256,64,365666,2,0,L|336:80,1,70
400,80,365999,2,0,L|480:64,1,70
464,144,366333,6,0,L|448:224,1,70
384,240,366666,2,0,L|448:304,1,70
448,352,366999,2,0,L|352:336,1,70
304,288,367333,2,0,L|224:336,1,70
176,336,367666,2,0,L|96:288,1,70
96,208,367999,6,0,L|144:144,1,70
192,192,368333,2,0,L|272:224,1,70
256,144,368666,2,0,L|288:80,1,70
304,208,368999,2,0,L|400:224,1,70
240,240,369333,2,0,L|224:320,1,70
192,192,369666,2,0,L|112:176,1,70
256,144,369999,2,0,L|272:64,1,70
112,80,370333,5,0,0:0:0:0:
112,80,370499,1,0,0:0:0:0:
112,80,370666,1,0,0:0:0:0:
112,176,370833,1,0,0:0:0:0:
112,176,370999,1,0,0:0:0:0:
112,176,371166,1,0,0:0:0:0:
112,272,371333,1,0,0:0:0:0:
112,272,371499,1,0,0:0:0:0:
112,272,371666,1,0,0:0:0:0:
208,272,371833,6,0,L|256:208,1,70
208,272,372166,2,0,L|256:208,1,70
208,272,372499,2,0,L|256:208,1,70
250,216,372833,1,0,0:0:0:0:
336,224,372999,6,0,L|400:288,1,70
336,224,373333,2,0,L|400:288,1,70
336,224,373666,2,0,L|400:288,1,70
385,273,373999,1,0,0:0:0:0:
448,208,374166,6,0,L|448:112,1,70
448,208,374499,2,0,L|448:128,1,70
448,208,374833,2,0,L|448:128,1,70
448,138,375166,1,0,0:0:0:0:
400,64,375333,6,0,L|320:64,1,70
400,64,375666,2,0,L|320:64,1,70
400,64,375999,2,0,L|320:64,1,70
330,64,376333,1,0,0:0:0:0:
192,64,376499,6,0,L|160:144,1,70
192,64,376833,2,0,L|160:144,1,70
192,64,377166,2,0,L|160:144,1,70
166,128,377499,1,0,0:0:0:0:
160,224,377666,6,0,L|240:192,1,70
160,224,377999,2,0,L|240:192,1,70
160,224,378333,2,0,L|240:192,1,70
224,198,378666,1,0,0:0:0:0:
224,198,378833,1,0,0:0:0:0:
224,198,378999,1,0,0:0:0:0:
272,256,379166,1,0,0:0:0:0:
352,288,379333,1,0,0:0:0:0:
432,272,379499,1,0,0:0:0:0:
464,192,379666,5,0,0:0:0:0:
432,96,379833,1,0,0:0:0:0:
352,48,379999,1,0,0:0:0:0:
256,64,380166,1,0,0:0:0:0:
160,128,380333,1,0,0:0:0:0:
144,224,380499,1,0,0:0:0:0:
192,320,380666,1,0,0:0:0:0:
304,336,380833,1,0,0:0:0:0:
384,256,380999,1,0,0:0:0:0:
352,144,381166,1,0,0:0:0:0:
256,176,381333,1,0,0:0:0:0:
272,272,381499,1,0,0:0:0:0:
384,256,381666,5,0,0:0:0:0:
352,144,381833,1,0,0:0:0:0:
256,80,381999,1,0,0:0:0:0:
160,80,382166,1,0,0:0:0:0:
64,80,382333,1,0,0:0:0:0:
64,160,382499,1,0,0:0:0:0:
64,240,382666,1,0,0:0:0:0:
64,320,382833,1,0,0:0:0:0:
144,320,382999,5,0,0:0:0:0:
224,320,383166,1,0,0:0:0:0:
304,320,383333,1,0,0:0:0:0:
304,240,383499,1,0,0:0:0:0:
224,240,383666,1,0,0:0:0:0:
144,240,383833,1,0,0:0:0:0:
144,160,383999,5,0,0:0:0:0:
224,160,384166,1,0,0:0:0:0:
304,160,384333,1,0,0:0:0:0:
304,80,384499,5,0,0:0:0:0:
224,80,384666,1,0,0:0:0:0:
144,80,384833,1,0,0:0:0:0:
64,80,384999,5,0,0:0:0:0:
64,96,385083,1,0,0:0:0:0:
64,112,385166,1,0,0:0:0:0:
64,128,385249,1,0,0:0:0:0:
64,144,385333,1,0,0:0:0:0:
64,160,385416,1,0,0:0:0:0:
64,176,385499,1,0,0:0:0:0:
64,192,385583,1,0,0:0:0:0:
64,208,385666,1,0,0:0:0:0:
64,224,385749,1,0,0:0:0:0:
64,240,385833,1,0,0:0:0:0:
64,256,385916,1,0,0:0:0:0:
64,272,385999,1,0,0:0:0:0:
144,272,386083,5,0,0:0:0:0:
144,256,386166,1,0,0:0:0:0:
144,240,386249,1,0,0:0:0:0:
144,224,386333,1,0,0:0:0:0:
432,64,386499,6,0,P|448:112|448:224,1,140
368,64,386999,2,0,P|384:128|384:224,1,140
304,64,387499,2,0,P|320:128|304:272,1,210
224,256,388333,1,0,0:0:0:0:
224,256,388666,1,0,0:0:0:0:
80,256,388999,6,0,L|208:160,1,140
192,64,389499,2,0,L|304:192,1,140
288,304,389999,2,0,L|464:64,1,280
320,64,390999,1,0,0:0:0:0:
320,64,391333,1,0,0:0:0:0:
80,64,391666,6,0,L|80:224,1,140
160,208,392166,2,0,L|160:48,1,140
240,64,392666,2,0,L|240:352,1,280
320,336,393666,1,0,0:0:0:0:
320,336,393999,1,0,0:0:0:0:
96,128,394333,6,0,P|128:96|240:48,1,140
128,192,394833,2,0,P|176:144|256:112,1,140
160,256,395333,2,0,P|224:192|416:144,1,280
384,256,396333,1,0,0:0:0:0:
384,256,396666,1,0,0:0:0:0:
96,96,396999,6,0,L|96:144|96:192,2,70
176,96,397499,2,0,L|176:176,2,70
256,96,397999,2,0,L|256:176,4,70
352,128,398999,1,0,0:0:0:0:
352,128,399333,1,0,0:0:0:0:
416,336,399666,6,0,L|416:240,2,70
336,336,400166,2,0,L|336:256,2,70
256,336,400666,2,0,L|256:256,4,70
144,288,401666,1,0,0:0:0:0:
144,288,401999,1,0,0:0:0:0:
144,80,402333,6,0,L|144:176,2,70
224,80,402833,2,0,L|224:160,2,70
304,80,403333,2,0,L|304:160,4,70
400,96,404333,1,0,0:0:0:0:
400,96,404666,1,0,0:0:0:0:
96,288,406666,5,0,0:0:0:0:
96,288,406749,1,0,0:0:0:0:
96,288,406833,1,0,0:0:0:0:
96,288,406916,1,0,0:0:0:0:
96,288,406999,1,0,0:0:0:0:
128,208,407166,1,0,0:0:0:0:
304,64,407333,1,0,0:0:0:0:
384,304,407499,1,0,0:0:0:0:
272,176,407666,1,0,0:0:0:0:
80,80,407833,5,0,0:0:0:0:
80,80,407916,1,0,0:0:0:0:
80,80,407999,1,0,0:0:0:0:
160,112,408166,2,0,L|240:128,1,70
208,224,408499,2,0,L|192:304,1,70
288,288,408833,1,0,0:0:0:0:
288,288,408916,1,0,0:0:0:0:
288,288,408999,1,0,0:0:0:0:
288,288,409083,1,0,0:0:0:0:
288,288,409166,1,0,0:0:0:0:
288,288,409249,1,0,0:0:0:0:
288,288,409333,1,0,0:0:0:0:
336,224,409499,5,0,0:0:0:0:
400,128,409666,1,0,0:0:0:0:
432,240,409833,1,0,0:0:0:0:
432,240,409916,1,0,0:0:0:0:
432,240,409999,1,0,0:0:0:0:
336,224,410166,1,0,0:0:0:0:
336,224,410249,1,0,0:0:0:0:
336,224,410333,1,0,0:0:0:0:
288,144,410499,5,0,0:0:0:0:
176,224,410666,1,0,0:0:0:0:
288,144,410833,1,0,0:0:0:0:
176,224,410999,1,0,0:0:0:0:
288,144,411166,1,0,0:0:0:0:
176,224,411333,1,0,0:0:0:0:
176,224,411416,1,0,0:0:0:0:
176,224,411499,1,0,0:0:0:0:
176,224,411583,1,0,0:0:0:0:
176,224,411666,1,0,0:0:0:0:
176,224,411749,1,0,0:0:0:0:
176,224,411833,1,0,0:0:0:0:
176,224,411916,1,0,0:0:0:0:
176,224,411999,1,0,0:0:0:0:
96,144,412166,5,0,0:0:0:0:
176,80,412333,1,0,0:0:0:0:
176,80,412416,1,0,0:0:0:0:
176,80,412499,1,0,0:0:0:0:
224,144,412666,1,0,0:0:0:0:
288,96,412833,1,0,0:0:0:0:
288,96,412916,1,0,0:0:0:0:
288,96,412999,1,0,0:0:0:0:
352,160,413166,1,0,0:0:0:0:
432,240,413333,1,0,0:0:0:0:
432,240,413499,1,0,0:0:0:0:
432,240,413666,1,0,0:0:0:0:
432,352,413833,5,0,0:0:0:0:
432,352,413916,1,0,0:0:0:0:
432,352,413999,1,0,0:0:0:0:
352,288,414166,5,0,0:0:0:0:
320,288,414250,1,0,0:0:0:0:
288,288,414333,1,0,0:0:0:0:
256,288,414416,1,0,0:0:0:0:
224,288,414500,1,0,0:0:0:0:
192,288,414583,1,0,0:0:0:0:
160,288,414666,1,0,0:0:0:0:
128,288,414750,1,0,0:0:0:0:
96,288,414833,1,0,0:0:0:0:
96,208,414999,5,0,0:0:0:0:
96,208,415083,1,0,0:0:0:0:
96,208,415166,1,0,0:0:0:0:
144,128,415333,1,0,0:0:0:0:
272,144,415499,1,0,0:0:0:0:
192,208,415666,1,0,0:0:0:0:
304,64,415833,1,0,0:0:0:0:
304,64,415916,1,0,0:0:0:0:
304,64,415999,1,0,0:0:0:0:
368,128,416166,5,0,0:0:0:0:
368,128,416249,1,0,0:0:0:0:
368,128,416333,1,0,0:0:0:0:
400,208,416499,1,0,0:0:0:0:
320,224,416666,1,0,0:0:0:0:
320,224,416749,1,0,0:0:0:0:
320,224,416833,1,0,0:0:0:0:
240,176,416999,1,0,0:0:0:0:
176,144,417166,1,0,0:0:0:0:
176,144,417249,1,0,0:0:0:0:
176,144,417333,1,0,0:0:0:0:
80,192,417499,5,0,0:0:0:0:
144,272,417666,1,0,0:0:0:0:
240,272,417833,1,0,0:0:0:0:
320,224,417999,1,0,0:0:0:0:
384,176,418166,1,0,0:0:0:0:
384,176,418249,1,0,0:0:0:0:
384,176,418333,1,0,0:0:0:0:
336,96,418499,1,0,0:0:0:0:
224,80,418666,1,0,0:0:0:0:
224,80,418749,1,0,0:0:0:0:
224,80,418833,1,0,0:0:0:0:
96,112,418999,5,0,0:0:0:0:
96,112,419083,1,0,0:0:0:0:
96,112,419166,1,0,0:0:0:0:
128,192,419333,1,0,0:0:0:0:
96,272,419499,1,0,0:0:0:0:
192,240,419666,1,0,0:0:0:0:
160,320,419833,1,0,0:0:0:0:
160,320,419916,1,0,0:0:0:0:
160,320,419999,1,0,0:0:0:0:
272,304,420166,5,0,0:0:0:0:
352,224,420333,1,0,0:0:0:0:
272,304,420499,1,0,0:0:0:0:
208,208,420666,1,0,0:0:0:0:
352,224,420833,1,0,0:0:0:0:
208,208,420999,1,0,0:0:0:0:
208,208,421083,1,0,0:0:0:0:
208,208,421166,1,0,0:0:0:0:
256,144,421333,1,0,0:0:0:0:
256,144,421416,1,0,0:0:0:0:
256,144,421499,1,0,0:0:0:0:
352,80,421666,5,0,0:0:0:0:
432,224,421833,1,0,0:0:0:0:
352,80,421999,1,0,0:0:0:0:
352,224,422166,1,0,0:0:0:0:
352,80,422333,1,0,0:0:0:0:
256,208,422499,1,0,0:0:0:0:
352,80,422666,1,0,0:0:0:0:
352,224,422833,1,0,0:0:0:0:
352,80,422999,1,0,0:0:0:0:
432,224,423166,1,0,0:0:0:0:
352,80,423333,1,0,0:0:0:0:
352,224,423499,1,0,0:0:0:0:
352,80,423666,1,0,0:0:0:0:
240,80,423833,5,0,0:0:0:0:
240,80,423916,1,0,0:0:0:0:
240,80,423999,1,0,0:0:0:0:
128,176,424166,1,0,0:0:0:0:
272,176,424333,1,0,0:0:0:0:
384,240,424499,1,0,0:0:0:0:
272,320,424666,1,0,0:0:0:0:
128,320,424833,1,0,0:0:0:0:
128,320,424916,1,0,0:0:0:0:
128,320,424999,1,0,0:0:0:0:
48,256,425166,1,0,0:0:0:0:
128,176,425333,5,0,0:0:0:0:
240,80,425499,1,0,0:0:0:0:
240,80,425583,1,0,0:0:0:0:
240,80,425666,1,0,0:0:0:0:
320,128,425833,1,0,0:0:0:0:
432,128,425999,1,0,0:0:0:0:
304,208,426166,1,0,0:0:0:0:
400,272,426333,1,0,0:0:0:0:
272,288,426499,5,0,0:0:0:0:
272,288,426583,1,0,0:0:0:0:
272,288,426666,1,0,0:0:0:0:
96,208,426833,1,0,0:0:0:0:
240,208,426999,1,0,0:0:0:0:
160,64,427166,1,0,0:0:0:0:
96,208,427333,1,0,0:0:0:0:
240,208,427499,1,0,0:0:0:0:
160,64,427666,1,0,0:0:0:0:
96,208,427833,1,0,0:0:0:0:
352,96,427999,5,0,0:0:0:0:
352,112,428083,1,0,0:0:0:0:
352,128,428166,1,0,0:0:0:0:
352,144,428249,1,0,0:0:0:0:
352,160,428333,1,0,0:0:0:0:
352,176,428416,1,0,0:0:0:0:
352,192,428499,1,0,0:0:0:0:
352,208,428583,1,0,0:0:0:0:
352,224,428666,1,0,0:0:0:0:
352,240,428749,1,0,0:0:0:0:
352,256,428833,1,0,0:0:0:0:
352,272,428916,1,0,0:0:0:0:
352,288,428999,1,0,0:0:0:0:
160,64,429166,6,0,P|160:112|176:176,1,105
224,224,430333,2,0,P|288:176|304:112,1,140
384,96,431666,2,0,L|384:320,1,210
288,304,432999,2,0,L|64:304,1,210
80,224,434333,2,0,L|80:80,1,140
160,80,435666,2,0,L|240:80,1,70
144,160,436333,2,0,L|224:160,1,70
96,224,436999,2,0,L|176:224,1,70
64,288,437666,2,0,L|144:288,1,70
208,320,438333,2,0,L|208:240,1,70
288,256,438999,2,0,L|288:336,1,70
368,304,439666,5,0,0:0:0:0:
416,224,439833,1,0,0:0:0:0:
416,128,439999,1,0,0:0:0:0:
352,64,440166,1,0,0:0:0:0:
256,64,440333,1,0,0:0:0:0:
176,64,440499,1,0,0:0:0:0:
96,64,440666,1,0,0:0:0:0:
32,112,440833,1,0,0:0:0:0:
32,192,440999,1,0,0:0:0:0:
32,272,441166,1,0,0:0:0:0:
128,288,441333,1,0,0:0:0:0:
208,288,441499,5,0,0:0:0:0:
288,288,441666,1,0,0:0:0:0:
368,288,441833,1,0,0:0:0:0:
464,288,441999,1,0,0:0:0:0:
464,208,442166,1,0,0:0:0:0:
464,128,442333,1,0,0:0:0:0:
384,128,442499,1,0,0:0:0:0:
304,128,442666,1,0,0:0:0:0:
208,128,442833,1,0,0:0:0:0:
112,128,442999,1,0,0:0:0:0:
112,208,443166,5,0,0:0:0:0:
208,208,443333,1,0,0:0:0:0:
304,208,443499,1,0,0:0:0:0:
384,208,443666,1,0,0:0:0:0:
384,288,443833,5,0,0:0:0:0:
304,288,443999,1,0,0:0:0:0:
208,288,444166,1,0,0:0:0:0:
112,288,444333,1,0,0:0:0:0:
112,208,444499,1,0,0:0:0:0:
112,128,444666,1,0,0:0:0:0:
112,48,444833,1,0,0:0:0:0:
192,48,444999,1,0,0:0:0:0:
272,48,445166,1,0,0:0:0:0:
272,128,445333,1,0,0:0:0:0:
272,208,445499,5,0,0:0:0:0:
272,288,445666,1,0,0:0:0:0:
368,288,445833,1,0,0:0:0:0:
448,288,445999,1,0,0:0:0:0:
448,208,446166,1,0,0:0:0:0:
448,128,446333,1,0,0:0:0:0:
448,48,446499,1,0,0:0:0:0:
352,48,446666,1,0,0:0:0:0:
352,128,446833,1,0,0:0:0:0:
352,208,446999,1,0,0:0:0:0:
272,208,447166,5,0,0:0:0:0:
192,208,447333,1,0,0:0:0:0:
112,208,447499,1,0,0:0:0:0:
32,208,447666,1,0,0:0:0:0:
32,288,447833,1,0,0:0:0:0:
112,288,447999,1,0,0:0:0:0:
192,288,448166,1,0,0:0:0:0:
272,288,448333,1,0,0:0:0:0:
352,288,448499,5,0,0:0:0:0:
432,288,448666,1,0,0:0:0:0:
432,352,448833,1,0,0:0:0:0:
352,352,448999,1,0,0:0:0:0:
272,352,449166,1,0,0:0:0:0:
192,352,449333,1,0,0:0:0:0:
112,352,449499,1,0,0:0:0:0:
112,272,449666,1,0,0:0:0:0:
112,192,449833,1,0,0:0:0:0:
112,112,449999,1,0,0:0:0:0:
192,112,450166,1,0,0:0:0:0:
288,112,450333,1,0,0:0:0:0:
288,192,450499,1,0,0:0:0:0:
464,64,450583,5,0,0:0:0:0:
464,80,450666,1,0,0:0:0:0:
464,96,450749,1,0,0:0:0:0:
464,112,450833,1,0,0:0:0:0:
464,128,450916,1,0,0:0:0:0:
464,144,450999,1,0,0:0:0:0:
464,160,451083,1,0,0:0:0:0:
464,176,451166,1,0,0:0:0:0:
464,176,451249,1,0,0:0:0:0:
464,176,451333,1,0,0:0:0:0:
448,176,451416,1,0,0:0:0:0:
432,176,451499,1,0,0:0:0:0:
416,176,451583,1,0,0:0:0:0:
400,176,451666,1,0,0:0:0:0:
384,176,451749,1,0,0:0:0:0:
368,176,451833,1,0,0:0:0:0:
352,176,451916,1,0,0:0:0:0:
336,176,451999,1,0,0:0:0:0:
320,176,452083,1,0,0:0:0:0:
304,176,452166,1,0,0:0:0:0:
288,176,452249,1,0,0:0:0:0:
272,176,452333,1,0,0:0:0:0:
256,176,452416,1,0,0:0:0:0:
240,176,452499,1,0,0:0:0:0:
224,176,452583,5,0,0:0:0:0:
208,176,452666,1,0,0:0:0:0:
192,176,452749,1,0,0:0:0:0:
176,176,452833,1,0,0:0:0:0:
160,176,452916,1,0,0:0:0:0:
144,176,452999,1,0,0:0:0:0:
128,176,453083,1,0,0:0:0:0:
112,176,453166,1,0,0:0:0:0:
96,176,453249,1,0,0:0:0:0:
96,192,453333,1,0,0:0:0:0:
96,208,453416,1,0,0:0:0:0:
96,224,453499,1,0,0:0:0:0:
96,240,453583,1,0,0:0:0:0:
96,256,453666,1,0,0:0:0:0:
96,272,453749,5,0,0:0:0:0:
96,288,453833,1,0,0:0:0:0:
96,304,453916,1,0,0:0:0:0:
96,304,453999,1,0,0:0:0:0:
112,304,454083,1,0,0:0:0:0:
128,304,454166,1,0,0:0:0:0:
144,304,454249,1,0,0:0:0:0:
160,304,454333,1,0,0:0:0:0:
176,304,454416,1,0,0:0:0:0:
192,304,454499,1,0,0:0:0:0:
208,304,454583,1,0,0:0:0:0:
224,304,454666,1,0,0:0:0:0:
240,304,454749,1,0,0:0:0:0:
256,304,454833,5,0,0:0:0:0:
272,304,454916,1,0,0:0:0:0:
288,304,454999,1,0,0:0:0:0:
304,304,455083,1,0,0:0:0:0:
320,304,455166,1,0,0:0:0:0:
320,288,455249,1,0,0:0:0:0:
320,272,455333,1,0,0:0:0:0:
320,256,455416,1,0,0:0:0:0:
320,240,455499,1,0,0:0:0:0:
320,224,455583,1,0,0:0:0:0:
320,208,455666,1,0,0:0:0:0:
320,192,455749,1,0,0:0:0:0:
320,176,455833,1,0,0:0:0:0:
320,160,455916,1,0,0:0:0:0:
320,144,455999,1,0,0:0:0:0:
304,144,456083,5,0,0:0:0:0:
288,144,456166,1,0,0:0:0:0:
272,144,456249,1,0,0:0:0:0:
256,144,456333,1,0,0:0:0:0:
240,144,456416,1,0,0:0:0:0:
224,144,456499,1,0,0:0:0:0:
208,144,456583,1,0,0:0:0:0:
192,144,456666,1,0,0:0:0:0:
176,144,456749,1,0,0:0:0:0:
160,144,456833,1,0,0:0:0:0:
144,144,456916,1,0,0:0:0:0:
128,144,456999,1,0,0:0:0:0:
112,144,457083,1,0,0:0:0:0:
96,144,457166,1,0,0:0:0:0:
96,160,457249,5,0,0:0:0:0:
96,176,457333,1,0,0:0:0:0:
96,192,457416,1,0,0:0:0:0:
96,208,457499,1,0,0:0:0:0:
96,224,457583,1,0,0:0:0:0:
96,240,457666,1,0,0:0:0:0:
96,256,457749,1,0,0:0:0:0:
96,272,457833,1,0,0:0:0:0:
112,272,457916,1,0,0:0:0:0:
128,272,457999,1,0,0:0:0:0:
144,272,458083,1,0,0:0:0:0:
160,272,458166,1,0,0:0:0:0:
176,272,458249,1,0,0:0:0:0:
192,272,458333,1,0,0:0:0:0:
208,272,458416,1,0,0:0:0:0:
224,272,458499,1,0,0:0:0:0:
240,272,458583,1,0,0:0:0:0:
256,272,458666,1,0,0:0:0:0:
272,272,458749,5,0,0:0:0:0:
288,272,458833,1,0,0:0:0:0:
304,272,458916,1,0,0:0:0:0:
320,272,458999,1,0,0:0:0:0:
336,272,459083,1,0,0:0:0:0:
352,272,459166,1,0,0:0:0:0:
368,272,459249,1,0,0:0:0:0:
384,272,459333,1,0,0:0:0:0:
400,272,459416,1,0,0:0:0:0:
416,272,459499,1,0,0:0:0:0:
432,272,459583,1,0,0:0:0:0:
448,272,459666,1,0,0:0:0:0:
464,272,459749,1,0,0:0:0:0:
464,256,459833,1,0,0:0:0:0:
464,240,459916,1,0,0:0:0:0:
464,224,459999,5,0,0:0:0:0:
464,208,460083,1,0,0:0:0:0:
464,192,460166,1,0,0:0:0:0:
464,176,460249,1,0,0:0:0:0:
464,160,460333,1,0,0:0:0:0:
464,144,460416,1,0,0:0:0:0:
464,128,460499,1,0,0:0:0:0:
464,112,460583,1,0,0:0:0:0:
464,96,460666,1,0,0:0:0:0:
448,96,460749,5,0,0:0:0:0:
432,96,460833,1,0,0:0:0:0:
416,96,460916,1,0,0:0:0:0:
400,96,460999,1,0,0:0:0:0:
384,96,461083,1,0,0:0:0:0:
368,96,461166,1,0,0:0:0:0:
352,96,461249,1,0,0:0:0:0:
336,96,461333,1,0,0:0:0:0:
320,96,461416,5,0,0:0:0:0:
304,96,461499,1,0,0:0:0:0:
288,96,461583,1,0,0:0:0:0:
272,96,461666,1,0,0:0:0:0:
256,96,461749,1,0,0:0:0:0:
240,96,461833,1,0,0:0:0:0:
224,96,461916,1,0,0:0:0:0:
208,96,461999,1,0,0:0:0:0:
192,96,462083,1,0,0:0:0:0:
176,96,462166,1,0,0:0:0:0:
176,96,462249,1,0,0:0:0:0:
176,112,462333,1,0,0:0:0:0:
176,128,462416,1,0,0:0:0:0:
176,144,462499,5,0,0:0:0:0:
176,160,462583,1,0,0:0:0:0:
176,176,462666,1,0,0:0:0:0:
176,192,462749,1,0,0:0:0:0:
176,208,462833,1,0,0:0:0:0:
176,224,462916,1,0,0:0:0:0:
192,224,462999,1,0,0:0:0:0:
208,224,463083,1,0,0:0:0:0:
224,224,463166,1,0,0:0:0:0:
240,224,463249,1,0,0:0:0:0:
256,224,463333,1,0,0:0:0:0:
272,224,463416,5,0,0:0:0:0:
288,224,463499,1,0,0:0:0:0:
304,224,463583,1,0,0:0:0:0:
320,224,463666,1,0,0:0:0:0:
336,224,463749,1,0,0:0:0:0:
352,224,463833,1,0,0:0:0:0:
368,224,463916,1,0,0:0:0:0:
384,224,463999,1,0,0:0:0:0:
400,224,464083,1,0,0:0:0:0:
416,224,464166,5,0,0:0:0:0:
416,240,464249,1,0,0:0:0:0:
416,256,464333,1,0,0:0:0:0:
416,272,464416,1,0,0:0:0:0:
416,288,464499,1,0,0:0:0:0:
416,304,464583,1,0,0:0:0:0:
416,320,464666,1,0,0:0:0:0:
400,320,464749,5,0,0:0:0:0:
384,320,464833,1,0,0:0:0:0:
368,320,464916,1,0,0:0:0:0:
352,320,464999,1,0,0:0:0:0:
336,320,465083,1,0,0:0:0:0:
320,320,465166,1,0,0:0:0:0:
304,320,465249,1,0,0:0:0:0:
288,320,465333,1,0,0:0:0:0:
272,320,465416,1,0,0:0:0:0:
256,320,465499,1,0,0:0:0:0:
240,320,465583,1,0,0:0:0:0:
224,320,465666,1,0,0:0:0:0:
208,320,465749,5,0,0:0:0:0:
192,320,465833,1,0,0:0:0:0:
192,304,465916,1,0,0:0:0:0:
192,288,465999,1,0,0:0:0:0:
192,272,466083,1,0,0:0:0:0:
192,256,466166,1,0,0:0:0:0:
192,240,466249,1,0,0:0:0:0:
192,224,466333,1,0,0:0:0:0:
192,208,466416,1,0,0:0:0:0:
192,192,466499,1,0,0:0:0:0:
192,176,466583,1,0,0:0:0:0:
192,160,466666,1,0,0:0:0:0:
192,144,466749,1,0,0:0:0:0:
208,144,466833,1,0,0:0:0:0:
224,144,466916,1,0,0:0:0:0:
240,144,466999,1,0,0:0:0:0:
256,144,467083,1,0,0:0:0:0:
272,144,467166,1,0,0:0:0:0:
288,144,467249,1,0,0:0:0:0:
304,144,467333,5,0,0:0:0:0:
320,144,467416,1,0,0:0:0:0:
336,144,467499,1,0,0:0:0:0:
352,144,467583,1,0,0:0:0:0:
368,144,467666,1,0,0:0:0:0:
384,144,467749,1,0,0:0:0:0:
400,144,467833,1,0,0:0:0:0:
416,144,467916,1,0,0:0:0:0:
432,144,467999,1,0,0:0:0:0:
448,144,468083,1,0,0:0:0:0:
464,144,468166,5,0,0:0:0:0:
464,128,468249,1,0,0:0:0:0:
464,112,468333,1,0,0:0:0:0:
464,96,468416,1,0,0:0:0:0:
464,80,468499,1,0,0:0:0:0:
464,64,468583,1,0,0:0:0:0:
448,64,468666,1,0,0:0:0:0:
432,64,468749,1,0,0:0:0:0:
416,64,468833,1,0,0:0:0:0:
400,64,468916,1,0,0:0:0:0:
384,64,468999,1,0,0:0:0:0:
368,64,469083,5,0,0:0:0:0:
352,64,469166,1,0,0:0:0:0:
336,64,469249,1,0,0:0:0:0:
320,64,469333,1,0,0:0:0:0:
304,64,469416,1,0,0:0:0:0:
288,64,469499,1,0,0:0:0:0:
272,64,469583,1,0,0:0:0:0:
256,64,469666,1,0,0:0:0:0:
240,64,469749,1,0,0:0:0:0:
224,64,469833,1,0,0:0:0:0:
208,64,469916,1,0,0:0:0:0:
192,64,469999,1,0,0:0:0:0:
176,64,470083,5,0,0:0:0:0:
160,64,470166,1,0,0:0:0:0:
144,64,470249,1,0,0:0:0:0:
128,64,470333,1,0,0:0:0:0:
128,80,470416,1,0,0:0:0:0:
128,96,470499,1,0,0:0:0:0:
128,112,470583,1,0,0:0:0:0:
128,128,470666,1,0,0:0:0:0:
128,144,470749,1,0,0:0:0:0:
128,160,470833,1,0,0:0:0:0:
128,176,470916,1,0,0:0:0:0:
128,192,470999,1,0,0:0:0:0:
144,192,471083,5,0,0:0:0:0:
160,192,471166,1,0,0:0:0:0:
176,192,471249,1,0,0:0:0:0:
400,80,471666,5,0,0:0:0:0:
400,96,471749,1,0,0:0:0:0:
400,112,471833,1,0,0:0:0:0:
400,128,471916,1,0,0:0:0:0:
400,144,471999,1,0,0:0:0:0:
400,160,472083,2,0,L|400:208,4,35
400,240,472499,2,0,L|400:304,5,35
336,272,472999,6,0,L|288:272,6,35
304,208,473583,2,0,L|304:160,4,35
304,96,473999,1,0,0:0:0:0:
288,96,474083,1,0,0:0:0:0:
272,96,474166,1,0,0:0:0:0:
256,96,474249,1,0,0:0:0:0:
240,96,474333,1,0,0:0:0:0:
224,96,474416,1,0,0:0:0:0:
208,96,474499,1,0,0:0:0:0:
192,96,474583,1,0,0:0:0:0:
176,96,474666,1,0,0:0:0:0:
160,96,474749,5,0,0:0:0:0:
144,96,474833,1,0,0:0:0:0:
128,96,474916,1,0,0:0:0:0:
96,96,474999,2,0,L|96:144,6,35
96,208,475583,2,0,L|144:208,5,35
224,208,476083,2,0,L|272:208,6,35
336,208,476666,2,0,L|336:160,6,35
336,96,477249,6,0,L|384:96,6,35
448,96,477833,2,0,L|448:160,5,35
448,208,478333,2,0,L|448:256,6,35
448,304,478916,2,0,L|384:304,6,35
336,304,479499,2,0,L|272:304,6,35
224,304,480083,5,0,0:0:0:0:
224,288,480166,1,0,0:0:0:0:
224,272,480249,1,0,0:0:0:0:
224,256,480333,1,0,0:0:0:0:
224,240,480416,1,0,0:0:0:0:
224,224,480499,1,0,0:0:0:0:
224,208,480583,1,0,0:0:0:0:
224,192,480666,1,0,0:0:0:0:
224,176,480749,1,0,0:0:0:0:
224,160,480833,1,0,0:0:0:0:
224,144,480916,1,0,0:0:0:0:
224,128,480999,1,0,0:0:0:0:
224,112,481083,1,0,0:0:0:0:
224,96,481166,1,0,0:0:0:0:
224,80,481249,1,0,0:0:0:0:
224,64,481333,1,0,0:0:0:0:
432,80,481499,6,0,L|336:112,1,70
448,192,481833,2,0,L|352:192,1,70
448,304,482166,2,0,L|352:288,1,70
256,272,482499,5,0,0:0:0:0:
288,192,482666,1,0,0:0:0:0:
288,192,482749,1,0,0:0:0:0:
288,192,482833,1,0,0:0:0:0:
320,128,482999,1,0,0:0:0:0:
240,80,483166,1,0,0:0:0:0:
240,80,483249,1,0,0:0:0:0:
240,80,483333,1,0,0:0:0:0:
144,144,483499,1,0,0:0:0:0:
144,144,483583,1,0,0:0:0:0:
144,144,483666,1,0,0:0:0:0:
160,240,483833,5,0,0:0:0:0:
224,192,483999,1,0,0:0:0:0:
224,192,484083,1,0,0:0:0:0:
224,192,484166,1,0,0:0:0:0:
272,272,484333,1,0,0:0:0:0:
352,224,484499,1,0,0:0:0:0:
368,304,484666,1,0,0:0:0:0:
368,304,484749,1,0,0:0:0:0:
368,304,484833,1,0,0:0:0:0:
448,288,484999,5,0,0:0:0:0:
448,192,485166,1,0,0:0:0:0:
448,96,485333,1,0,0:0:0:0:
352,80,485499,1,0,0:0:0:0:
352,80,485583,1,0,0:0:0:0:
352,80,485666,1,0,0:0:0:0:
256,96,485833,5,0,0:0:0:0:
144,160,485999,1,0,0:0:0:0:
240,208,486166,1,0,0:0:0:0:
240,208,486249,1,0,0:0:0:0:
240,208,486333,1,0,0:0:0:0:
192,304,486499,1,0,0:0:0:0:
304,304,486666,1,0,0:0:0:0:
304,304,486749,1,0,0:0:0:0:
304,304,486833,1,0,0:0:0:0:
384,272,486999,1,0,0:0:0:0:
384,272,487083,1,0,0:0:0:0:
384,272,487166,1,0,0:0:0:0:
416,192,487333,5,0,0:0:0:0:
304,160,487499,1,0,0:0:0:0:
304,160,487583,1,0,0:0:0:0:
304,160,487666,1,0,0:0:0:0:
192,112,487833,1,0,0:0:0:0:
128,208,487999,1,0,0:0:0:0:
128,208,488083,1,0,0:0:0:0:
128,208,488166,1,0,0:0:0:0:
208,240,488333,1,0,0:0:0:0:
336,240,488499,1,0,0:0:0:0:
448,240,488666,5,0,0:0:0:0:
448,112,488833,1,0,0:0:0:0:
368,112,488999,1,0,0:0:0:0:
368,112,489083,1,0,0:0:0:0:
368,112,489166,1,0,0:0:0:0:
272,112,489333,1,0,0:0:0:0:
208,112,489499,1,0,0:0:0:0:
208,112,489583,1,0,0:0:0:0:
208,112,489666,1,0,0:0:0:0:
128,176,489833,1,0,0:0:0:0:
144,256,489999,5,0,0:0:0:0:
144,256,490083,1,0,0:0:0:0:
144,256,490166,1,0,0:0:0:0:
224,240,490333,1,0,0:0:0:0:
320,224,490499,1,0,0:0:0:0:
400,256,490666,1,0,0:0:0:0:
304,304,490833,1,0,0:0:0:0:
304,304,490916,1,0,0:0:0:0:
304,304,490999,1,0,0:0:0:0:
192,320,491166,1,0,0:0:0:0:
64,272,491333,5,0,0:0:0:0:
64,272,491416,1,0,0:0:0:0:
64,272,491499,1,0,0:0:0:0:
80,128,491666,5,0,0:0:0:0:
96,128,491749,1,0,0:0:0:0:
112,128,491833,1,0,0:0:0:0:
128,128,491916,1,0,0:0:0:0:
144,128,491999,1,0,0:0:0:0:
160,128,492083,1,0,0:0:0:0:
176,128,492166,1,0,0:0:0:0:
192,128,492249,1,0,0:0:0:0:
208,128,492333,1,0,0:0:0:0:
224,128,492416,1,0,0:0:0:0:
240,128,492499,1,0,0:0:0:0:
256,128,492583,1,0,0:0:0:0:
272,128,492666,1,0,0:0:0:0:
288,128,492749,1,0,0:0:0:0:
304,128,492833,1,0,0:0:0:0:
320,128,492916,1,0,0:0:0:0:
336,128,492999,1,0,0:0:0:0:
256,192,513333,12,0,514333,0:0:0:0:
112,80,514666,5,0,0:0:0:0:
112,80,514749,1,0,0:0:0:0:
112,80,514833,1,0,0:0:0:0:
128,160,514999,1,0,0:0:0:0:
224,96,515166,1,0,0:0:0:0:
208,256,515333,1,0,0:0:0:0:
304,176,515499,1,0,0:0:0:0:
304,176,515583,1,0,0:0:0:0:
304,176,515666,1,0,0:0:0:0:
368,272,515833,1,0,0:0:0:0:
288,288,515999,5,0,0:0:0:0:
288,288,516083,1,0,0:0:0:0:
288,288,516166,1,0,0:0:0:0:
288,288,516249,1,0,0:0:0:0:
288,288,516333,1,0,0:0:0:0:
288,288,516416,1,0,0:0:0:0:
288,288,516499,1,0,0:0:0:0:
288,288,516583,1,0,0:0:0:0:
208,224,516749,1,0,0:0:0:0:
208,224,516833,1,0,0:0:0:0:
208,224,516916,1,0,0:0:0:0:
224,128,517083,5,0,0:0:0:0:
320,112,517249,1,0,0:0:0:0:
352,208,517416,1,0,0:0:0:0:
432,160,517583,1,0,0:0:0:0:
464,272,517749,1,0,0:0:0:0:
464,272,517833,1,0,0:0:0:0:
464,272,517916,1,0,0:0:0:0:
368,288,518083,1,0,0:0:0:0:
288,288,518249,1,0,0:0:0:0:
208,288,518416,1,0,0:0:0:0:
208,208,518583,5,0,0:0:0:0:
208,208,518666,1,0,0:0:0:0:
208,208,518749,1,0,0:0:0:0:
128,128,518916,1,0,0:0:0:0:
128,128,518999,1,0,0:0:0:0:
128,128,519083,1,0,0:0:0:0:
208,128,519249,1,0,0:0:0:0:
208,128,519332,1,0,0:0:0:0:
208,128,519416,1,0,0:0:0:0:
464,192,519583,1,0,0:0:0:0:
400,112,519749,1,0,0:0:0:0:
368,224,519916,1,0,0:0:0:0:
288,240,520083,1,0,0:0:0:0:
288,240,520166,1,0,0:0:0:0:
192,240,520333,1,0,0:0:0:0:
192,240,520416,1,0,0:0:0:0:
192,240,520499,1,0,0:0:0:0:
96,208,520666,5,0,0:0:0:0:
128,96,520833,1,0,0:0:0:0:
208,128,520999,1,0,0:0:0:0:
288,112,521166,1,0,0:0:0:0:
288,112,521249,1,0,0:0:0:0:
288,112,521333,1,0,0:0:0:0:
368,96,521499,1,0,0:0:0:0:
368,96,521583,1,0,0:0:0:0:
368,96,521666,1,0,0:0:0:0:
416,160,521833,5,0,0:0:0:0:
400,256,521999,1,0,0:0:0:0:
320,288,522166,1,0,0:0:0:0:
240,240,522333,1,0,0:0:0:0:
224,160,522499,1,0,0:0:0:0:
336,192,522666,1,0,0:0:0:0:
336,192,522749,1,0,0:0:0:0:
336,192,522833,1,0,0:0:0:0:
336,112,522999,1,0,0:0:0:0:
336,112,523083,1,0,0:0:0:0:
336,112,523166,1,0,0:0:0:0:
256,64,523333,5,0,0:0:0:0:
160,80,523499,1,0,0:0:0:0:
96,160,523666,1,0,0:0:0:0:
128,256,523833,1,0,0:0:0:0:
240,304,523999,1,0,0:0:0:0:
208,176,524166,1,0,0:0:0:0:
208,176,524249,1,0,0:0:0:0:
208,176,524333,1,0,0:0:0:0:
304,176,524499,1,0,0:0:0:0:
304,176,524583,1,0,0:0:0:0:
304,176,524666,1,0,0:0:0:0:
384,176,524833,5,0,0:0:0:0:
384,176,524916,1,0,0:0:0:0:
384,176,524999,1,0,0:0:0:0:
384,176,525083,1,0,0:0:0:0:
400,272,525249,5,0,0:0:0:0:
288,288,525416,1,0,0:0:0:0:
192,272,525583,1,0,0:0:0:0:
144,176,525749,1,0,0:0:0:0:
96,80,525916,1,0,0:0:0:0:
224,80,526083,5,0,0:0:0:0:
224,80,526166,1,0,0:0:0:0:
224,80,526249,1,0,0:0:0:0:
304,112,526416,1,0,0:0:0:0:
304,112,526500,1,0,0:0:0:0:
304,112,526583,1,0,0:0:0:0:
400,128,526749,1,0,0:0:0:0:
400,208,526915,1,0,0:0:0:0:
400,208,526999,1,0,0:0:0:0:
400,208,527082,1,0,0:0:0:0:
304,208,527249,5,0,0:0:0:0:
192,256,527416,1,0,0:0:0:0:
192,256,527499,1,0,0:0:0:0:
192,256,527583,1,0,0:0:0:0:
160,160,527749,1,0,0:0:0:0:
80,256,527916,1,0,0:0:0:0:
160,336,528083,1,0,0:0:0:0:
192,256,528249,1,0,0:0:0:0:
192,256,528333,1,0,0:0:0:0:
192,256,528416,1,0,0:0:0:0:
272,240,528583,5,0,0:0:0:0:
304,144,528749,1,0,0:0:0:0:
304,144,528833,1,0,0:0:0:0:
304,144,528916,1,0,0:0:0:0:
368,224,529083,1,0,0:0:0:0:
432,144,529249,1,0,0:0:0:0:
368,224,529416,1,0,0:0:0:0:
304,144,529583,1,0,0:0:0:0:
304,144,529666,1,0,0:0:0:0:
304,144,529749,1,0,0:0:0:0:
240,96,529916,1,0,0:0:0:0:
240,96,529999,1,0,0:0:0:0:
240,96,530083,1,0,0:0:0:0:
160,144,530249,5,0,0:0:0:0:
176,240,530416,1,0,0:0:0:0:
272,272,530583,1,0,0:0:0:0:
368,288,530749,1,0,0:0:0:0:
272,272,530916,1,0,0:0:0:0:
176,320,531083,1,0,0:0:0:0:
176,320,531166,1,0,0:0:0:0:
176,320,531249,1,0,0:0:0:0:
176,240,531416,1,0,0:0:0:0:
176,240,531499,1,0,0:0:0:0:
176,240,531583,1,0,0:0:0:0:
272,176,531749,1,0,0:0:0:0:
384,144,531916,1,0,0:0:0:0:
384,144,531999,1,0,0:0:0:0:
384,144,532083,1,0,0:0:0:0:
320,64,532249,5,0,0:0:0:0:
224,80,532416,1,0,0:0:0:0:
224,80,532499,1,0,0:0:0:0:
224,80,532583,1,0,0:0:0:0:
96,128,532749,1,0,0:0:0:0:
96,240,532916,1,0,0:0:0:0:
96,240,532999,1,0,0:0:0:0:
96,240,533083,1,0,0:0:0:0:
272,240,533250,1,0,0:0:0:0:
272,240,533333,1,0,0:0:0:0:
272,240,533417,1,0,0:0:0:0:
176,240,533583,1,0,0:0:0:0:
368,224,533749,1,0,0:0:0:0:
368,224,533833,1,0,0:0:0:0:
368,224,533916,1,0,0:0:0:0:
400,112,534083,5,0,0:0:0:0:
320,80,534249,1,0,0:0:0:0:
320,80,534333,1,0,0:0:0:0:
320,80,534416,1,0,0:0:0:0:
320,80,534499,1,0,0:0:0:0:
320,80,534583,1,0,0:0:0:0:
320,80,534666,1,0,0:0:0:0:
320,80,534749,1,0,0:0:0:0:
320,80,534833,1,0,0:0:0:0:
320,80,534916,1,0,0:0:0:0:
320,80,534999,5,0,0:0:0:0:
320,80,535083,1,0,0:0:0:0:
320,80,535166,1,0,0:0:0:0:
320,80,535249,1,0,0:0:0:0:
320,80,535333,1,0,0:0:0:0:
320,80,535416,1,0,0:0:0:0:
320,80,535499,1,0,0:0:0:0:
320,80,535583,1,0,0:0:0:0:
320,80,535666,1,0,0:0:0:0:
176,80,535833,5,0,0:0:0:0:
128,208,535999,1,0,0:0:0:0:
128,208,536083,1,0,0:0:0:0:
128,208,536166,1,0,0:0:0:0:
224,224,536333,1,0,0:0:0:0:
224,320,536499,1,0,0:0:0:0:
336,320,536666,1,0,0:0:0:0:
336,224,536833,1,0,0:0:0:0:
336,224,536916,1,0,0:0:0:0:
336,224,536999,1,0,0:0:0:0:
432,224,537166,5,0,0:0:0:0:
432,144,537333,1,0,0:0:0:0:
432,144,537416,1,0,0:0:0:0:
432,144,537499,1,0,0:0:0:0:
320,144,537666,1,0,0:0:0:0:
320,64,537833,1,0,0:0:0:0:
320,64,537916,1,0,0:0:0:0:
320,64,537999,1,0,0:0:0:0:
208,64,538166,1,0,0:0:0:0:
208,144,538333,1,0,0:0:0:0:
208,144,538416,1,0,0:0:0:0:
208,144,538499,1,0,0:0:0:0:
112,144,538666,5,0,0:0:0:0:
112,144,538749,1,0,0:0:0:0:
112,144,538833,1,0,0:0:0:0:
112,64,538999,1,0,0:0:0:0:
112,144,539166,1,0,0:0:0:0:
112,224,539333,1,0,0:0:0:0:
112,224,539416,1,0,0:0:0:0:
112,224,539499,1,0,0:0:0:0:
208,224,539666,1,0,0:0:0:0:
208,304,539833,5,0,0:0:0:0:
208,304,539916,1,0,0:0:0:0:
208,304,539999,1,0,0:0:0:0:
304,304,540166,1,0,0:0:0:0:
304,224,540333,1,0,0:0:0:0:
304,224,540416,1,0,0:0:0:0:
304,224,540499,1,0,0:0:0:0:
304,144,540666,1,0,0:0:0:0:
304,144,540749,1,0,0:0:0:0:
304,144,540833,1,0,0:0:0:0:
208,144,540999,1,0,0:0:0:0:
208,64,541166,5,0,0:0:0:0:
208,64,541249,1,0,0:0:0:0:
208,64,541333,1,0,0:0:0:0:
304,64,541499,1,0,0:0:0:0:
400,64,541666,1,0,0:0:0:0:
400,64,541749,1,0,0:0:0:0:
400,64,541833,1,0,0:0:0:0:
400,144,541999,1,0,0:0:0:0:
400,144,542083,1,0,0:0:0:0:
400,144,542166,1,0,0:0:0:0:
400,240,542333,5,0,0:0:0:0:
304,240,542499,1,0,0:0:0:0:
304,240,542583,1,0,0:0:0:0:
304,240,542666,1,0,0:0:0:0:
208,240,542833,1,0,0:0:0:0:
112,240,542999,1,0,0:0:0:0:
112,160,543166,1,0,0:0:0:0:
112,160,543249,1,0,0:0:0:0:
112,160,543333,1,0,0:0:0:0:
208,160,543499,5,0,0:0:0:0:
304,160,543666,1,0,0:0:0:0:
304,160,543749,1,0,0:0:0:0:
304,160,543833,1,0,0:0:0:0:
304,80,543999,1,0,0:0:0:0:
304,80,544083,1,0,0:0:0:0:
304,80,544166,1,0,0:0:0:0:
192,80,544333,1,0,0:0:0:0:
112,80,544499,1,0,0:0:0:0:
112,80,544583,1,0,0:0:0:0:
112,80,544666,1,0,0:0:0:0:
112,160,544832,1,0,0:0:0:0:
112,160,544916,1,0,0:0:0:0:
112,160,544999,1,0,0:0:0:0:
112,256,545166,5,0,0:0:0:0:
208,256,545333,1,0,0:0:0:0:
208,160,545499,1,0,0:0:0:0:
208,160,545583,1,0,0:0:0:0:
208,160,545666,1,0,0:0:0:0:
304,160,545833,1,0,0:0:0:0:
304,160,545916,1,0,0:0:0:0:
304,160,545999,1,0,0:0:0:0:
304,256,546166,5,0,0:0:0:0:
400,336,546333,1,0,0:0:0:0:
400,224,546499,1,0,0:0:0:0:
400,224,546583,1,0,0:0:0:0:
400,224,546666,1,0,0:0:0:0:
448,144,546833,5,0,0:0:0:0:
352,80,546999,1,0,0:0:0:0:
224,80,547166,1,0,0:0:0:0:
224,80,547249,1,0,0:0:0:0:
224,80,547333,1,0,0:0:0:0:
144,144,547499,1,0,0:0:0:0:
144,144,547583,1,0,0:0:0:0:
144,144,547666,1,0,0:0:0:0:
176,240,547833,5,0,0:0:0:0:
272,176,547999,1,0,0:0:0:0:
272,288,548166,1,0,0:0:0:0:
272,288,548249,1,0,0:0:0:0:
272,288,548333,1,0,0:0:0:0:
368,240,548499,1,0,0:0:0:0:
368,144,548666,1,0,0:0:0:0:
368,144,548749,1,0,0:0:0:0:
368,144,548833,1,0,0:0:0:0:
272,80,548999,5,0,0:0:0:0:
176,80,549166,1,0,0:0:0:0:
96,160,549333,1,0,0:0:0:0:
96,272,549499,1,0,0:0:0:0:
96,272,549583,1,0,0:0:0:0:
96,272,549666,1,0,0:0:0:0:
208,272,549833,1,0,0:0:0:0:
208,272,549916,1,0,0:0:0:0:
208,272,549999,1,0,0:0:0:0:
208,176,550166,1,0,0:0:0:0:
320,96,550333,5,0,0:0:0:0:
320,96,550416,1,0,0:0:0:0:
320,96,550499,1,0,0:0:0:0:
320,192,550666,1,0,0:0:0:0:
400,272,550833,1,0,0:0:0:0:
400,272,550916,1,0,0:0:0:0:
400,272,550999,1,0,0:0:0:0:
416,144,551166,1,0,0:0:0:0:
304,288,551333,1,0,0:0:0:0:
304,288,551416,1,0,0:0:0:0:
304,288,551499,1,0,0:0:0:0:
192,272,551666,5,0,0:0:0:0:
96,208,551833,1,0,0:0:0:0:
192,160,551999,1,0,0:0:0:0:
192,160,552083,1,0,0:0:0:0:
192,160,552166,1,0,0:0:0:0:
288,208,552333,1,0,0:0:0:0:
288,96,552499,1,0,0:0:0:0:
288,96,552583,1,0,0:0:0:0:
288,96,552666,1,0,0:0:0:0:
384,128,552833,5,0,0:0:0:0:
416,208,552999,1,0,0:0:0:0:
416,208,553083,1,0,0:0:0:0:
416,208,553166,1,0,0:0:0:0:
368,304,553333,1,0,0:0:0:0:
224,304,553499,1,0,0:0:0:0:
368,304,553666,1,0,0:0:0:0:
368,304,553749,1,0,0:0:0:0:
368,304,553833,1,0,0:0:0:0:
288,208,553999,1,0,0:0:0:0:
160,144,554166,5,0,0:0:0:0:
160,144,554249,1,0,0:0:0:0:
160,144,554333,1,0,0:0:0:0:
80,240,554499,1,0,0:0:0:0:
192,240,554666,1,0,0:0:0:0:
240,160,554833,1,0,0:0:0:0:
240,160,554916,1,0,0:0:0:0:
240,160,554999,1,0,0:0:0:0:
336,144,555166,1,0,0:0:0:0:
400,224,555333,1,0,0:0:0:0:
400,224,555416,1,0,0:0:0:0:
400,224,555499,1,0,0:0:0:0:
304,288,555666,5,0,0:0:0:0:
176,320,555833,1,0,0:0:0:0:
176,320,555916,1,0,0:0:0:0:
176,320,555999,1,0,0:0:0:0:
112,272,556166,1,0,0:0:0:0:
112,272,556249,1,0,0:0:0:0:
112,272,556333,1,0,0:0:0:0:
144,176,556499,1,0,0:0:0:0:
240,96,556666,1,0,0:0:0:0:
240,96,556749,1,0,0:0:0:0:
240,96,556833,1,0,0:0:0:0:
352,144,556999,1,0,0:0:0:0:
256,240,557166,5,0,0:0:0:0:
304,208,557333,1,0,0:0:0:0:
304,160,557499,1,0,0:0:0:0:
256,128,557666,1,0,0:0:0:0:
208,160,557833,1,0,0:0:0:0:
208,208,557999,1,0,0:0:0:0:
256,240,558166,5,0,0:0:0:0:
304,208,558333,1,0,0:0:0:0:
304,160,558499,1,0,0:0:0:0:
256,128,558666,1,0,0:0:0:0:
208,160,558833,1,0,0:0:0:0:
208,208,558999,1,0,0:0:0:0:
256,240,559166,5,0,0:0:0:0:
304,208,559333,1,0,0:0:0:0:
304,160,559499,1,0,0:0:0:0:
256,128,559666,1,0,0:0:0:0:
208,160,559833,1,0,0:0:0:0:
208,208,559999,1,0,0:0:0:0:
256,240,560166,5,0,0:0:0:0:
304,208,560333,1,0,0:0:0:0:
304,160,560499,1,0,0:0:0:0:
256,128,560666,1,0,0:0:0:0:
208,160,560833,1,0,0:0:0:0:
208,208,560999,1,0,0:0:0:0:
256,240,561166,5,0,0:0:0:0:
304,208,561333,1,0,0:0:0:0:
304,160,561499,1,0,0:0:0:0:
256,128,561666,1,0,0:0:0:0:
208,160,561833,1,0,0:0:0:0:
208,208,561999,1,0,0:0:0:0:
256,240,562166,5,0,0:0:0:0:
304,208,562333,1,0,0:0:0:0:
304,160,562499,1,0,0:0:0:0:
256,128,562666,1,0,0:0:0:0:
208,160,562833,1,0,0:0:0:0:
208,208,562999,1,0,0:0:0:0:
256,240,563166,5,0,0:0:0:0:
304,208,563333,1,0,0:0:0:0:
304,160,563499,1,0,0:0:0:0:
256,128,563666,1,0,0:0:0:0:
208,160,563833,1,0,0:0:0:0:
208,208,563999,1,0,0:0:0:0:
256,240,564166,5,0,0:0:0:0:
304,208,564333,1,0,0:0:0:0:
304,160,564499,1,0,0:0:0:0:
256,128,564666,1,0,0:0:0:0:
208,160,564833,1,0,0:0:0:0:
208,208,564999,1,0,0:0:0:0:
256,240,565166,5,0,0:0:0:0:
304,208,565333,1,0,0:0:0:0:
304,160,565499,1,0,0:0:0:0:
256,128,565666,1,0,0:0:0:0:
208,160,565833,1,0,0:0:0:0:
208,208,565999,1,0,0:0:0:0:
112,80,566166,5,0,0:0:0:0:
128,80,566249,1,0,0:0:0:0:
144,80,566333,1,0,0:0:0:0:
160,80,566416,1,0,0:0:0:0:
176,80,566499,1,0,0:0:0:0:
192,80,566583,1,0,0:0:0:0:
208,80,566666,1,0,0:0:0:0:
224,80,566749,1,0,0:0:0:0:
240,80,566833,1,0,0:0:0:0:
256,80,566916,1,0,0:0:0:0:
272,80,566999,1,0,0:0:0:0:
288,80,567083,5,0,0:0:0:0:
304,80,567166,1,0,0:0:0:0:
320,80,567249,1,0,0:0:0:0:
336,80,567333,1,0,0:0:0:0:
352,80,567416,1,0,0:0:0:0:
432,80,567666,5,0,0:0:0:0:
432,80,567749,1,0,0:0:0:0:
432,80,567833,1,0,0:0:0:0:
432,160,567999,1,0,0:0:0:0:
384,224,568166,1,0,0:0:0:0:
384,224,568249,1,0,0:0:0:0:
384,224,568333,1,0,0:0:0:0:
304,160,568499,1,0,0:0:0:0:
240,304,568666,1,0,0:0:0:0:
240,304,568749,1,0,0:0:0:0:
240,304,568833,1,0,0:0:0:0:
272,224,568999,1,0,0:0:0:0:
272,224,569083,1,0,0:0:0:0:
272,224,569166,1,0,0:0:0:0:
192,192,569333,5,0,0:0:0:0:
192,192,569416,1,0,0:0:0:0:
192,192,569499,1,0,0:0:0:0:
128,112,569666,1,0,0:0:0:0:
112,240,569833,1,0,0:0:0:0:
192,192,569999,1,0,0:0:0:0:
192,192,570083,1,0,0:0:0:0:
192,192,570166,1,0,0:0:0:0:
256,128,570333,1,0,0:0:0:0:
352,80,570499,1,0,0:0:0:0:
352,80,570583,1,0,0:0:0:0:
352,80,570666,1,0,0:0:0:0:
384,192,570833,1,0,0:0:0:0:
320,256,570999,5,0,0:0:0:0:
320,256,571083,1,0,0:0:0:0:
320,256,571166,1,0,0:0:0:0:
224,288,571333,1,0,0:0:0:0:
128,240,571499,1,0,0:0:0:0:
128,240,571583,1,0,0:0:0:0:
128,240,571666,1,0,0:0:0:0:
160,128,571833,1,0,0:0:0:0:
208,192,571999,1,0,0:0:0:0:
208,192,572083,1,0,0:0:0:0:
208,192,572166,1,0,0:0:0:0:
288,144,572333,1,0,0:0:0:0:
288,144,572416,1,0,0:0:0:0:
288,144,572499,1,0,0:0:0:0:
368,96,572666,5,0,0:0:0:0:
448,176,572833,1,0,0:0:0:0:
448,176,572916,1,0,0:0:0:0:
448,176,572999,1,0,0:0:0:0:
368,224,573166,1,0,0:0:0:0:
288,272,573333,1,0,0:0:0:0:
288,272,573416,1,0,0:0:0:0:
288,272,573499,1,0,0:0:0:0:
208,192,573666,1,0,0:0:0:0:
112,208,573833,1,0,0:0:0:0:
112,208,573916,1,0,0:0:0:0:
112,208,573999,1,0,0:0:0:0:
144,112,574166,5,0,0:0:0:0:
240,80,574333,1,0,0:0:0:0:
240,80,574416,1,0,0:0:0:0:
240,80,574499,1,0,0:0:0:0:
320,128,574666,1,0,0:0:0:0:
320,128,574749,1,0,0:0:0:0:
320,128,574833,1,0,0:0:0:0:
384,80,574999,1,0,0:0:0:0:
416,144,575166,1,0,0:0:0:0:
416,144,575249,1,0,0:0:0:0:
416,144,575333,1,0,0:0:0:0:
368,224,575499,5,0,0:0:0:0:
304,256,575666,1,0,0:0:0:0:
304,256,575749,1,0,0:0:0:0:
304,256,575833,1,0,0:0:0:0:
208,176,575999,1,0,0:0:0:0:
144,256,576166,1,0,0:0:0:0:
144,256,576249,1,0,0:0:0:0:
144,256,576333,1,0,0:0:0:0:
224,304,576499,1,0,0:0:0:0:
304,256,576666,1,0,0:0:0:0:
304,256,576749,1,0,0:0:0:0:
304,256,576833,1,0,0:0:0:0:
80,64,576999,5,0,0:0:0:0:
96,64,577083,1,0,0:0:0:0:
112,64,577166,1,0,0:0:0:0:
128,64,577249,1,0,0:0:0:0:
144,64,577333,1,0,0:0:0:0:
160,64,577416,1,0,0:0:0:0:
176,64,577499,1,0,0:0:0:0:
192,64,577583,1,0,0:0:0:0:
208,64,577666,5,0,0:0:0:0:
224,64,577749,1,0,0:0:0:0:
240,64,577833,1,0,0:0:0:0:
256,64,577916,1,0,0:0:0:0:
272,64,577999,1,0,0:0:0:0:
288,64,578083,1,0,0:0:0:0:
304,64,578166,1,0,0:0:0:0:
320,64,578249,1,0,0:0:0:0:
336,64,578333,1,0,0:0:0:0:
432,64,578499,5,0,0:0:0:0:
432,80,578583,1,0,0:0:0:0:
432,96,578666,1,0,0:0:0:0:
432,112,578749,1,0,0:0:0:0:
432,128,578833,1,0,0:0:0:0:
432,192,578916,2,0,L|432:240,5,35
432,288,579416,2,0,L|432:336,4,35
336,320,579833,5,0,0:0:0:0:
320,320,579916,1,0,0:0:0:0:
304,320,579999,1,0,0:0:0:0:
288,320,580083,1,0,0:0:0:0:
272,320,580166,1,0,0:0:0:0:
256,320,580249,1,0,0:0:0:0:
176,320,580333,2,0,L|112:320,6,35
64,320,580916,2,0,L|64:256,6,35
64,208,581499,5,0,0:0:0:0:
64,192,581583,1,0,0:0:0:0:
64,176,581666,1,0,0:0:0:0:
64,160,581749,1,0,0:0:0:0:
64,144,581833,1,0,0:0:0:0:
64,128,581916,1,0,0:0:0:0:
64,64,581999,2,0,L|112:64,5,35
176,64,582499,2,0,L|224:64,7,35
304,64,583166,5,0,0:0:0:0:
320,64,583249,1,0,0:0:0:0:
336,64,583333,1,0,0:0:0:0:
352,64,583416,1,0,0:0:0:0:
368,64,583499,1,0,0:0:0:0:
384,64,583583,1,0,0:0:0:0:
400,64,583666,1,0,0:0:0:0:
416,64,583749,1,0,0:0:0:0:
432,64,583833,1,0,0:0:0:0:
432,80,583916,5,0,0:0:0:0:
432,96,583999,1,0,0:0:0:0:
432,112,584083,1,0,0:0:0:0:
432,128,584166,1,0,0:0:0:0:
432,144,584249,1,0,0:0:0:0:
432,160,584333,1,0,0:0:0:0:
432,176,584416,1,0,0:0:0:0:
432,192,584499,1,0,0:0:0:0:
432,208,584583,1,0,0:0:0:0:
432,224,584666,1,0,0:0:0:0:
432,240,584749,5,0,0:0:0:0:
432,256,584833,1,0,0:0:0:0:
432,272,584916,1,0,0:0:0:0:
432,288,584999,1,0,0:0:0:0:
416,288,585083,1,0,0:0:0:0:
400,288,585166,1,0,0:0:0:0:
384,288,585249,1,0,0:0:0:0:
368,288,585333,1,0,0:0:0:0:
352,288,585416,1,0,0:0:0:0:
336,288,585499,1,0,0:0:0:0:
320,288,585583,1,0,0:0:0:0:
304,288,585666,5,0,0:0:0:0:
288,288,585749,1,0,0:0:0:0:
272,288,585833,1,0,0:0:0:0:
256,288,585916,1,0,0:0:0:0:
240,288,585999,1,0,0:0:0:0:
224,288,586083,1,0,0:0:0:0:
208,288,586166,1,0,0:0:0:0:
192,288,586249,1,0,0:0:0:0:
176,288,586333,1,0,0:0:0:0:
96,288,586416,6,0,L|96:240,11,35
96,176,587416,5,0,0:0:0:0:
96,160,587499,1,0,0:0:0:0:
96,144,587583,1,0,0:0:0:0:
96,128,587666,1,0,0:0:0:0:
96,112,587749,1,0,0:0:0:0:
96,96,587833,1,0,0:0:0:0:
96,80,587916,1,0,0:0:0:0:
96,64,587999,1,0,0:0:0:0:
96,48,588083,1,0,0:0:0:0:
112,48,588166,1,0,0:0:0:0:
128,48,588249,1,0,0:0:0:0:
144,48,588333,1,0,0:0:0:0:
160,48,588416,5,0,0:0:0:0:
176,48,588499,1,0,0:0:0:0:
192,48,588583,1,0,0:0:0:0:
208,48,588666,1,0,0:0:0:0:
224,48,588749,1,0,0:0:0:0:
240,48,588833,1,0,0:0:0:0:
256,48,588916,1,0,0:0:0:0:
272,48,588999,1,0,0:0:0:0:
432,48,589166,5,0,0:0:0:0:
432,128,589333,1,0,0:0:0:0:
432,208,589499,1,0,0:0:0:0:
432,288,589666,1,0,0:0:0:0:
352,288,589833,5,0,0:0:0:0:
272,288,589999,1,0,0:0:0:0:
192,288,590166,1,0,0:0:0:0:
112,288,590333,1,0,0:0:0:0:
112,208,590499,5,0,0:0:0:0:
112,128,590666,1,0,0:0:0:0:
112,48,590833,1,0,0:0:0:0:
192,48,590999,1,0,0:0:0:0:
272,48,591166,5,0,0:0:0:0:
352,48,591333,1,0,0:0:0:0:
432,48,591499,1,0,0:0:0:0:
432,128,591666,1,0,0:0:0:0:
432,208,591833,5,0,0:0:0:0:
432,288,591999,1,0,0:0:0:0:
352,288,592166,1,0,0:0:0:0:
272,288,592333,1,0,0:0:0:0:
176,288,592499,5,0,0:0:0:0:
96,288,592666,1,0,0:0:0:0:
16,288,592833,1,0,0:0:0:0:
16,208,592999,1,0,0:0:0:0:
16,128,593166,5,0,0:0:0:0:
16,48,593333,1,0,0:0:0:0:
96,48,593499,1,0,0:0:0:0:
176,48,593666,1,0,0:0:0:0:
176,128,593833,5,0,0:0:0:0:
176,208,593999,1,0,0:0:0:0:
256,208,594166,1,0,0:0:0:0:
256,128,594333,1,0,0:0:0:0:
256,48,594499,5,0,0:0:0:0:
336,48,594666,1,0,0:0:0:0:
416,48,594833,1,0,0:0:0:0:
480,48,594999,1,0,0:0:0:0:
480,128,595166,5,0,0:0:0:0:
416,128,595333,1,0,0:0:0:0:
336,128,595499,1,0,0:0:0:0:
256,128,595666,1,0,0:0:0:0:
256,208,595833,5,0,0:0:0:0:
336,208,595999,1,0,0:0:0:0:
416,208,596166,1,0,0:0:0:0:
480,208,596333,1,0,0:0:0:0:
480,288,596499,5,0,0:0:0:0:
416,288,596666,1,0,0:0:0:0:
336,288,596833,1,0,0:0:0:0:
256,288,596999,1,0,0:0:0:0:
176,288,597166,5,0,0:0:0:0:
96,288,597333,1,0,0:0:0:0:
16,288,597499,1,0,0:0:0:0:
16,208,597666,1,0,0:0:0:0:
96,208,597833,5,0,0:0:0:0:
176,208,597999,1,0,0:0:0:0:
256,208,598166,1,0,0:0:0:0:
336,208,598333,1,0,0:0:0:0:
416,208,598499,1,0,0:0:0:0:
416,128,598666,1,0,0:0:0:0:
320,128,598833,1,0,0:0:0:0:
240,128,598999,1,0,0:0:0:0:
160,128,599166,1,0,0:0:0:0:
80,128,599333,1,0,0:0:0:0:
256,192,600333,5,0,0:0:0:0:
256,192,600666,12,0,606833,0:0:0:0:
