osu file format v14

[General]
AudioFilename: Anhedonia.mp3
AudioLeadIn: 0
PreviewTime: 407009
Countdown: 0
SampleSet: Normal
StackLeniency: 0.7
Mode: 3
LetterboxInBreaks: 0
SpecialStyle: 0
WidescreenStoryboard: 1

[Editor]
DistanceSpacing: 1.3
BeatDivisor: 4
GridSize: 8
TimelineZoom: 1.8

[Metadata]
Title:Anhedonia
TitleUnicode:Anhedonia
Artist:a_hisa
ArtistUnicode:a_hisa
Creator:Rifkymarcelio
Version:NM
Source:
Tags:
BeatmapID:679393
BeatmapSetID:303148

[Difficulty]
HPDrainRate:7
CircleSize:7
OverallDifficulty:8
ApproachRate:5
SliderMultiplier:1.4
SliderTickRate:1

[Events]
//Background and Video events
0,0,"aaa.jpg",0,0
//Break Periods
2,252876,277476
//Storyboard Layer 0 (Background)
//Storyboard Layer 1 (Fail)
//Storyboard Layer 2 (Pass)
//Storyboard Layer 3 (Foreground)
//Storyboard Sound Samples

[TimingPoints]
6010,333.333333333333,4,1,0,100,1,0
320676,342.857142857143,4,1,0,100,1,0
321017,352.941176470588,4,1,0,100,1,0
321369,363.636363636364,4,1,0,100,1,0
321732,545.454545454546,4,1,0,100,1,0
322277,400,4,1,0,100,1,0
322677,342.857142857143,4,1,0,100,1,0
323019,333.333333333333,4,1,0,100,1,0
323685,333.333333333333,4,1,0,100,1,0
578351,666.666666666667,4,1,0,100,1,0

[HitObjects]
329,192,66009,128,0,66343:0:0:0:0:
109,192,66343,1,0,0:0:0:0:
182,192,66843,1,0,0:0:0:0:
109,192,67176,1,0,0:0:0:0:
329,192,67509,1,0,0:0:0:0:
256,192,67843,1,0,0:0:0:0:
402,192,68343,1,0,0:0:0:0:
402,192,68676,1,0,0:0:0:0:
182,192,69009,1,0,0:0:0:0:
329,192,69509,1,0,0:0:0:0:
182,192,69843,1,0,0:0:0:0:
402,192,70176,1,0,0:0:0:0:
329,192,70509,1,0,0:0:0:0:
402,192,71009,1,0,0:0:0:0:
402,192,71343,1,0,0:0:0:0:
36,192,71676,1,0,0:0:0:0:
182,192,72176,1,0,0:0:0:0:
109,192,72509,1,0,0:0:0:0:
402,192,72843,1,0,0:0:0:0:
182,192,73176,1,0,0:0:0:0:
256,192,73676,1,0,0:0:0:0:
256,192,74009,1,0,0:0:0:0:
36,192,74343,1,0,0:0:0:0:
256,192,74843,1,0,0:0:0:0:
182,192,75176,1,0,0:0:0:0:
329,192,75509,1,0,0:0:0:0:
256,192,75843,1,0,0:0:0:0:
329,192,76343,1,0,0:0:0:0:
329,192,76676,1,0,0:0:0:0:
182,192,76676,1,0,0:0:0:0:
36,192,77009,1,0,0:0:0:0:
109,192,77343,1,0,0:0:0:0:
182,192,77676,1,0,0:0:0:0:
109,192,78009,1,0,0:0:0:0:
329,192,78009,1,0,0:0:0:0:
36,192,78343,1,0,0:0:0:0:
109,192,78676,1,0,0:0:0:0:
182,192,79009,1,0,0:0:0:0:
109,192,79343,1,0,0:0:0:0:
329,192,79343,1,0,0:0:0:0:
182,192,79676,1,0,0:0:0:0:
329,192,80009,1,0,0:0:0:0:
402,192,80343,1,0,0:0:0:0:
329,192,80676,1,0,0:0:0:0:
36,192,80676,1,0,0:0:0:0:
182,192,81009,1,0,0:0:0:0:
329,192,81343,1,0,0:0:0:0:
402,192,81676,1,0,0:0:0:0:
182,192,82009,1,0,0:0:0:0:
475,192,82009,1,0,0:0:0:0:
109,192,82343,1,0,0:0:0:0:
402,192,82676,1,0,0:0:0:0:
256,192,83009,1,0,0:0:0:0:
109,192,83343,1,0,0:0:0:0:
329,192,83343,1,0,0:0:0:0:
182,192,83676,1,0,0:0:0:0:
256,192,84009,1,0,0:0:0:0:
109,192,84343,1,0,0:0:0:0:
182,192,84676,1,0,0:0:0:0:
329,192,84676,1,0,0:0:0:0:
109,192,85009,1,0,0:0:0:0:
256,192,85343,1,0,0:0:0:0:
402,192,85676,1,0,0:0:0:0:
182,192,86009,1,0,0:0:0:0:
329,192,86009,1,0,0:0:0:0:
109,192,86343,1,0,0:0:0:0:
256,192,86676,1,0,0:0:0:0:
402,192,87009,1,0,0:0:0:0:
329,192,87343,128,0,87843:0:0:0:0:
182,192,87843,1,0,0:0:0:0:
182,192,89509,1,0,0:0:0:0:
402,192,89676,128,0,90009:0:0:0:0:
109,192,90009,1,0,0:0:0:0:
329,192,90176,1,0,0:0:0:0:
182,192,90343,1,0,0:0:0:0:
402,192,90509,1,0,0:0:0:0:
182,192,90843,1,0,0:0:0:0:
402,192,90843,1,0,0:0:0:0:
329,192,91176,1,0,0:0:0:0:
109,192,91176,1,0,0:0:0:0:
475,192,91509,1,0,0:0:0:0:
256,192,91509,1,0,0:0:0:0:
402,192,92009,1,0,0:0:0:0:
256,192,92176,1,0,0:0:0:0:
109,192,92343,1,0,0:0:0:0:
182,192,92676,1,0,0:0:0:0:
256,192,92843,1,0,0:0:0:0:
329,192,93009,1,0,0:0:0:0:
182,192,93343,1,0,0:0:0:0:
475,192,93509,1,0,0:0:0:0:
182,192,93676,1,0,0:0:0:0:
475,192,93843,1,0,0:0:0:0:
256,192,94176,1,0,0:0:0:0:
329,192,94343,1,0,0:0:0:0:
475,192,94676,1,0,0:0:0:0:
402,192,94843,1,0,0:0:0:0:
329,192,95009,1,0,0:0:0:0:
256,192,95176,1,0,0:0:0:0:
109,192,95343,1,0,0:0:0:0:
329,192,95343,1,0,0:0:0:0:
182,192,95509,1,0,0:0:0:0:
329,192,95676,1,0,0:0:0:0:
402,192,95843,1,0,0:0:0:0:
329,192,96009,1,0,0:0:0:0:
182,192,96176,1,0,0:0:0:0:
402,192,96343,1,0,0:0:0:0:
109,192,96509,1,0,0:0:0:0:
329,192,96676,1,0,0:0:0:0:
402,192,96843,1,0,0:0:0:0:
182,192,97009,1,0,0:0:0:0:
109,192,97176,1,0,0:0:0:0:
475,192,97343,1,0,0:0:0:0:
182,192,97509,1,0,0:0:0:0:
329,192,97676,128,0,98009:0:0:0:0:
402,192,98009,128,0,98509:0:0:0:0:
182,192,98509,128,0,99009:0:0:0:0:
36,192,99009,128,0,100676:0:0:0:0:
329,192,99343,1,0,0:0:0:0:
329,192,99676,1,0,0:0:0:0:
182,192,100009,1,0,0:0:0:0:
329,192,100343,1,0,0:0:0:0:
402,192,100676,128,0,101176:0:0:0:0:
329,192,101176,128,0,101676:0:0:0:0:
475,192,101676,128,0,103343:0:0:0:0:
329,192,102009,1,0,0:0:0:0:
329,192,102343,1,0,0:0:0:0:
109,192,102676,1,0,0:0:0:0:
329,192,103009,1,0,0:0:0:0:
329,192,103343,128,0,103843:0:0:0:0:
256,192,103843,128,0,104343:0:0:0:0:
182,192,104343,128,0,106009:0:0:0:0:
329,192,104676,1,0,0:0:0:0:
329,192,105009,1,0,0:0:0:0:
109,192,105343,1,0,0:0:0:0:
329,192,105676,1,0,0:0:0:0:
329,192,106009,128,0,106509:0:0:0:0:
256,192,106509,128,0,107009:0:0:0:0:
402,192,107009,128,0,108676:0:0:0:0:
329,192,107343,1,0,0:0:0:0:
329,192,107676,1,0,0:0:0:0:
182,192,108009,1,0,0:0:0:0:
329,192,108343,1,0,0:0:0:0:
256,192,108676,1,0,0:0:0:0:
402,192,109009,1,0,0:0:0:0:
329,192,109176,1,0,0:0:0:0:
182,192,109509,1,0,0:0:0:0:
109,192,109676,1,0,0:0:0:0:
256,192,110009,1,0,0:0:0:0:
402,192,110009,1,0,0:0:0:0:
256,192,110343,1,0,0:0:0:0:
402,192,110343,1,0,0:0:0:0:
182,192,110676,1,0,0:0:0:0:
109,192,110843,1,0,0:0:0:0:
182,192,111009,1,0,0:0:0:0:
256,192,111343,1,0,0:0:0:0:
109,192,111676,1,0,0:0:0:0:
182,192,111843,1,0,0:0:0:0:
402,192,112176,1,0,0:0:0:0:
329,192,112343,1,0,0:0:0:0:
109,192,112676,128,0,113343:0:0:0:0:
475,192,113509,1,0,0:0:0:0:
402,192,113676,1,0,0:0:0:0:
329,192,113843,1,0,0:0:0:0:
256,192,114009,1,0,0:0:0:0:
182,192,114009,128,0,114509:0:0:0:0:
109,192,114509,128,0,115009:0:0:0:0:
36,192,115009,128,0,116676:0:0:0:0:
329,192,115343,1,0,0:0:0:0:
329,192,115676,1,0,0:0:0:0:
182,192,116009,1,0,0:0:0:0:
329,192,116343,1,0,0:0:0:0:
256,192,116676,1,0,0:0:0:0:
109,192,117009,1,0,0:0:0:0:
256,192,117176,1,0,0:0:0:0:
182,192,117509,1,0,0:0:0:0:
475,192,117676,1,0,0:0:0:0:
329,192,118009,128,0,118343:0:0:0:0:
475,192,118676,1,0,0:0:0:0:
402,192,118843,1,0,0:0:0:0:
329,192,119009,1,0,0:0:0:0:
182,192,119176,1,0,0:0:0:0:
329,192,119343,1,0,0:0:0:0:
402,192,119343,1,0,0:0:0:0:
256,192,119593,1,0,0:0:0:0:
182,192,119843,1,0,0:0:0:0:
402,192,120176,1,0,0:0:0:0:
256,192,120343,1,0,0:0:0:0:
402,192,120509,1,0,0:0:0:0:
182,192,120676,1,0,0:0:0:0:
329,192,120926,1,0,0:0:0:0:
475,192,121176,1,0,0:0:0:0:
402,192,121509,1,0,0:0:0:0:
256,192,121676,1,0,0:0:0:0:
109,192,121843,1,0,0:0:0:0:
329,192,122009,1,0,0:0:0:0:
182,192,122259,1,0,0:0:0:0:
109,192,122509,1,0,0:0:0:0:
402,192,122843,1,0,0:0:0:0:
182,192,123009,1,0,0:0:0:0:
402,192,123176,1,0,0:0:0:0:
256,192,123343,1,0,0:0:0:0:
329,192,123593,1,0,0:0:0:0:
402,192,123843,1,0,0:0:0:0:
109,192,124176,1,0,0:0:0:0:
329,192,124343,1,0,0:0:0:0:
109,192,124509,1,0,0:0:0:0:
402,192,124676,1,0,0:0:0:0:
256,192,124926,1,0,0:0:0:0:
109,192,125176,1,0,0:0:0:0:
329,192,125509,1,0,0:0:0:0:
182,192,125676,1,0,0:0:0:0:
329,192,125843,1,0,0:0:0:0:
109,192,126009,1,0,0:0:0:0:
256,192,126259,1,0,0:0:0:0:
402,192,126509,1,0,0:0:0:0:
182,192,126843,1,0,0:0:0:0:
329,192,127009,1,0,0:0:0:0:
182,192,127176,1,0,0:0:0:0:
402,192,127343,1,0,0:0:0:0:
256,192,127593,1,0,0:0:0:0:
109,192,127843,1,0,0:0:0:0:
329,192,128176,1,0,0:0:0:0:
182,192,128343,1,0,0:0:0:0:
329,192,128509,1,0,0:0:0:0:
182,192,128676,1,0,0:0:0:0:
402,192,128676,1,0,0:0:0:0:
36,192,128898,1,0,0:0:0:0:
182,192,129121,1,0,0:0:0:0:
402,192,129343,1,0,0:0:0:0:
109,192,129565,1,0,0:0:0:0:
256,192,129787,1,0,0:0:0:0:
402,192,130009,128,0,130509:0:0:0:0:
329,192,130509,128,0,131343:0:0:0:0:
109,192,131343,1,0,0:0:0:0:
182,192,131593,1,0,0:0:0:0:
329,192,131843,1,0,0:0:0:0:
256,192,132176,128,0,132676:0:0:0:0:
402,192,132676,128,0,134009:0:0:0:0:
182,192,134009,1,0,0:0:0:0:
256,192,134259,1,0,0:0:0:0:
329,192,134509,1,0,0:0:0:0:
182,192,135176,1,0,0:0:0:0:
402,192,135343,1,0,0:0:0:0:
329,192,135676,1,0,0:0:0:0:
182,192,135843,1,0,0:0:0:0:
329,192,136176,1,0,0:0:0:0:
182,192,136343,1,0,0:0:0:0:
402,192,136509,1,0,0:0:0:0:
256,192,136676,1,0,0:0:0:0:
329,192,136926,1,0,0:0:0:0:
402,192,137176,1,0,0:0:0:0:
329,192,137509,1,0,0:0:0:0:
475,192,137676,1,0,0:0:0:0:
182,192,137843,1,0,0:0:0:0:
256,192,138009,1,0,0:0:0:0:
475,192,138009,1,0,0:0:0:0:
402,192,138176,1,0,0:0:0:0:
329,192,138259,1,0,0:0:0:0:
182,192,138426,1,0,0:0:0:0:
109,192,138509,1,0,0:0:0:0:
182,192,138676,1,0,0:0:0:0:
36,192,138843,1,0,0:0:0:0:
182,192,139009,1,0,0:0:0:0:
402,192,139176,5,0,0:0:0:0:
109,192,139343,1,0,0:0:0:0:
256,192,139676,1,0,0:0:0:0:
182,192,139843,128,0,140676:0:0:0:0:
402,192,140176,1,0,0:0:0:0:
329,192,140343,1,0,0:0:0:0:
402,192,140509,1,0,0:0:0:0:
256,192,140676,1,0,0:0:0:0:
402,192,140926,128,0,141676:0:0:0:0:
182,192,141843,1,0,0:0:0:0:
109,192,142009,1,0,0:0:0:0:
182,192,142259,1,0,0:0:0:0:
402,192,142509,1,0,0:0:0:0:
402,192,142843,1,0,0:0:0:0:
475,192,143009,1,0,0:0:0:0:
329,192,143176,1,0,0:0:0:0:
256,192,143343,128,0,143676:0:0:0:0:
182,192,143843,1,0,0:0:0:0:
475,192,144009,1,0,0:0:0:0:
329,192,144093,1,0,0:0:0:0:
182,192,144259,1,0,0:0:0:0:
109,192,144343,1,0,0:0:0:0:
329,192,144509,1,0,0:0:0:0:
182,192,144676,1,0,0:0:0:0:
256,192,144926,1,0,0:0:0:0:
329,192,145176,1,0,0:0:0:0:
475,192,145509,1,0,0:0:0:0:
182,192,145843,1,0,0:0:0:0:
475,192,146009,128,0,146259:0:0:0:0:
182,192,146259,1,0,0:0:0:0:
36,192,146509,1,0,0:0:0:0:
182,192,146843,1,0,0:0:0:0:
36,192,147009,1,0,0:0:0:0:
182,192,147176,1,0,0:0:0:0:
329,192,147343,128,0,147593:0:0:0:0:
475,192,147759,1,0,0:0:0:0:
329,192,147843,1,0,0:0:0:0:
182,192,148009,1,0,0:0:0:0:
329,192,148176,1,0,0:0:0:0:
402,192,148259,1,0,0:0:0:0:
329,192,148426,1,0,0:0:0:0:
109,192,148509,1,0,0:0:0:0:
36,192,148676,128,0,149009:0:0:0:0:
109,192,149176,1,0,0:0:0:0:
182,192,149343,1,0,0:0:0:0:
329,192,149509,1,0,0:0:0:0:
402,192,149676,1,0,0:0:0:0:
329,192,149759,1,0,0:0:0:0:
475,192,149926,1,0,0:0:0:0:
329,192,150176,1,0,0:0:0:0:
109,192,150259,1,0,0:0:0:0:
402,192,150426,1,0,0:0:0:0:
182,192,150593,1,0,0:0:0:0:
36,192,150676,1,0,0:0:0:0:
475,192,150843,1,0,0:0:0:0:
329,192,151009,1,0,0:0:0:0:
182,192,151176,1,0,0:0:0:0:
109,192,151343,128,0,152009:0:0:0:0:
182,192,152009,128,0,152676:0:0:0:0:
256,192,152676,128,0,153009:0:0:0:0:
329,192,153343,1,0,0:0:0:0:
182,192,153676,1,0,0:0:0:0:
475,192,154009,1,0,0:0:0:0:
402,192,154676,1,0,0:0:0:0:
329,192,155009,1,0,0:0:0:0:
182,192,155343,128,0,156343:0:0:0:0:
256,192,156343,1,0,0:0:0:0:
109,192,156676,128,0,157343:0:0:0:0:
402,192,157343,128,0,158009:0:0:0:0:
109,192,158009,1,0,0:0:0:0:
329,192,158259,1,2,0:0:0:0:
36,192,158509,1,0,0:0:0:0:
182,192,158676,1,0,0:0:0:0:
329,192,158926,1,0,0:0:0:0:
475,192,159176,1,0,0:0:0:0:
182,192,159343,128,0,160176:0:0:0:0:
182,192,160509,1,0,0:0:0:0:
256,192,160593,1,0,0:0:0:0:
329,192,160676,128,0,161343:0:0:0:0:
109,192,161676,1,0,0:0:0:0:
182,192,161759,1,0,0:0:0:0:
256,192,161843,1,0,0:0:0:0:
329,192,161926,1,0,0:0:0:0:
402,192,162009,1,0,0:0:0:0:
329,192,162509,1,0,0:0:0:0:
329,192,162676,1,0,0:0:0:0:
329,192,162926,1,0,0:0:0:0:
109,192,163176,1,0,0:0:0:0:
475,192,163343,1,0,0:0:0:0:
402,192,163593,1,0,0:0:0:0:
182,192,163843,1,0,0:0:0:0:
475,192,164093,1,0,0:0:0:0:
329,192,164343,1,0,0:0:0:0:
256,192,164509,1,0,0:0:0:0:
182,192,164676,1,0,0:0:0:0:
256,192,164926,1,0,0:0:0:0:
329,192,165176,1,0,0:0:0:0:
402,192,165343,1,0,0:0:0:0:
329,192,165843,1,0,0:0:0:0:
256,192,166009,1,0,0:0:0:0:
109,192,166259,1,0,0:0:0:0:
182,192,166509,1,0,0:0:0:0:
256,192,166676,1,0,0:0:0:0:
475,192,167009,1,0,0:0:0:0:
36,192,167343,1,0,0:0:0:0:
329,192,167593,1,0,0:0:0:0:
109,192,167843,1,0,0:0:0:0:
182,192,168009,1,0,0:0:0:0:
402,192,168259,1,0,0:0:0:0:
256,192,168509,1,0,0:0:0:0:
475,192,168676,1,0,0:0:0:0:
402,192,168926,5,0,0:0:0:0:
329,192,169176,5,0,0:0:0:0:
109,192,169343,1,0,0:0:0:0:
402,192,169593,1,0,0:0:0:0:
329,192,169843,1,0,0:0:0:0:
182,192,170009,128,0,171009:0:0:0:0:
402,192,171176,1,0,0:0:0:0:
329,192,171259,1,0,0:0:0:0:
109,192,171343,128,0,172009:0:0:0:0:
182,192,172343,1,0,0:0:0:0:
182,192,172676,128,0,173676:0:0:0:0:
329,192,172676,128,0,173676:0:0:0:0:
109,192,174009,128,0,174676:0:0:0:0:
329,192,174843,1,0,0:0:0:0:
256,192,175009,1,0,0:0:0:0:
182,192,175176,1,0,0:0:0:0:
329,192,175343,1,0,0:0:0:0:
256,192,175593,1,0,0:0:0:0:
182,192,175843,1,0,0:0:0:0:
256,192,176009,1,0,0:0:0:0:
329,192,176259,1,0,0:0:0:0:
256,192,176509,1,0,0:0:0:0:
402,192,176676,1,0,0:0:0:0:
256,192,176926,1,0,0:0:0:0:
182,192,177176,1,0,0:0:0:0:
109,192,177343,128,0,177676:0:0:0:0:
182,192,177843,1,0,0:0:0:0:
475,192,178009,128,0,179009:0:0:0:0:
402,192,179176,1,0,0:0:0:0:
329,192,179259,1,0,0:0:0:0:
256,192,179343,128,0,179843:0:0:0:0:
182,192,180009,1,0,0:0:0:0:
256,192,180259,1,0,0:0:0:0:
182,192,180509,1,0,0:0:0:0:
329,192,180676,1,0,0:0:0:0:
256,192,180926,1,0,0:0:0:0:
329,192,181176,1,0,0:0:0:0:
182,192,181426,1,0,0:0:0:0:
329,192,181676,1,0,0:0:0:0:
256,192,181843,1,0,0:0:0:0:
36,192,182009,1,0,0:0:0:0:
256,192,182259,1,0,0:0:0:0:
109,192,182509,1,0,0:0:0:0:
329,192,182759,1,0,0:0:0:0:
182,192,183009,1,0,0:0:0:0:
475,192,183176,1,0,0:0:0:0:
329,192,183343,128,0,184343:0:0:0:0:
109,192,184343,1,0,0:0:0:0:
475,192,184509,1,0,0:0:0:0:
256,192,184676,1,0,0:0:0:0:
182,192,184926,1,0,0:0:0:0:
109,192,185176,1,0,0:0:0:0:
182,192,185509,1,0,0:0:0:0:
329,192,185676,1,0,0:0:0:0:
475,192,185843,1,0,0:0:0:0:
402,192,186009,128,0,186843:0:0:0:0:
475,192,187009,1,0,0:0:0:0:
256,192,187176,1,0,0:0:0:0:
329,192,187343,1,0,0:0:0:0:
402,192,187593,1,0,0:0:0:0:
182,192,187843,1,0,0:0:0:0:
109,192,188176,1,0,0:0:0:0:
329,192,188509,1,0,0:0:0:0:
475,192,188676,128,0,189009:0:0:0:0:
329,192,189009,1,0,0:0:0:0:
36,192,189176,1,0,0:0:0:0:
182,192,189509,1,0,0:0:0:0:
36,192,189676,1,0,0:0:0:0:
182,192,189843,1,0,0:0:0:0:
329,192,190009,128,0,190259:0:0:0:0:
475,192,190426,1,0,0:0:0:0:
182,192,190509,1,0,0:0:0:0:
109,192,190676,1,0,0:0:0:0:
329,192,190843,1,0,0:0:0:0:
402,192,190926,1,0,0:0:0:0:
329,192,191093,1,0,0:0:0:0:
109,192,191176,1,0,0:0:0:0:
256,192,191343,128,0,191676:0:0:0:0:
182,192,191843,1,0,0:0:0:0:
256,192,192009,1,0,0:0:0:0:
329,192,192176,1,0,0:0:0:0:
402,192,192343,1,0,0:0:0:0:
329,192,192426,1,0,0:0:0:0:
475,192,192593,1,0,0:0:0:0:
402,192,192843,1,0,0:0:0:0:
109,192,192926,1,0,0:0:0:0:
329,192,193093,1,0,0:0:0:0:
402,192,193343,1,0,0:0:0:0:
36,192,193426,1,0,0:0:0:0:
329,192,193509,1,0,0:0:0:0:
256,192,193676,1,0,0:0:0:0:
182,192,193843,1,0,0:0:0:0:
109,192,194009,128,0,194676:0:0:0:0:
182,192,194676,128,0,195343:0:0:0:0:
256,192,195343,128,0,195676:0:0:0:0:
329,192,196009,1,0,0:0:0:0:
182,192,196343,1,0,0:0:0:0:
475,192,196676,1,0,0:0:0:0:
402,192,197343,1,0,0:0:0:0:
329,192,197676,1,0,0:0:0:0:
182,192,198009,128,0,199009:0:0:0:0:
256,192,199009,1,0,0:0:0:0:
109,192,199343,128,0,200009:0:0:0:0:
402,192,200009,128,0,200676:0:0:0:0:
109,192,200676,1,0,0:0:0:0:
182,192,200926,1,0,0:0:0:0:
109,192,201176,1,0,0:0:0:0:
182,192,201343,1,0,0:0:0:0:
256,192,201593,1,0,0:0:0:0:
402,192,201843,1,0,0:0:0:0:
329,192,202009,128,0,202843:0:0:0:0:
182,192,203176,1,0,0:0:0:0:
256,192,203259,1,0,0:0:0:0:
329,192,203343,128,0,204009:0:0:0:0:
109,192,204343,1,0,0:0:0:0:
182,192,204426,1,0,0:0:0:0:
256,192,204509,1,0,0:0:0:0:
329,192,204593,1,0,0:0:0:0:
402,192,204676,1,0,0:0:0:0:
329,192,205176,1,0,0:0:0:0:
329,192,205343,1,0,0:0:0:0:
329,192,205593,1,0,0:0:0:0:
109,192,205843,1,0,0:0:0:0:
475,192,206009,1,0,0:0:0:0:
402,192,206259,1,0,0:0:0:0:
182,192,206509,1,0,0:0:0:0:
475,192,206759,1,0,0:0:0:0:
329,192,207009,1,0,0:0:0:0:
256,192,207176,1,0,0:0:0:0:
182,192,207343,1,0,0:0:0:0:
256,192,207593,1,0,0:0:0:0:
329,192,207843,1,0,0:0:0:0:
402,192,208009,1,0,0:0:0:0:
329,192,208509,1,0,0:0:0:0:
256,192,208676,1,0,0:0:0:0:
109,192,208926,1,0,0:0:0:0:
182,192,209176,1,0,0:0:0:0:
256,192,209343,1,0,0:0:0:0:
475,192,209676,1,0,0:0:0:0:
36,192,210009,1,0,0:0:0:0:
402,192,210259,1,0,0:0:0:0:
36,192,210509,1,0,0:0:0:0:
329,192,210676,1,0,0:0:0:0:
475,192,210926,1,0,0:0:0:0:
109,192,211176,1,0,0:0:0:0:
475,192,211343,1,0,0:0:0:0:
402,192,211593,5,0,0:0:0:0:
329,192,211843,5,0,0:0:0:0:
36,192,212009,1,0,0:0:0:0:
402,192,212343,1,0,0:0:0:0:
329,192,212676,128,0,213676:0:0:0:0:
182,192,213843,1,0,0:0:0:0:
329,192,213926,1,0,0:0:0:0:
182,192,214009,128,0,214676:0:0:0:0:
109,192,215009,1,0,0:0:0:0:
182,192,215343,1,0,0:0:0:0:
329,192,215343,1,0,0:0:0:0:
182,192,215676,1,0,0:0:0:0:
402,192,215843,1,0,0:0:0:0:
109,192,216176,1,0,0:0:0:0:
256,192,216343,1,0,0:0:0:0:
402,192,216509,1,0,0:0:0:0:
475,192,217176,1,0,0:0:0:0:
402,192,217509,1,0,0:0:0:0:
256,192,217676,1,0,0:0:0:0:
182,192,218009,1,0,0:0:0:0:
256,192,218509,1,0,0:0:0:0:
329,192,218509,1,0,0:0:0:0:
475,192,219509,1,0,0:0:0:0:
402,192,219676,1,0,0:0:0:0:
329,192,219843,1,0,0:0:0:0:
475,192,220009,1,0,0:0:0:0:
402,192,220176,1,0,0:0:0:0:
329,192,220343,1,0,0:0:0:0:
256,192,220509,1,0,0:0:0:0:
36,192,220676,1,0,0:0:0:0:
402,192,220676,1,0,0:0:0:0:
36,192,221176,1,0,0:0:0:0:
182,192,222009,1,0,0:0:0:0:
329,192,222009,1,0,0:0:0:0:
329,192,222509,1,0,0:0:0:0:
402,192,222509,1,0,0:0:0:0:
475,192,223009,1,0,0:0:0:0:
402,192,223009,1,0,0:0:0:0:
182,192,223343,1,0,0:0:0:0:
329,192,223343,1,0,0:0:0:0:
329,192,224343,1,0,0:0:0:0:
402,192,224509,1,0,0:0:0:0:
256,192,224676,1,0,0:0:0:0:
475,192,225176,1,0,0:0:0:0:
256,192,225676,128,0,226009:0:0:0:0:
182,192,226009,128,0,226843:0:0:0:0:
256,192,226843,1,0,0:0:0:0:
182,192,227009,1,0,0:0:0:0:
256,192,227176,1,0,0:0:0:0:
402,192,227343,128,0,227676:0:0:0:0:
329,192,227676,1,0,0:0:0:0:
256,192,227843,128,0,228176:0:0:0:0:
109,192,228176,128,0,228676:0:0:0:0:
182,192,228676,128,0,230009:0:0:0:0:
402,192,229009,1,0,0:0:0:0:
329,192,229343,1,0,0:0:0:0:
329,192,229676,1,0,0:0:0:0:
402,192,230009,128,0,230676:0:0:0:0:
329,192,230676,128,0,231009:0:0:0:0:
475,192,231009,128,0,232676:0:0:0:0:
329,192,231343,1,0,0:0:0:0:
329,192,231676,1,0,0:0:0:0:
182,192,232009,1,0,0:0:0:0:
329,192,232343,1,0,0:0:0:0:
329,192,232676,128,0,233343:0:0:0:0:
109,192,233009,1,0,0:0:0:0:
256,192,233343,128,0,234009:0:0:0:0:
402,192,233676,1,0,0:0:0:0:
36,192,234009,1,0,0:0:0:0:
109,192,234009,1,0,0:0:0:0:
182,192,234343,1,0,0:0:0:0:
475,192,234509,128,0,234843:0:0:0:0:
109,192,234843,128,0,235343:0:0:0:0:
329,192,234843,1,0,0:0:0:0:
402,192,235343,128,0,235676:0:0:0:0:
182,192,235343,1,0,0:0:0:0:
329,192,235843,1,0,0:0:0:0:
182,192,235926,1,0,0:0:0:0:
329,192,236009,128,0,236676:0:0:0:0:
182,192,236676,128,0,237343:0:0:0:0:
402,192,236676,128,0,237343:0:0:0:0:
256,192,237509,1,0,0:0:0:0:
109,192,237676,1,0,0:0:0:0:
182,192,237843,1,0,0:0:0:0:
329,192,238009,1,0,0:0:0:0:
402,192,238009,128,0,238343:0:0:0:0:
256,192,238343,1,0,0:0:0:0:
182,192,238509,128,0,238843:0:0:0:0:
109,192,238843,128,0,239343:0:0:0:0:
475,192,239343,1,0,0:0:0:0:
256,192,239343,128,0,240676:0:0:0:0:
109,192,240009,1,0,0:0:0:0:
109,192,240343,1,0,0:0:0:0:
182,192,240509,1,0,0:0:0:0:
402,192,240676,128,0,241343:0:0:0:0:
329,192,241343,128,0,241676:0:0:0:0:
182,192,241343,1,0,0:0:0:0:
475,192,241676,128,0,242676:0:0:0:0:
182,192,241676,1,0,0:0:0:0:
256,192,242009,1,0,0:0:0:0:
329,192,242009,1,0,0:0:0:0:
182,192,242676,1,0,0:0:0:0:
256,192,242676,1,0,0:0:0:0:
256,192,243009,1,0,0:0:0:0:
329,192,243009,1,0,0:0:0:0:
329,192,243343,1,0,0:0:0:0:
402,192,243343,1,0,0:0:0:0:
109,192,243676,1,0,0:0:0:0:
182,192,243676,1,0,0:0:0:0:
182,192,244009,1,0,0:0:0:0:
256,192,244009,1,0,0:0:0:0:
402,192,244343,1,0,0:0:0:0:
475,192,244343,1,0,0:0:0:0:
329,192,244676,128,0,245676:0:0:0:0:
182,192,245009,1,0,0:0:0:0:
182,192,245676,1,0,0:0:0:0:
329,192,245843,1,0,0:0:0:0:
402,192,246009,128,0,246676:0:0:0:0:
182,192,246343,1,0,0:0:0:0:
329,192,247009,1,0,0:0:0:0:
109,192,247093,1,0,0:0:0:0:
402,192,247176,1,0,0:0:0:0:
182,192,247259,1,0,0:0:0:0:
256,192,247343,128,0,252676:0:0:0:0:
182,192,278676,132,0,279343:0:0:0:0:
256,192,279343,1,0,0:0:0:0:
182,192,279676,1,0,0:0:0:0:
329,192,280009,1,0,0:0:0:0:
256,192,280343,1,0,0:0:0:0:
182,192,280676,1,0,0:0:0:0:
256,192,281343,1,0,0:0:0:0:
329,192,281676,1,0,0:0:0:0:
402,192,282009,1,0,0:0:0:0:
329,192,282343,1,0,0:0:0:0:
475,192,282676,128,0,283009:0:0:0:0:
182,192,283009,1,0,0:0:0:0:
329,192,283343,128,0,283676:0:0:0:0:
256,192,284009,128,0,284343:0:0:0:0:
402,192,284676,1,0,0:0:0:0:
182,192,285009,1,0,0:0:0:0:
36,192,285343,1,0,0:0:0:0:
182,192,285676,1,0,0:0:0:0:
109,192,286009,1,0,0:0:0:0:
329,192,286009,1,0,0:0:0:0:
256,192,286676,1,0,0:0:0:0:
402,192,286676,1,0,0:0:0:0:
475,192,287343,1,0,0:0:0:0:
402,192,287676,1,0,0:0:0:0:
256,192,288009,1,0,0:0:0:0:
402,192,288343,1,0,0:0:0:0:
182,192,288676,128,0,289009:0:0:0:0:
256,192,289343,128,0,289676:0:0:0:0:
329,192,290009,1,0,0:0:0:0:
256,192,290343,1,0,0:0:0:0:
402,192,290676,1,0,0:0:0:0:
329,192,291009,1,0,0:0:0:0:
182,192,291343,1,0,0:0:0:0:
109,192,292009,1,0,0:0:0:0:
182,192,292343,1,0,0:0:0:0:
329,192,292676,1,0,0:0:0:0:
256,192,293009,1,0,0:0:0:0:
402,192,293343,1,0,0:0:0:0:
329,192,293676,1,0,0:0:0:0:
256,192,294009,128,0,294343:0:0:0:0:
182,192,294676,128,0,295009:0:0:0:0:
256,192,295343,1,0,0:0:0:0:
475,192,295676,1,0,0:0:0:0:
402,192,296009,1,0,0:0:0:0:
256,192,296343,1,0,0:0:0:0:
329,192,296676,1,0,0:0:0:0:
256,192,297009,1,0,0:0:0:0:
256,192,297343,1,0,0:0:0:0:
109,192,297676,1,0,0:0:0:0:
329,192,298009,1,0,0:0:0:0:
402,192,298343,1,0,0:0:0:0:
475,192,298676,1,0,0:0:0:0:
109,192,299009,1,0,0:0:0:0:
402,192,299343,1,0,0:0:0:0:
329,192,299676,1,0,0:0:0:0:
256,192,300009,128,0,300343:0:0:0:0:
329,192,300343,1,0,0:0:0:0:
182,192,300676,128,0,301009:0:0:0:0:
402,192,301009,1,0,0:0:0:0:
402,192,301343,128,0,301676:0:0:0:0:
109,192,301676,1,0,0:0:0:0:
329,192,302009,128,0,302676:0:0:0:0:
36,192,302676,1,0,0:0:0:0:
182,192,303009,1,0,0:0:0:0:
329,192,303343,1,0,0:0:0:0:
256,192,303676,1,0,0:0:0:0:
475,192,304009,1,0,0:0:0:0:
402,192,304343,1,0,0:0:0:0:
475,192,304676,128,0,305009:0:0:0:0:
182,192,304676,128,0,305009:0:0:0:0:
182,192,305343,128,0,305676:0:0:0:0:
329,192,305343,128,0,305676:0:0:0:0:
256,192,306009,1,0,0:0:0:0:
182,192,306343,1,0,0:0:0:0:
109,192,306676,1,0,0:0:0:0:
182,192,307009,1,0,0:0:0:0:
256,192,307343,1,0,0:0:0:0:
329,192,307343,1,0,0:0:0:0:
329,192,308009,1,0,0:0:0:0:
402,192,308009,1,0,0:0:0:0:
475,192,308676,1,0,0:0:0:0:
402,192,309009,1,0,0:0:0:0:
256,192,309343,1,0,0:0:0:0:
329,192,309676,1,0,0:0:0:0:
182,192,310009,128,0,310343:0:0:0:0:
36,192,310009,128,0,310343:0:0:0:0:
109,192,310676,128,0,311009:0:0:0:0:
256,192,310676,128,0,311009:0:0:0:0:
256,192,311343,1,0,0:0:0:0:
329,192,311343,1,0,0:0:0:0:
182,192,311676,1,0,0:0:0:0:
402,192,312009,1,0,0:0:0:0:
329,192,312343,1,0,0:0:0:0:
256,192,312676,128,0,313009:0:0:0:0:
182,192,313343,1,0,0:0:0:0:
256,192,313676,1,0,0:0:0:0:
402,192,314009,1,0,0:0:0:0:
329,192,314343,1,0,0:0:0:0:
475,192,314676,1,0,0:0:0:0:
402,192,315009,1,0,0:0:0:0:
329,192,315343,128,0,315676:0:0:0:0:
256,192,315343,128,0,315676:0:0:0:0:
182,192,316009,128,0,316343:0:0:0:0:
256,192,316009,128,0,316343:0:0:0:0:
256,192,316676,1,0,0:0:0:0:
475,192,317009,1,0,0:0:0:0:
329,192,317343,1,0,0:0:0:0:
109,192,317676,1,0,0:0:0:0:
182,192,318009,1,0,0:0:0:0:
475,192,318343,1,0,0:0:0:0:
402,192,318343,1,0,0:0:0:0:
182,192,318676,1,0,0:0:0:0:
109,192,318676,1,0,0:0:0:0:
36,192,319009,1,0,0:0:0:0:
182,192,319343,1,0,0:0:0:0:
329,192,319676,1,0,0:0:0:0:
475,192,320009,1,0,0:0:0:0:
36,192,320343,1,0,0:0:0:0:
329,192,320676,1,0,0:0:0:0:
256,192,321017,1,0,0:0:0:0:
182,192,321369,1,0,0:0:0:0:
109,192,321732,128,0,322277:0:0:0:0:
182,192,322277,1,0,0:0:0:0:
256,192,322677,1,0,0:0:0:0:
329,192,323019,1,0,0:0:0:0:
329,192,323352,1,0,0:0:0:0:
402,192,323685,1,0,0:0:0:0:
329,192,324018,1,0,0:0:0:0:
256,192,324351,1,0,0:0:0:0:
329,192,324685,1,0,0:0:0:0:
475,192,325018,1,0,0:0:0:0:
329,192,325351,1,0,0:0:0:0:
182,192,325685,1,0,0:0:0:0:
329,192,326018,1,0,0:0:0:0:
475,192,326351,1,0,0:0:0:0:
256,192,326351,1,0,0:0:0:0:
256,192,327685,128,0,328351:0:0:0:0:
182,192,328685,1,0,0:0:0:0:
256,192,328851,1,0,0:0:0:0:
329,192,329018,1,0,0:0:0:0:
256,192,329351,1,0,0:0:0:0:
182,192,329685,1,0,0:0:0:0:
329,192,330018,1,0,0:0:0:0:
475,192,330351,1,0,0:0:0:0:
402,192,330685,1,0,0:0:0:0:
329,192,331018,1,0,0:0:0:0:
256,192,331351,1,0,0:0:0:0:
402,192,331685,1,0,0:0:0:0:
475,192,331685,1,0,0:0:0:0:
182,192,333018,128,0,333685:0:0:0:0:
329,192,333018,128,0,333685:0:0:0:0:
256,192,334018,1,0,0:0:0:0:
182,192,334351,128,0,335018:0:0:0:0:
109,192,335018,128,0,335685:0:0:0:0:
182,192,335351,1,0,0:0:0:0:
329,192,335685,128,0,337018:0:0:0:0:
182,192,336018,1,0,0:0:0:0:
402,192,336351,1,0,0:0:0:0:
182,192,336685,1,0,0:0:0:0:
402,192,337018,128,0,338351:0:0:0:0:
256,192,337351,1,0,0:0:0:0:
329,192,337685,1,0,0:0:0:0:
256,192,338018,1,0,0:0:0:0:
329,192,338351,128,0,339018:0:0:0:0:
182,192,339018,1,0,0:0:0:0:
329,192,339351,1,0,0:0:0:0:
402,192,339518,1,0,0:0:0:0:
329,192,339685,1,0,0:0:0:0:
256,192,339685,1,0,0:0:0:0:
182,192,340018,1,0,0:0:0:0:
256,192,340018,1,0,0:0:0:0:
109,192,340351,1,0,0:0:0:0:
182,192,340351,1,0,0:0:0:0:
182,192,340685,1,0,0:0:0:0:
256,192,340685,1,0,0:0:0:0:
329,192,341018,128,0,341685:0:0:0:0:
182,192,341685,128,0,342351:0:0:0:0:
402,192,341685,1,0,0:0:0:0:
109,192,342351,128,0,343018:0:0:0:0:
329,192,342351,1,0,0:0:0:0:
36,192,343018,128,0,343685:0:0:0:0:
256,192,343018,1,0,0:0:0:0:
182,192,343685,128,0,344351:0:0:0:0:
329,192,343685,128,0,344351:0:0:0:0:
402,192,344351,128,0,345018:0:0:0:0:
109,192,344351,1,0,0:0:0:0:
475,192,345018,128,0,345685:0:0:0:0:
256,192,345018,1,0,0:0:0:0:
182,192,345685,128,0,346351:0:0:0:0:
329,192,345685,1,0,0:0:0:0:
329,192,346351,128,0,347018:0:0:0:0:
109,192,346351,1,0,0:0:0:0:
109,192,347018,128,0,347685:0:0:0:0:
182,192,347018,1,0,0:0:0:0:
402,192,347685,1,0,0:0:0:0:
475,192,347685,1,0,0:0:0:0:
256,192,348185,1,0,0:0:0:0:
402,192,348185,1,0,0:0:0:0:
329,192,348685,1,0,0:0:0:0:
182,192,349018,1,0,0:0:0:0:
475,192,349518,1,0,0:0:0:0:
475,192,349685,1,0,0:0:0:0:
402,192,349935,1,0,0:0:0:0:
329,192,350185,1,0,0:0:0:0:
182,192,350351,1,0,0:0:0:0:
256,192,350351,1,0,0:0:0:0:
402,192,351018,1,0,0:0:0:0:
109,192,351351,1,0,0:0:0:0:
182,192,351685,1,0,0:0:0:0:
329,192,351685,1,0,0:0:0:0:
256,192,352018,1,0,0:0:0:0:
109,192,352351,1,0,0:0:0:0:
475,192,352684,1,0,0:0:0:0:
256,192,353018,1,0,0:0:0:0:
402,192,353018,1,0,0:0:0:0:
329,192,353351,1,0,0:0:0:0:
109,192,353684,1,0,0:0:0:0:
402,192,354018,1,0,0:0:0:0:
182,192,354351,128,0,355018:0:0:0:0:
256,192,355018,128,0,355684:0:0:0:0:
402,192,355684,128,0,356351:0:0:0:0:
329,192,356351,128,0,357018:0:0:0:0:
475,192,357018,128,0,357684:0:0:0:0:
402,192,358018,1,0,0:0:0:0:
329,192,358184,1,0,0:0:0:0:
109,192,358351,1,0,0:0:0:0:
256,192,358351,1,0,0:0:0:0:
329,192,358601,1,0,0:0:0:0:
182,192,358851,1,0,0:0:0:0:
109,192,359018,128,0,359684:0:0:0:0:
256,192,359684,128,0,360351:0:0:0:0:
329,192,360684,1,0,0:0:0:0:
182,192,361018,128,0,361684:0:0:0:0:
475,192,361684,1,0,0:0:0:0:
36,192,362018,1,0,0:0:0:0:
182,192,362351,1,0,0:0:0:0:
329,192,362351,1,0,0:0:0:0:
329,192,362684,1,0,0:0:0:0:
182,192,362851,1,0,0:0:0:0:
109,192,363184,1,0,0:0:0:0:
402,192,363351,1,0,0:0:0:0:
182,192,363684,128,0,364684:0:0:0:0:
329,192,365018,128,0,365351:0:0:0:0:
182,192,365351,1,0,0:0:0:0:
182,192,365851,1,0,0:0:0:0:
109,192,366184,1,0,0:0:0:0:
329,192,366518,1,0,0:0:0:0:
256,192,366851,1,0,0:0:0:0:
402,192,367351,1,0,0:0:0:0:
402,192,367684,1,0,0:0:0:0:
182,192,368018,1,0,0:0:0:0:
329,192,368518,1,0,0:0:0:0:
182,192,368851,1,0,0:0:0:0:
475,192,369184,1,0,0:0:0:0:
329,192,369518,1,0,0:0:0:0:
402,192,370018,1,0,0:0:0:0:
402,192,370351,1,0,0:0:0:0:
36,192,370684,1,0,0:0:0:0:
329,192,371184,1,0,0:0:0:0:
109,192,371518,1,0,0:0:0:0:
402,192,371851,1,0,0:0:0:0:
182,192,372184,1,0,0:0:0:0:
256,192,372684,1,0,0:0:0:0:
256,192,373018,1,0,0:0:0:0:
36,192,373351,1,0,0:0:0:0:
256,192,373851,1,0,0:0:0:0:
182,192,374184,1,0,0:0:0:0:
329,192,374518,1,0,0:0:0:0:
256,192,374851,1,0,0:0:0:0:
329,192,375351,1,0,0:0:0:0:
182,192,375684,1,0,0:0:0:0:
329,192,375684,1,0,0:0:0:0:
109,192,377351,1,0,0:0:0:0:
182,192,377684,1,0,0:0:0:0:
329,192,378018,1,0,0:0:0:0:
256,192,378351,128,0,379684:0:0:0:0:
329,192,378684,1,0,0:0:0:0:
329,192,379018,1,0,0:0:0:0:
329,192,379351,1,0,0:0:0:0:
402,192,379684,1,0,0:0:0:0:
182,192,380018,1,0,0:0:0:0:
402,192,380351,1,0,0:0:0:0:
182,192,380684,1,0,0:0:0:0:
475,192,381018,128,0,383684:0:0:0:0:
182,192,381351,1,0,0:0:0:0:
329,192,381684,1,0,0:0:0:0:
182,192,382018,1,0,0:0:0:0:
329,192,382351,1,0,0:0:0:0:
182,192,382684,1,0,0:0:0:0:
329,192,383018,1,0,0:0:0:0:
182,192,383351,1,0,0:0:0:0:
329,192,383684,128,0,385018:0:0:0:0:
109,192,383684,1,0,0:0:0:0:
182,192,384018,1,0,0:0:0:0:
109,192,384351,1,0,0:0:0:0:
182,192,384684,1,0,0:0:0:0:
402,192,385018,1,0,0:0:0:0:
475,192,385018,1,0,0:0:0:0:
182,192,385684,1,0,0:0:0:0:
182,192,386018,1,0,0:0:0:0:
182,192,386351,1,0,0:0:0:0:
329,192,386351,1,0,0:0:0:0:
329,192,386684,1,0,0:0:0:0:
109,192,386851,1,0,0:0:0:0:
182,192,387184,1,0,0:0:0:0:
109,192,387351,128,0,389018:0:0:0:0:
182,192,389018,1,0,0:0:0:0:
329,192,389018,1,0,0:0:0:0:
329,192,389351,1,0,0:0:0:0:
182,192,389518,1,0,0:0:0:0:
329,192,389851,1,0,0:0:0:0:
402,192,390018,128,0,391684:0:0:0:0:
256,192,391684,1,0,0:0:0:0:
329,192,391684,1,0,0:0:0:0:
402,192,392018,1,0,0:0:0:0:
182,192,392184,1,0,0:0:0:0:
329,192,392518,1,0,0:0:0:0:
109,192,392684,128,0,394351:0:0:0:0:
182,192,394351,1,0,0:0:0:0:
329,192,394351,1,0,0:0:0:0:
329,192,394684,1,0,0:0:0:0:
182,192,394851,1,0,0:0:0:0:
329,192,395184,1,0,0:0:0:0:
475,192,395351,128,0,397018:0:0:0:0:
109,192,397018,1,0,0:0:0:0:
256,192,397018,1,0,0:0:0:0:
402,192,397018,1,0,0:0:0:0:
329,192,397351,1,0,0:0:0:0:
109,192,397518,1,0,0:0:0:0:
402,192,397851,1,0,0:0:0:0:
329,192,398018,1,0,0:0:0:0:
182,192,398184,128,0,399684:0:0:0:0:
256,192,399684,1,0,0:0:0:0:
402,192,399684,1,0,0:0:0:0:
329,192,400018,1,0,0:0:0:0:
109,192,400184,1,0,0:0:0:0:
182,192,400518,1,0,0:0:0:0:
475,192,400684,1,0,0:0:0:0:
329,192,400851,128,0,402351:0:0:0:0:
182,192,402351,1,0,0:0:0:0:
256,192,402351,1,0,0:0:0:0:
402,192,402684,1,0,0:0:0:0:
329,192,402851,1,0,0:0:0:0:
402,192,403184,1,0,0:0:0:0:
256,192,403351,1,0,0:0:0:0:
109,192,403518,128,0,405018:0:0:0:0:
256,192,405351,1,0,0:0:0:0:
109,192,405518,1,0,0:0:0:0:
402,192,406018,1,0,0:0:0:0:
109,192,407184,1,0,0:0:0:0:
182,192,407351,1,0,0:0:0:0:
256,192,407518,1,0,0:0:0:0:
329,192,407684,1,0,0:0:0:0:
475,192,407684,1,0,0:0:0:0:
329,192,408018,1,0,0:0:0:0:
182,192,408184,1,0,0:0:0:0:
329,192,408518,1,0,0:0:0:0:
109,192,409018,1,0,0:0:0:0:
256,192,409018,1,0,0:0:0:0:
329,192,409351,1,0,0:0:0:0:
109,192,409518,1,0,0:0:0:0:
329,192,409851,1,0,0:0:0:0:
36,192,410351,1,0,0:0:0:0:
182,192,410601,1,0,0:0:0:0:
402,192,410684,1,0,0:0:0:0:
109,192,411184,1,0,0:0:0:0:
182,192,411351,1,0,0:0:0:0:
256,192,411518,1,0,0:0:0:0:
402,192,411684,1,0,0:0:0:0:
475,192,411684,1,0,0:0:0:0:
329,192,411851,1,0,0:0:0:0:
256,192,411934,1,0,0:0:0:0:
182,192,412018,1,0,0:0:0:0:
402,192,412518,1,0,0:0:0:0:
182,192,412684,1,0,0:0:0:0:
329,192,412851,1,0,0:0:0:0:
109,192,413018,1,0,0:0:0:0:
256,192,413018,1,0,0:0:0:0:
36,192,413268,1,0,0:0:0:0:
182,192,413518,1,0,0:0:0:0:
475,192,413684,1,0,0:0:0:0:
402,192,414184,128,0,414684:0:0:0:0:
182,192,414684,1,0,0:0:0:0:
109,192,415018,1,0,0:0:0:0:
182,192,415268,1,0,0:0:0:0:
256,192,415518,1,0,0:0:0:0:
475,192,415684,1,0,0:0:0:0:
402,192,415684,1,0,0:0:0:0:
329,192,416018,1,0,0:0:0:0:
182,192,416184,1,0,0:0:0:0:
329,192,416351,128,0,417018:0:0:0:0:
475,192,417018,1,0,0:0:0:0:
182,192,417518,1,0,0:0:0:0:
182,192,417684,1,0,0:0:0:0:
256,192,417934,1,0,0:0:0:0:
475,192,418184,1,0,0:0:0:0:
329,192,418351,1,0,0:0:0:0:
109,192,418601,1,0,0:0:0:0:
256,192,418851,1,0,0:0:0:0:
329,192,419018,1,0,0:0:0:0:
475,192,419268,1,0,0:0:0:0:
402,192,419518,1,0,0:0:0:0:
109,192,419684,1,0,0:0:0:0:
475,192,419934,1,0,0:0:0:0:
402,192,420184,1,0,0:0:0:0:
182,192,420351,1,0,0:0:0:0:
329,192,420518,1,0,0:0:0:0:
109,192,420684,1,0,0:0:0:0:
402,192,420851,1,0,0:0:0:0:
36,192,421018,1,0,0:0:0:0:
182,192,421351,1,0,0:0:0:0:
475,192,421351,1,0,0:0:0:0:
109,192,421601,1,0,0:0:0:0:
329,192,421684,1,0,0:0:0:0:
182,192,421934,1,0,0:0:0:0:
256,192,422184,1,0,0:0:0:0:
475,192,422351,1,0,0:0:0:0:
402,192,422351,1,0,0:0:0:0:
329,192,422684,1,0,0:0:0:0:
402,192,422684,1,0,0:0:0:0:
109,192,423018,1,0,0:0:0:0:
256,192,423018,1,0,0:0:0:0:
329,192,423351,1,0,0:0:0:0:
402,192,423351,1,0,0:0:0:0:
182,192,423684,1,0,0:0:0:0:
329,192,423684,1,0,0:0:0:0:
182,192,424268,1,0,0:0:0:0:
475,192,424351,1,0,0:0:0:0:
402,192,424601,1,0,0:0:0:0:
329,192,424851,1,0,0:0:0:0:
109,192,425018,128,0,425684:0:0:0:0:
329,192,425351,1,0,0:0:0:0:
182,192,425518,1,0,0:0:0:0:
329,192,426018,1,0,0:0:0:0:
182,192,426184,1,0,0:0:0:0:
402,192,426351,1,0,0:0:0:0:
182,192,426601,1,0,0:0:0:0:
329,192,426851,1,0,0:0:0:0:
109,192,427018,1,0,0:0:0:0:
402,192,427268,1,0,0:0:0:0:
329,192,427518,1,0,0:0:0:0:
182,192,427684,1,0,0:0:0:0:
402,192,427684,128,0,429018:0:0:0:0:
256,192,428018,1,0,0:0:0:0:
182,192,428351,1,0,0:0:0:0:
182,192,428684,1,0,0:0:0:0:
182,192,429018,1,0,0:0:0:0:
329,192,429018,1,0,0:0:0:0:
109,192,429684,128,0,430351:0:0:0:0:
182,192,430351,128,0,431018:0:0:0:0:
329,192,431018,128,0,431684:0:0:0:0:
256,192,431684,128,0,433018:0:0:0:0:
402,192,433018,128,0,435684:0:0:0:0:
182,192,434351,128,0,435684:0:0:0:0:
329,192,435684,128,0,436351:0:0:0:0:
256,192,436351,128,0,437018:0:0:0:0:
182,192,437018,128,0,438351:0:0:0:0:
256,192,438351,128,0,439018:0:0:0:0:
329,192,439018,128,0,439684:0:0:0:0:
475,192,439684,128,0,441018:0:0:0:0:
402,192,441018,128,0,441684:0:0:0:0:
329,192,441684,128,0,442351:0:0:0:0:
256,192,442351,128,0,443018:0:0:0:0:
256,192,443684,128,0,444351:0:0:0:0:
329,192,444351,128,0,445018:0:0:0:0:
256,192,445018,128,0,447684:0:0:0:0:
402,192,445018,128,0,447684:0:0:0:0:
329,192,447684,128,0,448684:0:0:0:0:
475,192,447684,128,0,448684:0:0:0:0:
182,192,448684,128,0,449684:0:0:0:0:
256,192,448684,128,0,449684:0:0:0:0:
402,192,449684,1,0,0:0:0:0:
256,192,450351,1,0,0:0:0:0:
329,192,450518,1,0,0:0:0:0:
475,192,450851,1,0,0:0:0:0:
182,192,451018,1,0,0:0:0:0:
402,192,451184,1,0,0:0:0:0:
182,192,451351,1,0,0:0:0:0:
36,192,451684,1,0,0:0:0:0:
256,192,451684,1,0,0:0:0:0:
109,192,452184,1,0,0:0:0:0:
256,192,452351,1,0,0:0:0:0:
475,192,452518,1,0,0:0:0:0:
329,192,452684,1,0,0:0:0:0:
109,192,452851,1,0,0:0:0:0:
402,192,453018,128,0,453684:0:0:0:0:
475,192,453018,128,0,453684:0:0:0:0:
256,192,453684,128,0,454351:0:0:0:0:
329,192,453684,128,0,454351:0:0:0:0:
109,192,454351,128,0,455018:0:0:0:0:
182,192,454351,128,0,455018:0:0:0:0:
256,192,455018,128,0,455684:0:0:0:0:
109,192,455684,1,0,0:0:0:0:
475,192,456184,1,0,0:0:0:0:
402,192,456351,1,0,0:0:0:0:
329,192,456518,1,0,0:0:0:0:
256,192,456684,1,0,0:0:0:0:
36,192,457018,1,0,0:0:0:0:
109,192,457518,1,0,0:0:0:0:
329,192,457684,1,0,0:0:0:0:
402,192,457851,1,0,0:0:0:0:
182,192,458018,1,0,0:0:0:0:
36,192,458184,1,0,0:0:0:0:
329,192,458351,128,0,459018:0:0:0:0:
475,192,458351,128,0,459018:0:0:0:0:
256,192,459018,128,0,459684:0:0:0:0:
402,192,459018,128,0,459684:0:0:0:0:
182,192,459684,128,0,461018:0:0:0:0:
329,192,459684,128,0,461018:0:0:0:0:
475,192,461518,1,0,0:0:0:0:
329,192,461684,1,0,0:0:0:0:
402,192,461851,1,0,0:0:0:0:
256,192,462018,1,0,0:0:0:0:
36,192,462351,1,0,0:0:0:0:
182,192,462851,1,0,0:0:0:0:
329,192,463018,1,0,0:0:0:0:
475,192,463184,1,0,0:0:0:0:
182,192,463351,1,0,0:0:0:0:
109,192,463518,1,0,0:0:0:0:
475,192,463684,128,0,464351:0:0:0:0:
329,192,464351,128,0,465018:0:0:0:0:
182,192,465018,128,0,465684:0:0:0:0:
329,192,465684,128,0,466351:0:0:0:0:
475,192,465684,128,0,466351:0:0:0:0:
182,192,466351,1,0,0:0:0:0:
475,192,466851,1,0,0:0:0:0:
329,192,467018,1,0,0:0:0:0:
402,192,467184,1,0,0:0:0:0:
256,192,467351,1,0,0:0:0:0:
36,192,467684,1,0,0:0:0:0:
182,192,468184,1,0,0:0:0:0:
329,192,468351,1,0,0:0:0:0:
475,192,468518,1,0,0:0:0:0:
329,192,468684,1,0,0:0:0:0:
182,192,468851,1,0,0:0:0:0:
256,192,469018,128,0,469684:0:0:0:0:
475,192,469018,128,0,469684:0:0:0:0:
182,192,469684,128,0,470351:0:0:0:0:
402,192,469684,128,0,470351:0:0:0:0:
109,192,470351,128,0,471018:0:0:0:0:
329,192,470351,128,0,471018:0:0:0:0:
182,192,471018,1,0,0:0:0:0:
402,192,471018,1,0,0:0:0:0:
256,192,471684,128,0,473018:0:0:0:0:
109,192,471684,128,0,473018:0:0:0:0:
402,192,471684,128,0,473018:0:0:0:0:
36,192,473018,128,0,474018:0:0:0:0:
182,192,473018,128,0,474018:0:0:0:0:
329,192,473018,128,0,474018:0:0:0:0:
256,192,474268,1,0,0:0:0:0:
182,192,474434,1,0,0:0:0:0:
109,192,474684,1,0,0:0:0:0:
475,192,474768,1,0,0:0:0:0:
329,192,474851,1,0,0:0:0:0:
182,192,474934,1,0,0:0:0:0:
402,192,475018,1,0,0:0:0:0:
182,192,475268,1,0,0:0:0:0:
402,192,475351,1,0,0:0:0:0:
182,192,475601,1,0,0:0:0:0:
475,192,475684,128,0,477018:0:0:0:0:
182,192,477018,1,0,0:0:0:0:
109,192,477268,1,0,0:0:0:0:
182,192,477518,1,0,0:0:0:0:
329,192,477684,1,0,0:0:0:0:
182,192,477934,1,0,0:0:0:0:
256,192,478184,1,0,0:0:0:0:
329,192,478351,1,0,0:0:0:0:
402,192,478601,1,0,0:0:0:0:
475,192,478851,1,0,0:0:0:0:
475,192,479018,1,0,0:0:0:0:
402,192,479268,1,0,0:0:0:0:
329,192,479518,1,0,0:0:0:0:
329,192,479684,1,0,0:0:0:0:
402,192,480018,1,0,0:0:0:0:
402,192,480184,1,0,0:0:0:0:
182,192,480351,1,0,0:0:0:0:
36,192,480684,1,0,0:0:0:0:
182,192,481018,1,0,0:0:0:0:
475,192,481684,1,0,0:0:0:0:
182,192,481851,1,0,0:0:0:0:
402,192,482018,1,0,0:0:0:0:
36,192,482184,1,0,0:0:0:0:
256,192,482351,1,0,0:0:0:0:
109,192,482351,1,0,0:0:0:0:
402,192,482351,1,0,0:0:0:0:
36,192,483018,1,0,0:0:0:0:
256,192,483018,1,0,0:0:0:0:
329,192,483268,1,0,0:0:0:0:
182,192,483518,1,0,0:0:0:0:
402,192,483684,1,0,0:0:0:0:
109,192,483934,1,0,0:0:0:0:
329,192,484184,1,0,0:0:0:0:
109,192,484351,1,0,0:0:0:0:
109,192,484684,1,0,0:0:0:0:
329,192,484851,1,0,0:0:0:0:
402,192,485018,1,0,0:0:0:0:
182,192,485018,1,0,0:0:0:0:
36,192,485351,1,0,0:0:0:0:
329,192,485684,1,0,0:0:0:0:
109,192,485934,1,0,0:0:0:0:
182,192,486184,1,0,0:0:0:0:
402,192,486351,1,0,0:0:0:0:
329,192,486601,1,0,0:0:0:0:
329,192,486851,1,0,0:0:0:0:
109,192,487018,1,0,0:0:0:0:
329,192,487351,1,0,0:0:0:0:
182,192,487518,1,0,0:0:0:0:
475,192,487684,1,0,0:0:0:0:
256,192,487684,1,0,0:0:0:0:
329,192,488018,1,0,0:0:0:0:
109,192,488184,1,0,0:0:0:0:
329,192,488518,1,0,0:0:0:0:
256,192,489018,1,0,0:0:0:0:
402,192,489018,1,0,0:0:0:0:
109,192,489351,1,0,0:0:0:0:
329,192,489684,1,0,0:0:0:0:
475,192,489684,1,0,0:0:0:0:
109,192,490018,1,0,0:0:0:0:
329,192,490351,1,0,0:0:0:0:
402,192,490351,1,0,0:0:0:0:
329,192,490684,1,0,0:0:0:0:
109,192,490851,1,0,0:0:0:0:
182,192,491184,1,0,0:0:0:0:
182,192,491684,128,0,493018:0:0:0:0:
402,192,491684,128,0,493018:0:0:0:0:
256,192,493018,1,0,0:0:0:0:
109,192,493684,128,0,494351:0:0:0:0:
182,192,494351,128,0,495018:0:0:0:0:
329,192,495018,128,0,495684:0:0:0:0:
256,192,495684,128,0,497018:0:0:0:0:
402,192,497018,128,0,499684:0:0:0:0:
475,192,498351,128,0,499684:0:0:0:0:
329,192,499684,128,0,500351:0:0:0:0:
256,192,500351,128,0,501018:0:0:0:0:
182,192,501018,128,0,502351:0:0:0:0:
256,192,502351,128,0,503018:0:0:0:0:
329,192,503018,128,0,503684:0:0:0:0:
475,192,503684,128,0,505018:0:0:0:0:
182,192,505018,128,0,505684:0:0:0:0:
329,192,505684,128,0,506351:0:0:0:0:
256,192,506351,128,0,507018:0:0:0:0:
182,192,507018,128,0,507684:0:0:0:0:
109,192,507684,128,0,508351:0:0:0:0:
182,192,508351,128,0,509018:0:0:0:0:
256,192,509018,128,0,511684:0:0:0:0:
402,192,509018,128,0,511684:0:0:0:0:
36,192,511684,128,0,513018:0:0:0:0:
109,192,514018,1,0,0:0:0:0:
182,192,514351,128,0,514851:0:0:0:0:
329,192,514351,128,0,514851:0:0:0:0:
402,192,515018,1,0,0:0:0:0:
329,192,515351,1,0,0:0:0:0:
182,192,515684,5,0,0:0:0:0:
256,192,515934,1,0,0:0:0:0:
475,192,516184,1,0,0:0:0:0:
475,192,516351,1,0,0:0:0:0:
182,192,516684,1,0,0:0:0:0:
475,192,516851,1,0,0:0:0:0:
475,192,517018,1,0,0:0:0:0:
402,192,517268,1,0,0:0:0:0:
329,192,517518,1,0,0:0:0:0:
256,192,517684,1,0,0:0:0:0:
475,192,518184,1,0,0:0:0:0:
475,192,518351,1,0,0:0:0:0:
402,192,518601,1,0,0:0:0:0:
329,192,518851,1,0,0:0:0:0:
256,192,519018,1,0,0:0:0:0:
182,192,519018,1,0,0:0:0:0:
182,192,519351,1,0,0:0:0:0:
402,192,519351,1,0,0:0:0:0:
329,192,519518,1,0,0:0:0:0:
109,192,519684,128,0,520351:0:0:0:0:
256,192,519684,128,0,520351:0:0:0:0:
329,192,520351,1,0,0:0:0:0:
182,192,520684,1,0,0:0:0:0:
182,192,521018,1,0,0:0:0:0:
402,192,521184,1,0,0:0:0:0:
329,192,521351,1,0,0:0:0:0:
109,192,521518,1,0,0:0:0:0:
109,192,521851,1,0,0:0:0:0:
182,192,522018,1,0,0:0:0:0:
402,192,522184,1,0,0:0:0:0:
329,192,522351,128,0,523684:0:0:0:0:
182,192,523684,1,0,0:0:0:0:
256,192,524684,128,0,525018:0:0:0:0:
109,192,524684,128,0,525018:0:0:0:0:
329,192,525018,128,0,525351:0:0:0:0:
182,192,525018,128,0,525351:0:0:0:0:
475,192,525684,1,0,0:0:0:0:
402,192,526018,1,0,0:0:0:0:
36,192,526351,1,0,0:0:0:0:
182,192,526601,1,0,0:0:0:0:
329,192,526851,1,0,0:0:0:0:
329,192,527018,1,0,0:0:0:0:
109,192,527518,1,0,0:0:0:0:
475,192,527684,1,0,0:0:0:0:
402,192,527934,1,0,0:0:0:0:
329,192,528184,1,0,0:0:0:0:
182,192,528351,1,0,0:0:0:0:
109,192,528851,1,0,0:0:0:0:
475,192,529018,1,0,0:0:0:0:
402,192,529268,1,0,0:0:0:0:
329,192,529518,1,0,0:0:0:0:
182,192,529684,1,0,0:0:0:0:
329,192,529934,1,0,0:0:0:0:
475,192,530184,1,0,0:0:0:0:
109,192,530351,1,0,0:0:0:0:
256,192,530351,1,0,0:0:0:0:
182,192,530684,1,0,0:0:0:0:
256,192,531018,128,0,531351:0:0:0:0:
402,192,531351,128,0,531684:0:0:0:0:
109,192,531684,1,0,0:0:0:0:
402,192,531851,1,0,0:0:0:0:
329,192,532018,1,0,0:0:0:0:
182,192,532184,1,0,0:0:0:0:
109,192,532518,1,0,0:0:0:0:
182,192,532684,1,0,0:0:0:0:
475,192,532851,1,0,0:0:0:0:
329,192,533018,128,0,534351:0:0:0:0:
475,192,534351,1,0,0:0:0:0:
402,192,534351,1,0,0:0:0:0:
109,192,534684,1,0,0:0:0:0:
182,192,534684,1,0,0:0:0:0:
329,192,535018,1,0,0:0:0:0:
402,192,535018,1,0,0:0:0:0:
36,192,535351,1,0,0:0:0:0:
109,192,535351,1,0,0:0:0:0:
109,192,535684,128,0,536184:0:0:0:0:
402,192,535684,1,0,0:0:0:0:
182,192,536184,128,0,536684:0:0:0:0:
402,192,536184,1,0,0:0:0:0:
109,192,536684,1,0,0:0:0:0:
475,192,536684,128,0,537018:0:0:0:0:
109,192,537018,1,0,0:0:0:0:
329,192,537018,128,0,537518:0:0:0:0:
402,192,537518,1,0,0:0:0:0:
182,192,537518,128,0,538018:0:0:0:0:
475,192,538018,128,0,538351:0:0:0:0:
36,192,538018,1,0,0:0:0:0:
109,192,538351,128,0,538851:0:0:0:0:
329,192,538351,1,0,0:0:0:0:
182,192,538851,128,0,539351:0:0:0:0:
329,192,538851,1,0,0:0:0:0:
256,192,539351,128,0,539684:0:0:0:0:
402,192,539351,1,0,0:0:0:0:
182,192,539684,128,0,540184:0:0:0:0:
402,192,539684,1,0,0:0:0:0:
256,192,540184,128,0,540684:0:0:0:0:
329,192,540684,1,0,0:0:0:0:
475,192,541018,128,0,541518:0:0:0:0:
182,192,541518,128,0,542018:0:0:0:0:
329,192,541518,1,0,0:0:0:0:
475,192,542018,1,0,0:0:0:0:
329,192,542351,1,0,0:0:0:0:
256,192,542684,1,0,0:0:0:0:
182,192,543018,1,0,0:0:0:0:
36,192,543351,1,0,0:0:0:0:
109,192,543684,1,0,0:0:0:0:
402,192,544018,1,0,0:0:0:0:
182,192,544184,1,0,0:0:0:0:
256,192,544518,1,0,0:0:0:0:
329,192,544851,128,0,545684:0:0:0:0:
182,192,545351,1,0,0:0:0:0:
182,192,545684,1,0,0:0:0:0:
109,192,545851,1,0,0:0:0:0:
182,192,546018,1,0,0:0:0:0:
256,192,546184,1,0,0:0:0:0:
402,192,546351,128,0,547018:0:0:0:0:
475,192,547018,128,0,547684:0:0:0:0:
182,192,547018,1,0,0:0:0:0:
402,192,547684,128,0,548351:0:0:0:0:
182,192,547684,1,0,0:0:0:0:
256,192,548351,128,0,549018:0:0:0:0:
109,192,548351,1,0,0:0:0:0:
402,192,549018,1,0,0:0:0:0:
256,192,549184,1,0,0:0:0:0:
402,192,549351,1,0,0:0:0:0:
182,192,549518,128,0,550018:0:0:0:0:
475,192,550018,128,0,550351:0:0:0:0:
329,192,550018,1,0,0:0:0:0:
402,192,550351,1,0,0:0:0:0:
256,192,550351,1,0,0:0:0:0:
329,192,550684,1,0,0:0:0:0:
182,192,550684,1,0,0:0:0:0:
256,192,551018,1,0,0:0:0:0:
109,192,551018,1,0,0:0:0:0:
109,192,551351,1,0,0:0:0:0:
36,192,551351,1,0,0:0:0:0:
182,192,551684,128,0,552351:0:0:0:0:
256,192,552351,128,0,553018:0:0:0:0:
475,192,552351,1,0,0:0:0:0:
329,192,553018,128,0,553684:0:0:0:0:
36,192,553018,1,0,0:0:0:0:
475,192,553684,128,0,554351:0:0:0:0:
109,192,553684,1,0,0:0:0:0:
402,192,554351,128,0,555684:0:0:0:0:
182,192,554351,1,0,0:0:0:0:
36,192,555684,1,0,0:0:0:0:
182,192,555684,1,0,0:0:0:0:
109,192,556018,1,0,0:0:0:0:
256,192,556018,1,0,0:0:0:0:
182,192,556351,1,0,0:0:0:0:
329,192,556351,1,0,0:0:0:0:
256,192,556684,1,0,0:0:0:0:
402,192,556684,1,0,0:0:0:0:
36,192,557018,1,0,0:0:0:0:
182,192,557018,1,0,0:0:0:0:
329,192,557018,1,0,0:0:0:0:
475,192,557018,1,0,0:0:0:0:
182,192,557518,1,0,0:0:0:0:
329,192,557684,1,0,0:0:0:0:
182,192,558018,1,0,0:0:0:0:
109,192,558351,1,0,0:0:0:0:
182,192,558601,1,0,0:0:0:0:
329,192,558851,1,0,0:0:0:0:
402,192,559018,1,0,0:0:0:0:
182,192,559518,1,0,0:0:0:0:
402,192,559684,1,0,0:0:0:0:
329,192,559934,1,0,0:0:0:0:
256,192,560184,1,0,0:0:0:0:
109,192,560351,1,0,0:0:0:0:
182,192,560851,1,0,0:0:0:0:
402,192,561018,1,0,0:0:0:0:
329,192,561268,1,0,0:0:0:0:
256,192,561518,1,0,0:0:0:0:
109,192,561684,1,0,0:0:0:0:
256,192,561934,1,0,0:0:0:0:
475,192,562184,1,0,0:0:0:0:
402,192,562351,1,0,0:0:0:0:
329,192,563018,1,0,0:0:0:0:
182,192,563351,1,0,0:0:0:0:
182,192,563684,1,0,0:0:0:0:
402,192,563851,1,0,0:0:0:0:
329,192,564018,1,0,0:0:0:0:
182,192,564184,1,0,0:0:0:0:
182,192,564518,1,0,0:0:0:0:
329,192,564684,1,0,0:0:0:0:
475,192,564851,1,0,0:0:0:0:
402,192,565018,128,0,567351:0:0:0:0:
329,192,566351,128,0,567351:0:0:0:0:
36,192,567351,1,0,0:0:0:0:
182,192,567351,1,0,0:0:0:0:
182,192,567684,128,0,568351:0:0:0:0:
329,192,567684,128,0,568351:0:0:0:0:
402,192,568351,1,0,0:0:0:0:
329,192,568684,1,0,0:0:0:0:
182,192,569018,1,0,0:0:0:0:
256,192,569268,1,0,0:0:0:0:
475,192,569518,1,0,0:0:0:0:
475,192,569684,1,0,0:0:0:0:
475,192,570184,1,0,0:0:0:0:
475,192,570351,1,0,0:0:0:0:
402,192,570601,1,0,0:0:0:0:
329,192,570851,1,0,0:0:0:0:
182,192,571018,1,0,0:0:0:0:
475,192,571518,1,0,0:0:0:0:
475,192,571684,1,0,0:0:0:0:
402,192,571934,1,0,0:0:0:0:
329,192,572184,1,0,0:0:0:0:
182,192,572351,1,0,0:0:0:0:
402,192,572351,1,0,0:0:0:0:
182,192,572684,1,0,0:0:0:0:
329,192,572851,1,0,0:0:0:0:
109,192,573018,128,0,573684:0:0:0:0:
256,192,573018,128,0,573684:0:0:0:0:
329,192,573684,1,0,0:0:0:0:
402,192,574018,1,0,0:0:0:0:
475,192,574351,1,0,0:0:0:0:
182,192,574518,1,0,0:0:0:0:
329,192,574684,1,0,0:0:0:0:
182,192,574851,1,0,0:0:0:0:
256,192,575184,1,0,0:0:0:0:
329,192,575351,1,0,0:0:0:0:
475,192,575518,1,0,0:0:0:0:
329,192,575684,128,0,577018:0:0:0:0:
402,192,577018,128,0,578351:0:0:0:0:
182,192,578351,128,0,579684:0:0:0:0:
256,192,579684,128,0,581017:0:0:0:0:
402,192,579684,1,0,0:0:0:0:
182,192,581017,128,0,582351:0:0:0:0:
475,192,581017,1,0,0:0:0:0:
329,192,582351,128,0,583684:0:0:0:0:
36,192,582351,1,0,0:0:0:0:
402,192,583684,128,0,585017:0:0:0:0:
109,192,583684,1,0,0:0:0:0:
182,192,585017,1,0,0:0:0:0:
329,192,585517,1,0,0:0:0:0:
182,192,586017,1,0,0:0:0:0:
256,192,586351,128,0,587684:0:0:0:0:
475,192,587684,1,0,0:0:0:0:
329,192,587684,1,0,0:0:0:0:
256,192,588017,1,0,0:0:0:0:
402,192,588017,1,0,0:0:0:0:
182,192,588351,1,0,0:0:0:0:
329,192,588351,1,0,0:0:0:0:
109,192,588684,1,0,0:0:0:0:
256,192,588684,1,0,0:0:0:0:
182,192,589017,1,0,0:0:0:0:
329,192,589017,128,0,590351:0:0:0:0:
182,192,590351,128,0,591684:0:0:0:0:
475,192,590351,1,0,0:0:0:0:
109,192,591684,128,0,592351:0:0:0:0:
329,192,591684,1,0,0:0:0:0:
182,192,592351,128,0,593684:0:0:0:0:
329,192,592351,1,0,0:0:0:0:
329,192,593684,128,0,594351:0:0:0:0:
109,192,593684,1,0,0:0:0:0:
402,192,594351,128,0,595684:0:0:0:0:
182,192,594351,1,0,0:0:0:0:
329,192,595684,1,0,0:0:0:0:
475,192,595684,1,0,0:0:0:0:
329,192,596184,1,0,0:0:0:0:
256,192,596184,1,0,0:0:0:0:
182,192,596684,1,0,0:0:0:0:
329,192,596684,1,0,0:0:0:0:
36,192,597017,128,0,599351:0:0:0:0:
182,192,597017,128,0,599351:0:0:0:0:
475,192,598351,1,0,0:0:0:0:
402,192,598684,1,0,0:0:0:0:
329,192,599017,1,0,0:0:0:0:
402,192,599351,1,0,0:0:0:0:
329,192,599517,1,0,0:0:0:0:
256,192,600351,1,0,0:0:0:0:
402,192,600351,1,0,0:0:0:0:
109,192,600351,1,0,0:0:0:0:
