osu file format v14

[General]
AudioFilename: Anhedonia.mp3
AudioLeadIn: 0
PreviewTime: 407009
Countdown: 0
SampleSet: Normal
StackLeniency: 0.7
Mode: 3
LetterboxInBreaks: 0
SpecialStyle: 0
WidescreenStoryboard: 1

[Editor]
Bookmarks: 577019
DistanceSpacing: 1.3
BeatDivisor: 4
GridSize: 8
TimelineZoom: 2.699999

[Metadata]
Title:Anhedonia
TitleUnicode:Anhedonia
Artist:a_hisa
ArtistUnicode:a_hisa
Creator:Rifkymarcelio
Version:HD
Source:
Tags:
BeatmapID:679392
BeatmapSetID:303148

[Difficulty]
HPDrainRate:8
CircleSize:7
OverallDifficulty:9
ApproachRate:5
SliderMultiplier:1.4
SliderTickRate:1

[Events]
//Background and Video events
0,0,"aaa.jpg",0,0
//Break Periods
2,252876,256976
//Storyboard Layer 0 (Background)
//Storyboard Layer 1 (Fail)
//Storyboard Layer 2 (Pass)
//Storyboard Layer 3 (Foreground)
//Storyboard Sound Samples

[TimingPoints]
6010,333.333333333333,4,1,0,100,1,0
320676,342.857142857143,4,1,0,100,1,0
321017,352.941176470588,4,1,0,100,1,0
321369,363.636363636364,4,1,0,100,1,0
321732,545.454545454546,4,1,0,100,1,0
322277,400,4,1,0,100,1,0
322677,342.857142857143,4,1,0,100,1,0
323019,333.333333333333,4,1,0,100,1,0
323685,333.333333333333,4,1,0,100,1,0
578351,666.666666666667,4,1,0,100,1,0

[HitObjects]
109,192,66009,128,0,66343:0:0:0:0:
329,192,66343,1,0,0:0:0:0:
182,192,66843,1,0,0:0:0:0:
329,192,66843,1,0,0:0:0:0:
109,192,67176,1,0,0:0:0:0:
182,192,67176,1,0,0:0:0:0:
329,192,67509,1,0,0:0:0:0:
475,192,67509,1,0,0:0:0:0:
182,192,67843,1,0,0:0:0:0:
402,192,67843,1,0,0:0:0:0:
402,192,68009,1,0,0:0:0:0:
329,192,68093,1,0,0:0:0:0:
256,192,68176,1,0,0:0:0:0:
182,192,68343,1,0,0:0:0:0:
329,192,68343,1,0,0:0:0:0:
329,192,68676,128,0,69009:0:0:0:0:
182,192,68676,128,0,69009:0:0:0:0:
256,192,69509,1,0,0:0:0:0:
402,192,69509,1,0,0:0:0:0:
182,192,69843,1,0,0:0:0:0:
256,192,69843,1,0,0:0:0:0:
329,192,70176,1,0,0:0:0:0:
475,192,70176,1,0,0:0:0:0:
256,192,70509,1,0,0:0:0:0:
329,192,70509,1,0,0:0:0:0:
182,192,70676,1,0,0:0:0:0:
329,192,70759,1,0,0:0:0:0:
182,192,70843,1,0,0:0:0:0:
329,192,70926,1,0,0:0:0:0:
475,192,71009,1,0,0:0:0:0:
256,192,71009,1,0,0:0:0:0:
182,192,71343,128,0,71676:0:0:0:0:
329,192,71343,128,0,71676:0:0:0:0:
182,192,72176,1,0,0:0:0:0:
329,192,72176,1,0,0:0:0:0:
109,192,72509,1,0,0:0:0:0:
182,192,72509,1,0,0:0:0:0:
329,192,72843,1,0,0:0:0:0:
402,192,72843,1,0,0:0:0:0:
182,192,73176,1,0,0:0:0:0:
329,192,73176,1,0,0:0:0:0:
256,192,73343,1,0,0:0:0:0:
182,192,73426,1,0,0:0:0:0:
109,192,73509,1,0,0:0:0:0:
329,192,73676,1,0,0:0:0:0:
402,192,73676,1,0,0:0:0:0:
329,192,74009,128,0,74343:0:0:0:0:
182,192,74009,128,0,74343:0:0:0:0:
256,192,74843,1,0,0:0:0:0:
329,192,74843,1,0,0:0:0:0:
182,192,75176,1,0,0:0:0:0:
256,192,75176,1,0,0:0:0:0:
329,192,75509,1,0,0:0:0:0:
402,192,75509,1,0,0:0:0:0:
256,192,75843,1,0,0:0:0:0:
329,192,75843,1,0,0:0:0:0:
329,192,76009,1,0,0:0:0:0:
182,192,76093,1,0,0:0:0:0:
329,192,76176,1,0,0:0:0:0:
182,192,76259,1,0,0:0:0:0:
109,192,76343,1,0,0:0:0:0:
402,192,76343,1,0,0:0:0:0:
329,192,76676,1,0,0:0:0:0:
182,192,76676,1,0,0:0:0:0:
36,192,76843,1,0,0:0:0:0:
109,192,77009,1,0,0:0:0:0:
182,192,77176,1,0,0:0:0:0:
256,192,77343,1,0,0:0:0:0:
182,192,77509,1,0,0:0:0:0:
256,192,77676,1,0,0:0:0:0:
329,192,77843,1,0,0:0:0:0:
402,192,78009,1,0,0:0:0:0:
256,192,78009,1,0,0:0:0:0:
182,192,78176,1,0,0:0:0:0:
256,192,78343,1,0,0:0:0:0:
329,192,78509,1,0,0:0:0:0:
402,192,78676,1,0,0:0:0:0:
109,192,78843,1,0,0:0:0:0:
182,192,79009,1,0,0:0:0:0:
256,192,79176,1,0,0:0:0:0:
182,192,79343,1,0,0:0:0:0:
329,192,79343,1,0,0:0:0:0:
475,192,79509,1,0,0:0:0:0:
402,192,79676,1,0,0:0:0:0:
329,192,79843,1,0,0:0:0:0:
182,192,80009,1,0,0:0:0:0:
109,192,80176,1,0,0:0:0:0:
182,192,80343,1,0,0:0:0:0:
329,192,80509,1,0,0:0:0:0:
256,192,80676,1,0,0:0:0:0:
36,192,80676,1,0,0:0:0:0:
182,192,80843,1,0,0:0:0:0:
329,192,81009,1,0,0:0:0:0:
402,192,81176,1,0,0:0:0:0:
256,192,81343,1,0,0:0:0:0:
36,192,81509,1,0,0:0:0:0:
329,192,81676,1,0,0:0:0:0:
182,192,81843,1,0,0:0:0:0:
36,192,82009,1,0,0:0:0:0:
256,192,82009,1,0,0:0:0:0:
182,192,82176,1,0,0:0:0:0:
329,192,82343,1,0,0:0:0:0:
402,192,82509,1,0,0:0:0:0:
256,192,82676,1,0,0:0:0:0:
402,192,82843,1,0,0:0:0:0:
329,192,83009,1,0,0:0:0:0:
182,192,83176,1,0,0:0:0:0:
109,192,83343,1,0,0:0:0:0:
329,192,83343,1,0,0:0:0:0:
182,192,83509,1,0,0:0:0:0:
256,192,83676,1,0,0:0:0:0:
329,192,83843,1,0,0:0:0:0:
182,192,84009,1,0,0:0:0:0:
256,192,84176,1,0,0:0:0:0:
329,192,84343,1,0,0:0:0:0:
402,192,84509,1,0,0:0:0:0:
329,192,84676,1,0,0:0:0:0:
109,192,84676,1,0,0:0:0:0:
182,192,84843,1,0,0:0:0:0:
329,192,85009,1,0,0:0:0:0:
402,192,85176,1,0,0:0:0:0:
182,192,85343,1,0,0:0:0:0:
256,192,85509,1,0,0:0:0:0:
329,192,85676,1,0,0:0:0:0:
402,192,85843,1,0,0:0:0:0:
329,192,86009,1,0,0:0:0:0:
36,192,86176,1,0,0:0:0:0:
256,192,86343,1,0,0:0:0:0:
109,192,86509,1,0,0:0:0:0:
329,192,86676,1,0,0:0:0:0:
182,192,86843,1,0,0:0:0:0:
402,192,87009,1,0,0:0:0:0:
329,192,87093,1,0,0:0:0:0:
182,192,87176,1,0,0:0:0:0:
109,192,87259,1,0,0:0:0:0:
182,192,87343,1,0,0:0:0:0:
329,192,87343,128,0,87843:0:0:0:0:
109,192,87509,1,0,0:0:0:0:
182,192,87676,1,0,0:0:0:0:
256,192,87843,1,0,0:0:0:0:
329,192,88009,1,0,0:0:0:0:
256,192,88176,1,0,0:0:0:0:
329,192,88343,1,0,0:0:0:0:
402,192,88509,1,0,0:0:0:0:
475,192,88676,1,0,0:0:0:0:
256,192,88676,1,0,0:0:0:0:
36,192,88843,1,0,0:0:0:0:
109,192,89009,1,0,0:0:0:0:
182,192,89176,1,0,0:0:0:0:
256,192,89343,1,0,0:0:0:0:
182,192,89509,1,0,0:0:0:0:
256,192,89676,1,0,0:0:0:0:
329,192,89843,1,0,0:0:0:0:
182,192,90009,1,0,0:0:0:0:
402,192,90009,1,0,0:0:0:0:
109,192,90176,1,0,0:0:0:0:
182,192,90343,1,0,0:0:0:0:
256,192,90509,1,0,0:0:0:0:
329,192,90676,1,0,0:0:0:0:
256,192,90843,1,0,0:0:0:0:
329,192,91009,1,0,0:0:0:0:
402,192,91176,1,0,0:0:0:0:
256,192,91343,1,0,0:0:0:0:
475,192,91343,1,0,0:0:0:0:
329,192,91509,1,0,0:0:0:0:
402,192,91676,1,0,0:0:0:0:
475,192,91843,1,0,0:0:0:0:
402,192,92009,128,0,92176:0:0:0:0:
329,192,92176,128,0,92343:0:0:0:0:
182,192,92343,128,0,92509:0:0:0:0:
109,192,92509,128,0,92676:0:0:0:0:
182,192,92676,1,0,0:0:0:0:
402,192,92676,1,0,0:0:0:0:
329,192,92843,1,0,0:0:0:0:
402,192,93009,5,0,0:0:0:0:
109,192,93176,1,0,0:0:0:0:
329,192,93343,5,0,0:0:0:0:
402,192,93509,1,0,0:0:0:0:
329,192,93676,1,0,0:0:0:0:
402,192,93843,1,0,0:0:0:0:
109,192,94009,1,0,0:0:0:0:
329,192,94009,1,0,0:0:0:0:
256,192,94176,1,0,0:0:0:0:
329,192,94343,1,0,0:0:0:0:
182,192,94509,1,0,0:0:0:0:
475,192,94676,1,0,0:0:0:0:
402,192,94759,1,0,0:0:0:0:
329,192,94843,1,0,0:0:0:0:
256,192,95009,1,0,0:0:0:0:
182,192,95176,1,0,0:0:0:0:
256,192,95343,1,0,0:0:0:0:
36,192,95343,1,0,0:0:0:0:
109,192,95509,1,0,0:0:0:0:
182,192,95676,1,0,0:0:0:0:
256,192,95843,1,0,0:0:0:0:
475,192,96009,1,0,0:0:0:0:
402,192,96176,1,0,0:0:0:0:
475,192,96343,1,0,0:0:0:0:
329,192,96509,1,0,0:0:0:0:
402,192,96676,1,0,0:0:0:0:
182,192,96676,1,0,0:0:0:0:
256,192,96843,1,0,0:0:0:0:
402,192,97009,1,0,0:0:0:0:
256,192,97176,1,0,0:0:0:0:
475,192,97343,1,0,0:0:0:0:
329,192,97509,1,0,0:0:0:0:
475,192,97676,1,0,0:0:0:0:
402,192,97759,1,0,0:0:0:0:
329,192,97843,1,0,0:0:0:0:
256,192,97926,1,0,0:0:0:0:
329,192,98009,1,0,0:0:0:0:
182,192,98009,128,0,98509:0:0:0:0:
109,192,98509,128,0,99009:0:0:0:0:
329,192,98509,1,0,0:0:0:0:
36,192,99009,128,0,100676:0:0:0:0:
256,192,99009,1,0,0:0:0:0:
182,192,99343,1,0,0:0:0:0:
329,192,99343,1,0,0:0:0:0:
182,192,99676,1,0,0:0:0:0:
329,192,99676,1,0,0:0:0:0:
329,192,100009,1,0,0:0:0:0:
109,192,100176,1,0,0:0:0:0:
329,192,100343,1,0,0:0:0:0:
475,192,100509,1,0,0:0:0:0:
402,192,100676,128,0,101176:0:0:0:0:
182,192,100676,1,0,0:0:0:0:
329,192,101176,128,0,101676:0:0:0:0:
182,192,101176,1,0,0:0:0:0:
475,192,101676,128,0,103343:0:0:0:0:
109,192,101676,1,0,0:0:0:0:
329,192,102009,1,0,0:0:0:0:
182,192,102009,1,0,0:0:0:0:
329,192,102343,1,0,0:0:0:0:
182,192,102343,1,0,0:0:0:0:
329,192,102676,1,0,0:0:0:0:
182,192,102843,1,0,0:0:0:0:
329,192,103009,1,0,0:0:0:0:
402,192,103176,1,0,0:0:0:0:
329,192,103343,128,0,103843:0:0:0:0:
182,192,103343,1,0,0:0:0:0:
256,192,103843,128,0,104343:0:0:0:0:
109,192,103843,1,0,0:0:0:0:
182,192,104343,128,0,106009:0:0:0:0:
402,192,104343,1,0,0:0:0:0:
256,192,104676,1,0,0:0:0:0:
402,192,104676,1,0,0:0:0:0:
256,192,105009,1,0,0:0:0:0:
402,192,105009,1,0,0:0:0:0:
256,192,105343,1,0,0:0:0:0:
36,192,105509,1,0,0:0:0:0:
256,192,105676,1,0,0:0:0:0:
402,192,105843,1,0,0:0:0:0:
329,192,106009,128,0,106509:0:0:0:0:
475,192,106009,1,0,0:0:0:0:
256,192,106509,128,0,107009:0:0:0:0:
402,192,106509,1,0,0:0:0:0:
402,192,107009,128,0,108676:0:0:0:0:
36,192,107009,1,0,0:0:0:0:
256,192,107343,1,0,0:0:0:0:
109,192,107343,1,0,0:0:0:0:
109,192,107676,1,0,0:0:0:0:
256,192,107676,1,0,0:0:0:0:
182,192,108009,1,0,0:0:0:0:
36,192,108176,1,0,0:0:0:0:
182,192,108343,1,0,0:0:0:0:
329,192,108509,1,0,0:0:0:0:
256,192,108676,1,0,0:0:0:0:
182,192,108676,1,0,0:0:0:0:
36,192,108676,128,0,110009:0:0:0:0:
182,192,109009,1,0,0:0:0:0:
402,192,109009,1,0,0:0:0:0:
182,192,109176,1,0,0:0:0:0:
329,192,109176,1,0,0:0:0:0:
182,192,109509,1,0,0:0:0:0:
329,192,109509,1,0,0:0:0:0:
182,192,109676,1,0,0:0:0:0:
256,192,109676,1,0,0:0:0:0:
475,192,110009,128,0,111343:0:0:0:0:
256,192,110009,1,0,0:0:0:0:
402,192,110009,1,0,0:0:0:0:
256,192,110343,1,0,0:0:0:0:
402,192,110343,1,0,0:0:0:0:
182,192,110676,1,0,0:0:0:0:
36,192,110843,1,0,0:0:0:0:
182,192,111009,1,0,0:0:0:0:
329,192,111176,1,0,0:0:0:0:
256,192,111343,1,0,0:0:0:0:
402,192,111343,1,0,0:0:0:0:
182,192,111343,128,0,112676:0:0:0:0:
36,192,111676,1,0,0:0:0:0:
109,192,111676,1,0,0:0:0:0:
402,192,111843,1,0,0:0:0:0:
475,192,111843,1,0,0:0:0:0:
402,192,112176,1,0,0:0:0:0:
475,192,112176,1,0,0:0:0:0:
36,192,112343,1,0,0:0:0:0:
109,192,112343,1,0,0:0:0:0:
109,192,112676,128,0,114009:0:0:0:0:
402,192,112676,1,0,0:0:0:0:
182,192,113009,1,0,0:0:0:0:
256,192,113009,1,0,0:0:0:0:
475,192,113509,1,0,0:0:0:0:
402,192,113676,1,0,0:0:0:0:
256,192,113843,1,0,0:0:0:0:
182,192,114009,1,0,0:0:0:0:
329,192,114009,1,0,0:0:0:0:
475,192,114009,128,0,115343:0:0:0:0:
402,192,114343,1,0,0:0:0:0:
182,192,114343,1,0,0:0:0:0:
402,192,114509,1,0,0:0:0:0:
109,192,114509,1,0,0:0:0:0:
402,192,114843,1,0,0:0:0:0:
109,192,114843,1,0,0:0:0:0:
402,192,115009,1,0,0:0:0:0:
36,192,115009,1,0,0:0:0:0:
329,192,115343,128,0,116676:0:0:0:0:
256,192,115343,1,0,0:0:0:0:
36,192,115343,1,0,0:0:0:0:
182,192,115676,1,0,0:0:0:0:
475,192,115676,1,0,0:0:0:0:
256,192,116009,1,0,0:0:0:0:
109,192,116176,1,0,0:0:0:0:
256,192,116343,1,0,0:0:0:0:
402,192,116509,1,0,0:0:0:0:
182,192,116676,1,0,0:0:0:0:
36,192,116676,1,0,0:0:0:0:
109,192,117009,1,0,0:0:0:0:
329,192,117009,1,0,0:0:0:0:
475,192,117176,1,0,0:0:0:0:
182,192,117176,1,0,0:0:0:0:
256,192,117509,1,0,0:0:0:0:
475,192,117509,1,0,0:0:0:0:
475,192,117676,1,0,0:0:0:0:
329,192,117676,1,0,0:0:0:0:
109,192,118009,128,0,119343:0:0:0:0:
182,192,118009,1,0,0:0:0:0:
256,192,118009,1,0,0:0:0:0:
182,192,118343,1,0,0:0:0:0:
256,192,118343,1,0,0:0:0:0:
475,192,118676,128,0,118843:0:0:0:0:
402,192,118843,128,0,119009:0:0:0:0:
329,192,119009,128,0,119176:0:0:0:0:
256,192,119176,128,0,119343:0:0:0:0:
402,192,119343,1,0,0:0:0:0:
329,192,119509,1,0,0:0:0:0:
182,192,119593,1,0,0:0:0:0:
109,192,119843,1,0,0:0:0:0:
182,192,119843,1,0,0:0:0:0:
475,192,120176,1,0,0:0:0:0:
329,192,120176,1,0,0:0:0:0:
36,192,120343,1,0,0:0:0:0:
182,192,120343,1,0,0:0:0:0:
329,192,120509,1,0,0:0:0:0:
402,192,120509,1,0,0:0:0:0:
109,192,120676,1,0,0:0:0:0:
256,192,120676,1,0,0:0:0:0:
402,192,120843,1,0,0:0:0:0:
182,192,120926,1,0,0:0:0:0:
329,192,121176,1,0,0:0:0:0:
402,192,121176,1,0,0:0:0:0:
402,192,121509,1,0,0:0:0:0:
109,192,121509,1,0,0:0:0:0:
182,192,121676,1,0,0:0:0:0:
109,192,121843,1,0,0:0:0:0:
402,192,121843,1,0,0:0:0:0:
109,192,122009,1,0,0:0:0:0:
329,192,122009,1,0,0:0:0:0:
182,192,122176,1,0,0:0:0:0:
329,192,122259,1,0,0:0:0:0:
109,192,122509,1,0,0:0:0:0:
182,192,122509,1,0,0:0:0:0:
109,192,122843,1,0,0:0:0:0:
475,192,122843,1,0,0:0:0:0:
329,192,123009,1,0,0:0:0:0:
109,192,123176,1,0,0:0:0:0:
475,192,123176,1,0,0:0:0:0:
182,192,123343,1,0,0:0:0:0:
329,192,123343,1,0,0:0:0:0:
329,192,123509,1,0,0:0:0:0:
256,192,123593,1,0,0:0:0:0:
329,192,123843,1,0,0:0:0:0:
402,192,123843,1,0,0:0:0:0:
36,192,124176,1,0,0:0:0:0:
329,192,124176,1,0,0:0:0:0:
402,192,124343,1,0,0:0:0:0:
36,192,124509,1,0,0:0:0:0:
329,192,124509,1,0,0:0:0:0:
109,192,124676,1,0,0:0:0:0:
402,192,124676,1,0,0:0:0:0:
329,192,124843,1,0,0:0:0:0:
256,192,124926,1,0,0:0:0:0:
109,192,125093,1,0,0:0:0:0:
182,192,125093,1,0,0:0:0:0:
109,192,125509,1,0,0:0:0:0:
402,192,125509,1,0,0:0:0:0:
256,192,125676,1,0,0:0:0:0:
109,192,125843,1,0,0:0:0:0:
402,192,125843,1,0,0:0:0:0:
182,192,126009,1,0,0:0:0:0:
329,192,126009,1,0,0:0:0:0:
109,192,126176,1,0,0:0:0:0:
182,192,126259,1,0,0:0:0:0:
329,192,126509,1,0,0:0:0:0:
402,192,126509,1,0,0:0:0:0:
256,192,126843,1,0,0:0:0:0:
402,192,126843,1,0,0:0:0:0:
256,192,127009,1,0,0:0:0:0:
109,192,127009,1,0,0:0:0:0:
329,192,127176,1,0,0:0:0:0:
475,192,127176,1,0,0:0:0:0:
109,192,127343,1,0,0:0:0:0:
402,192,127343,1,0,0:0:0:0:
402,192,127509,1,0,0:0:0:0:
329,192,127593,1,0,0:0:0:0:
182,192,127759,1,0,0:0:0:0:
109,192,127759,1,0,0:0:0:0:
182,192,128176,1,0,0:0:0:0:
329,192,128176,1,0,0:0:0:0:
109,192,128343,1,0,0:0:0:0:
402,192,128343,1,0,0:0:0:0:
182,192,128509,1,0,0:0:0:0:
329,192,128509,1,0,0:0:0:0:
109,192,128676,1,0,0:0:0:0:
256,192,128676,1,0,0:0:0:0:
36,192,128898,1,0,0:0:0:0:
182,192,128898,1,0,0:0:0:0:
182,192,129121,1,0,0:0:0:0:
109,192,129121,1,0,0:0:0:0:
329,192,129343,1,0,0:0:0:0:
402,192,129343,1,0,0:0:0:0:
109,192,129565,1,0,0:0:0:0:
256,192,129565,1,0,0:0:0:0:
329,192,129787,1,0,0:0:0:0:
182,192,129787,1,0,0:0:0:0:
475,192,130009,128,0,130343:0:0:0:0:
182,192,130009,1,0,0:0:0:0:
329,192,130343,128,0,131343:0:0:0:0:
109,192,130343,1,0,0:0:0:0:
402,192,130343,1,0,0:0:0:0:
36,192,130509,1,0,0:0:0:0:
182,192,130843,1,0,0:0:0:0:
109,192,131009,1,0,0:0:0:0:
182,192,131176,1,0,0:0:0:0:
256,192,131343,1,0,0:0:0:0:
402,192,131343,1,0,0:0:0:0:
329,192,131509,1,0,0:0:0:0:
109,192,131593,1,0,0:0:0:0:
329,192,131843,1,0,0:0:0:0:
402,192,131843,128,0,132009:0:0:0:0:
329,192,132093,1,0,0:0:0:0:
256,192,132176,1,0,0:0:0:0:
109,192,132259,1,0,0:0:0:0:
182,192,132343,1,0,0:0:0:0:
256,192,132426,1,0,0:0:0:0:
329,192,132509,1,0,0:0:0:0:
402,192,132593,1,0,0:0:0:0:
475,192,132676,128,0,134009:0:0:0:0:
329,192,132676,1,0,0:0:0:0:
182,192,132676,1,0,0:0:0:0:
329,192,132843,1,0,0:0:0:0:
109,192,132926,1,0,0:0:0:0:
36,192,133176,1,0,0:0:0:0:
109,192,133176,1,0,0:0:0:0:
402,192,133509,1,0,0:0:0:0:
329,192,133509,1,0,0:0:0:0:
182,192,133676,1,0,0:0:0:0:
402,192,133843,1,0,0:0:0:0:
329,192,133843,1,0,0:0:0:0:
182,192,134009,1,0,0:0:0:0:
329,192,134009,1,0,0:0:0:0:
109,192,134176,1,0,0:0:0:0:
182,192,134259,1,0,0:0:0:0:
329,192,134509,1,0,0:0:0:0:
402,192,134509,1,0,0:0:0:0:
109,192,134843,1,0,0:0:0:0:
402,192,134843,1,0,0:0:0:0:
182,192,135009,1,0,0:0:0:0:
109,192,135176,1,0,0:0:0:0:
402,192,135176,1,0,0:0:0:0:
329,192,135343,128,0,135676:0:0:0:0:
182,192,135343,1,0,0:0:0:0:
402,192,135676,128,0,135843:0:0:0:0:
36,192,135676,1,0,0:0:0:0:
256,192,135843,128,0,136176:0:0:0:0:
475,192,135843,1,0,0:0:0:0:
329,192,136176,128,0,136343:0:0:0:0:
256,192,136343,128,0,136509:0:0:0:0:
402,192,136509,128,0,136676:0:0:0:0:
109,192,136676,1,0,0:0:0:0:
329,192,136676,128,0,136926:0:0:0:0:
402,192,136926,128,0,137176:0:0:0:0:
182,192,136926,1,0,0:0:0:0:
475,192,137176,128,0,137509:0:0:0:0:
36,192,137176,1,0,0:0:0:0:
109,192,137176,1,0,0:0:0:0:
182,192,137509,1,0,0:0:0:0:
329,192,137509,1,0,0:0:0:0:
329,192,137676,1,0,0:0:0:0:
475,192,137676,1,0,0:0:0:0:
256,192,137843,1,0,0:0:0:0:
109,192,137843,1,0,0:0:0:0:
329,192,138009,1,0,0:0:0:0:
475,192,138009,1,0,0:0:0:0:
402,192,138176,1,0,0:0:0:0:
182,192,138259,1,0,0:0:0:0:
329,192,138426,1,0,0:0:0:0:
109,192,138509,1,0,0:0:0:0:
109,192,138676,128,0,138843:0:0:0:0:
475,192,138676,1,0,0:0:0:0:
36,192,138843,128,0,139009:0:0:0:0:
402,192,138843,1,0,0:0:0:0:
109,192,139009,128,0,139176:0:0:0:0:
329,192,139009,1,0,0:0:0:0:
182,192,139176,128,0,139343:0:0:0:0:
402,192,139176,1,0,0:0:0:0:
109,192,139343,128,0,139676:0:0:0:0:
329,192,139343,1,0,0:0:0:0:
402,192,139676,128,0,139843:0:0:0:0:
182,192,139843,128,0,140176:0:0:0:0:
475,192,140176,1,0,0:0:0:0:
402,192,140176,1,0,0:0:0:0:
329,192,140343,1,0,0:0:0:0:
256,192,140343,1,0,0:0:0:0:
475,192,140509,1,0,0:0:0:0:
402,192,140509,1,0,0:0:0:0:
256,192,140676,128,0,141176:0:0:0:0:
182,192,140676,1,0,0:0:0:0:
329,192,140676,1,0,0:0:0:0:
402,192,140843,1,0,0:0:0:0:
109,192,140926,1,0,0:0:0:0:
329,192,141176,128,0,141676:0:0:0:0:
36,192,141176,1,0,0:0:0:0:
109,192,141509,1,0,0:0:0:0:
36,192,141676,1,0,0:0:0:0:
402,192,141676,1,0,0:0:0:0:
475,192,141676,1,0,0:0:0:0:
109,192,141843,1,0,0:0:0:0:
256,192,142009,1,0,0:0:0:0:
329,192,142009,1,0,0:0:0:0:
329,192,142259,1,0,0:0:0:0:
402,192,142259,1,0,0:0:0:0:
402,192,142509,1,0,0:0:0:0:
475,192,142509,1,0,0:0:0:0:
182,192,142509,1,0,0:0:0:0:
256,192,142843,1,0,0:0:0:0:
402,192,142843,1,0,0:0:0:0:
329,192,143009,1,0,0:0:0:0:
475,192,143009,1,0,0:0:0:0:
256,192,143176,1,0,0:0:0:0:
402,192,143176,1,0,0:0:0:0:
329,192,143343,1,0,0:0:0:0:
402,192,143343,1,0,0:0:0:0:
256,192,143426,1,0,0:0:0:0:
109,192,143509,1,0,0:0:0:0:
182,192,143593,1,0,0:0:0:0:
36,192,143843,1,0,0:0:0:0:
109,192,143843,1,0,0:0:0:0:
329,192,144009,1,0,0:0:0:0:
109,192,144093,1,0,0:0:0:0:
402,192,144259,1,0,0:0:0:0:
182,192,144343,1,0,0:0:0:0:
402,192,144509,1,0,0:0:0:0:
109,192,144676,1,0,0:0:0:0:
256,192,144926,1,0,0:0:0:0:
329,192,145176,1,0,0:0:0:0:
402,192,145509,1,0,0:0:0:0:
475,192,145509,1,0,0:0:0:0:
329,192,145843,1,0,0:0:0:0:
109,192,145926,1,0,0:0:0:0:
402,192,146009,1,4,0:0:0:0:
182,192,146009,1,0,0:0:0:0:
182,192,146259,1,0,0:0:0:0:
329,192,146259,1,0,0:0:0:0:
109,192,146509,1,0,0:0:0:0:
36,192,146509,1,0,0:0:0:0:
329,192,146843,1,0,0:0:0:0:
475,192,146843,1,0,0:0:0:0:
36,192,147009,1,0,0:0:0:0:
182,192,147009,1,0,0:0:0:0:
329,192,147176,1,0,0:0:0:0:
475,192,147176,1,0,0:0:0:0:
329,192,147343,1,0,0:0:0:0:
182,192,147426,1,0,0:0:0:0:
329,192,147509,1,0,0:0:0:0:
182,192,147593,1,0,0:0:0:0:
475,192,147759,1,0,0:0:0:0:
182,192,147843,1,0,0:0:0:0:
109,192,148009,1,0,0:0:0:0:
182,192,148176,1,0,0:0:0:0:
402,192,148259,1,0,0:0:0:0:
329,192,148426,1,0,0:0:0:0:
109,192,148509,1,0,0:0:0:0:
109,192,148676,1,0,0:0:0:0:
329,192,148676,1,0,0:0:0:0:
182,192,148759,1,0,0:0:0:0:
109,192,148843,1,0,0:0:0:0:
182,192,148926,1,0,0:0:0:0:
329,192,149009,1,0,0:0:0:0:
475,192,149009,1,0,0:0:0:0:
182,192,149176,1,0,0:0:0:0:
256,192,149176,1,0,0:0:0:0:
402,192,149343,1,0,0:0:0:0:
329,192,149343,1,0,0:0:0:0:
475,192,149509,1,0,0:0:0:0:
402,192,149676,1,0,0:0:0:0:
182,192,149759,1,0,0:0:0:0:
402,192,149926,128,0,150176:0:0:0:0:
329,192,150176,1,0,0:0:0:0:
109,192,150259,1,0,0:0:0:0:
329,192,150426,1,0,0:0:0:0:
402,192,150426,1,0,0:0:0:0:
256,192,150593,1,0,0:0:0:0:
109,192,150676,1,0,0:0:0:0:
256,192,150843,1,0,0:0:0:0:
182,192,151009,1,0,0:0:0:0:
109,192,151176,1,0,0:0:0:0:
182,192,151343,1,0,0:0:0:0:
329,192,151343,1,0,0:0:0:0:
109,192,151343,128,0,152009:0:0:0:0:
182,192,151676,1,0,0:0:0:0:
182,192,152009,128,0,152676:0:0:0:0:
402,192,152009,1,0,0:0:0:0:
329,192,152343,1,0,0:0:0:0:
256,192,152676,128,0,153009:0:0:0:0:
475,192,152676,1,0,0:0:0:0:
329,192,153009,1,0,0:0:0:0:
475,192,153176,1,0,0:0:0:0:
402,192,153259,1,0,0:0:0:0:
329,192,153343,1,0,0:0:0:0:
182,192,153343,1,0,0:0:0:0:
36,192,153509,1,0,0:0:0:0:
109,192,153676,1,0,0:0:0:0:
182,192,153843,1,0,0:0:0:0:
329,192,154009,128,0,154343:0:0:0:0:
109,192,154176,1,0,0:0:0:0:
256,192,154343,1,0,0:0:0:0:
402,192,154509,1,0,0:0:0:0:
329,192,154593,1,0,0:0:0:0:
256,192,154676,1,0,0:0:0:0:
109,192,154676,1,0,0:0:0:0:
475,192,154843,1,0,0:0:0:0:
402,192,155009,1,0,0:0:0:0:
329,192,155176,1,0,0:0:0:0:
182,192,155343,128,0,156343:0:0:0:0:
402,192,155343,1,0,0:0:0:0:
36,192,155509,1,0,0:0:0:0:
256,192,155676,1,0,0:0:0:0:
109,192,155843,1,0,0:0:0:0:
329,192,156009,1,0,0:0:0:0:
256,192,156176,1,0,0:0:0:0:
475,192,156343,1,0,0:0:0:0:
182,192,156676,1,0,0:0:0:0:
329,192,156676,1,0,0:0:0:0:
36,192,157009,1,0,0:0:0:0:
256,192,157343,1,0,0:0:0:0:
402,192,157343,1,0,0:0:0:0:
36,192,157676,1,0,0:0:0:0:
36,192,158009,1,0,0:0:0:0:
109,192,158259,1,0,0:0:0:0:
36,192,158509,1,0,0:0:0:0:
109,192,158676,1,0,0:0:0:0:
182,192,158926,1,0,0:0:0:0:
256,192,159176,1,0,0:0:0:0:
182,192,159343,128,0,160343:0:0:0:0:
402,192,159343,1,0,0:0:0:0:
109,192,159509,1,0,0:0:0:0:
329,192,159676,1,0,0:0:0:0:
36,192,159843,1,0,0:0:0:0:
402,192,160009,1,0,0:0:0:0:
109,192,160176,1,0,0:0:0:0:
256,192,160343,1,0,0:0:0:0:
36,192,160509,1,0,0:0:0:0:
182,192,160593,1,0,0:0:0:0:
329,192,160676,128,0,161343:0:0:0:0:
475,192,160676,128,0,161343:0:0:0:0:
256,192,160676,1,0,0:0:0:0:
109,192,160843,1,0,0:0:0:0:
256,192,161009,1,0,0:0:0:0:
109,192,161176,1,0,0:0:0:0:
256,192,161343,1,0,0:0:0:0:
109,192,161676,1,0,0:0:0:0:
182,192,161759,1,0,0:0:0:0:
256,192,161843,1,0,0:0:0:0:
329,192,161926,1,0,0:0:0:0:
402,192,162009,1,0,0:0:0:0:
182,192,162009,1,0,0:0:0:0:
109,192,162009,1,0,0:0:0:0:
109,192,162509,1,0,0:0:0:0:
256,192,162509,1,0,0:0:0:0:
329,192,162593,1,0,0:0:0:0:
402,192,162676,1,0,0:0:0:0:
256,192,162843,1,0,0:0:0:0:
402,192,162843,1,0,0:0:0:0:
182,192,163176,1,0,0:0:0:0:
475,192,163343,1,0,0:0:0:0:
329,192,163343,1,0,0:0:0:0:
402,192,163593,1,0,0:0:0:0:
256,192,163593,1,0,0:0:0:0:
329,192,163843,1,0,0:0:0:0:
182,192,163843,1,0,0:0:0:0:
402,192,164093,1,0,0:0:0:0:
256,192,164093,1,0,0:0:0:0:
329,192,164343,1,0,0:0:0:0:
256,192,164509,1,0,0:0:0:0:
36,192,164676,1,0,0:0:0:0:
182,192,164676,1,0,0:0:0:0:
109,192,164926,1,0,0:0:0:0:
256,192,164926,1,0,0:0:0:0:
329,192,165176,1,0,0:0:0:0:
402,192,165343,1,0,0:0:0:0:
475,192,165509,1,0,0:0:0:0:
402,192,165676,1,0,0:0:0:0:
109,192,165843,1,0,0:0:0:0:
256,192,165843,1,0,0:0:0:0:
36,192,166009,1,0,0:0:0:0:
182,192,166009,1,0,0:0:0:0:
109,192,166259,1,0,0:0:0:0:
256,192,166259,1,0,0:0:0:0:
329,192,166509,1,0,0:0:0:0:
402,192,166676,1,0,0:0:0:0:
329,192,167009,1,0,0:0:0:0:
475,192,167009,1,0,0:0:0:0:
36,192,167343,128,0,167593:0:0:0:0:
182,192,167593,128,0,167843:0:0:0:0:
402,192,167593,1,0,0:0:0:0:
109,192,167843,128,0,168009:0:0:0:0:
329,192,167843,1,0,0:0:0:0:
182,192,168009,128,0,168259:0:0:0:0:
475,192,168009,1,0,0:0:0:0:
256,192,168259,128,0,168509:0:0:0:0:
109,192,168259,1,0,0:0:0:0:
329,192,168509,128,0,168676:0:0:0:0:
36,192,168509,1,0,0:0:0:0:
475,192,168676,128,0,168926:0:0:0:0:
182,192,168676,1,0,0:0:0:0:
402,192,168926,128,0,169176:0:0:0:0:
109,192,168926,1,0,0:0:0:0:
329,192,169176,128,0,169343:0:0:0:0:
182,192,169176,1,0,0:0:0:0:
256,192,169343,128,0,169593:0:0:0:0:
475,192,169343,1,0,0:0:0:0:
329,192,169593,128,0,169843:0:0:0:0:
109,192,169593,1,0,0:0:0:0:
182,192,169843,128,0,170009:0:0:0:0:
475,192,169843,1,0,0:0:0:0:
36,192,170009,128,0,171009:0:0:0:0:
109,192,170009,128,0,171009:0:0:0:0:
329,192,170009,1,0,0:0:0:0:
182,192,170176,1,0,0:0:0:0:
402,192,170343,1,0,0:0:0:0:
182,192,170509,1,0,0:0:0:0:
329,192,170676,1,0,0:0:0:0:
182,192,170843,1,0,0:0:0:0:
402,192,171009,1,0,0:0:0:0:
475,192,171176,1,0,0:0:0:0:
329,192,171259,1,0,0:0:0:0:
36,192,171343,128,0,172676:0:0:0:0:
182,192,171343,1,0,0:0:0:0:
182,192,171509,1,0,0:0:0:0:
402,192,171676,1,0,0:0:0:0:
182,192,171843,1,0,0:0:0:0:
475,192,172009,1,0,0:0:0:0:
256,192,172009,1,0,0:0:0:0:
109,192,172343,1,0,0:0:0:0:
182,192,172343,1,0,0:0:0:0:
256,192,172676,128,0,173676:0:0:0:0:
182,192,172676,1,0,0:0:0:0:
109,192,172843,1,0,0:0:0:0:
182,192,173009,1,0,0:0:0:0:
402,192,173176,1,0,0:0:0:0:
182,192,173343,1,0,0:0:0:0:
109,192,173509,1,0,0:0:0:0:
182,192,173676,1,0,0:0:0:0:
402,192,173843,1,0,0:0:0:0:
109,192,173843,1,0,0:0:0:0:
329,192,173926,1,0,0:0:0:0:
182,192,174009,1,0,0:0:0:0:
182,192,174176,1,0,0:0:0:0:
402,192,174343,1,0,0:0:0:0:
329,192,174509,1,0,0:0:0:0:
109,192,174676,1,0,0:0:0:0:
182,192,174676,1,0,0:0:0:0:
475,192,174843,1,0,0:0:0:0:
329,192,175009,1,0,0:0:0:0:
109,192,175176,1,0,0:0:0:0:
256,192,175343,128,0,175593:0:0:0:0:
182,192,175593,128,0,175843:0:0:0:0:
402,192,175593,1,0,0:0:0:0:
109,192,175843,128,0,176009:0:0:0:0:
329,192,175843,1,0,0:0:0:0:
182,192,176009,128,0,176259:0:0:0:0:
402,192,176009,1,0,0:0:0:0:
329,192,176259,128,0,176509:0:0:0:0:
36,192,176259,1,0,0:0:0:0:
182,192,176509,128,0,176676:0:0:0:0:
402,192,176509,1,0,0:0:0:0:
256,192,176676,128,0,176926:0:0:0:0:
36,192,176676,1,0,0:0:0:0:
182,192,176926,128,0,177176:0:0:0:0:
475,192,176926,1,0,0:0:0:0:
109,192,177176,128,0,177343:0:0:0:0:
402,192,177176,1,0,0:0:0:0:
36,192,177343,128,0,177676:0:0:0:0:
329,192,177343,1,0,0:0:0:0:
402,192,177843,1,0,0:0:0:0:
329,192,177843,1,0,0:0:0:0:
475,192,178009,128,0,179009:0:0:0:0:
329,192,178009,1,0,0:0:0:0:
182,192,178176,1,0,0:0:0:0:
329,192,178343,1,0,0:0:0:0:
182,192,178509,1,0,0:0:0:0:
329,192,178676,1,0,0:0:0:0:
182,192,178843,1,0,0:0:0:0:
329,192,179009,1,0,0:0:0:0:
475,192,179176,1,0,0:0:0:0:
329,192,179259,1,0,0:0:0:0:
182,192,179343,128,0,179676:0:0:0:0:
256,192,179509,1,0,0:0:0:0:
329,192,179676,1,0,0:0:0:0:
475,192,179676,1,0,0:0:0:0:
109,192,180009,1,0,0:0:0:0:
182,192,180009,1,0,0:0:0:0:
329,192,180259,1,0,0:0:0:0:
402,192,180259,1,0,0:0:0:0:
109,192,180509,1,0,0:0:0:0:
182,192,180509,1,0,0:0:0:0:
475,192,180676,1,0,0:0:0:0:
329,192,180676,1,0,0:0:0:0:
36,192,180926,1,0,0:0:0:0:
329,192,181176,1,0,0:0:0:0:
475,192,181176,1,0,0:0:0:0:
36,192,181426,1,0,0:0:0:0:
329,192,181676,1,0,0:0:0:0:
402,192,181676,1,0,0:0:0:0:
256,192,181843,1,0,0:0:0:0:
109,192,182009,1,0,0:0:0:0:
256,192,182009,1,0,0:0:0:0:
182,192,182259,1,0,0:0:0:0:
329,192,182259,1,0,0:0:0:0:
256,192,182509,1,0,0:0:0:0:
402,192,182509,1,0,0:0:0:0:
329,192,182759,1,0,0:0:0:0:
475,192,182759,1,0,0:0:0:0:
402,192,183009,1,0,0:0:0:0:
475,192,183176,1,0,0:0:0:0:
402,192,183343,128,0,184343:0:0:0:0:
182,192,183343,1,0,0:0:0:0:
256,192,183509,1,0,0:0:0:0:
182,192,183593,1,0,0:0:0:0:
109,192,183676,1,0,0:0:0:0:
36,192,183843,1,0,0:0:0:0:
256,192,184343,1,0,0:0:0:0:
475,192,184509,1,0,0:0:0:0:
402,192,184676,128,0,184926:0:0:0:0:
256,192,184676,1,0,0:0:0:0:
329,192,184926,128,0,185176:0:0:0:0:
182,192,184926,1,0,0:0:0:0:
256,192,185176,128,0,185509:0:0:0:0:
109,192,185176,1,0,0:0:0:0:
329,192,185509,1,0,0:0:0:0:
402,192,185676,1,0,0:0:0:0:
475,192,185843,1,0,0:0:0:0:
402,192,186009,128,0,187009:0:0:0:0:
256,192,186009,1,0,0:0:0:0:
256,192,186176,1,0,0:0:0:0:
182,192,186259,1,0,0:0:0:0:
36,192,186343,1,0,0:0:0:0:
182,192,186509,1,0,0:0:0:0:
329,192,187009,1,0,0:0:0:0:
182,192,187176,1,0,0:0:0:0:
329,192,187343,128,0,187593:0:0:0:0:
475,192,187593,128,0,187843:0:0:0:0:
182,192,187593,1,0,0:0:0:0:
402,192,187843,128,0,188176:0:0:0:0:
109,192,187843,1,0,0:0:0:0:
329,192,188176,128,0,188509:0:0:0:0:
36,192,188176,1,0,0:0:0:0:
36,192,188509,1,0,0:0:0:0:
182,192,188593,1,0,0:0:0:0:
329,192,188676,1,0,0:0:0:0:
475,192,188676,1,0,0:0:0:0:
182,192,188926,1,0,0:0:0:0:
329,192,188926,1,0,0:0:0:0:
109,192,189176,1,0,0:0:0:0:
36,192,189176,1,0,0:0:0:0:
329,192,189509,1,0,0:0:0:0:
475,192,189509,1,0,0:0:0:0:
182,192,189676,1,0,0:0:0:0:
36,192,189676,1,0,0:0:0:0:
329,192,189843,1,0,0:0:0:0:
182,192,189843,1,0,0:0:0:0:
475,192,190009,1,0,0:0:0:0:
402,192,190093,1,0,0:0:0:0:
329,192,190176,1,0,0:0:0:0:
109,192,190259,1,0,0:0:0:0:
182,192,190259,1,0,0:0:0:0:
475,192,190426,1,0,0:0:0:0:
182,192,190509,1,0,0:0:0:0:
109,192,190676,1,0,0:0:0:0:
182,192,190843,1,0,0:0:0:0:
402,192,190926,1,0,0:0:0:0:
329,192,191093,1,0,0:0:0:0:
109,192,191176,1,0,0:0:0:0:
329,192,191343,1,0,0:0:0:0:
36,192,191343,1,0,0:0:0:0:
182,192,191426,1,0,0:0:0:0:
36,192,191509,1,0,0:0:0:0:
182,192,191593,1,0,0:0:0:0:
475,192,191676,1,0,0:0:0:0:
329,192,191676,1,0,0:0:0:0:
182,192,191843,1,0,0:0:0:0:
256,192,191843,1,0,0:0:0:0:
329,192,192009,1,0,0:0:0:0:
402,192,192009,1,0,0:0:0:0:
475,192,192176,1,0,0:0:0:0:
256,192,192343,1,0,0:0:0:0:
182,192,192426,1,0,0:0:0:0:
402,192,192593,128,0,192843:0:0:0:0:
182,192,192843,1,0,0:0:0:0:
109,192,192926,1,0,0:0:0:0:
329,192,193093,1,0,0:0:0:0:
402,192,193093,1,0,0:0:0:0:
256,192,193259,1,0,0:0:0:0:
182,192,193343,1,0,0:0:0:0:
329,192,193509,1,0,0:0:0:0:
256,192,193676,1,0,0:0:0:0:
109,192,193843,1,0,0:0:0:0:
109,192,194009,128,0,194676:0:0:0:0:
182,192,194009,1,0,0:0:0:0:
329,192,194009,1,0,0:0:0:0:
182,192,194343,1,0,0:0:0:0:
182,192,194676,128,0,195343:0:0:0:0:
402,192,194676,1,0,0:0:0:0:
256,192,195009,1,0,0:0:0:0:
475,192,195343,1,0,0:0:0:0:
256,192,195343,128,0,195676:0:0:0:0:
329,192,195676,1,0,0:0:0:0:
475,192,195843,1,0,0:0:0:0:
402,192,195926,1,0,0:0:0:0:
329,192,196009,1,0,0:0:0:0:
182,192,196009,1,0,0:0:0:0:
36,192,196176,1,0,0:0:0:0:
109,192,196343,1,0,0:0:0:0:
182,192,196509,1,0,0:0:0:0:
329,192,196676,128,0,197009:0:0:0:0:
109,192,196843,1,0,0:0:0:0:
256,192,197009,1,0,0:0:0:0:
402,192,197176,1,0,0:0:0:0:
329,192,197259,1,0,0:0:0:0:
109,192,197343,1,0,0:0:0:0:
256,192,197343,1,0,0:0:0:0:
475,192,197509,1,0,0:0:0:0:
402,192,197676,1,0,0:0:0:0:
329,192,197843,1,0,0:0:0:0:
182,192,198009,128,0,199009:0:0:0:0:
402,192,198009,1,0,0:0:0:0:
36,192,198176,1,0,0:0:0:0:
256,192,198343,1,0,0:0:0:0:
109,192,198509,1,0,0:0:0:0:
329,192,198676,1,0,0:0:0:0:
256,192,198843,1,0,0:0:0:0:
475,192,199009,1,0,0:0:0:0:
182,192,199343,1,0,0:0:0:0:
329,192,199343,1,0,0:0:0:0:
36,192,199676,1,0,0:0:0:0:
402,192,200009,1,0,0:0:0:0:
256,192,200009,1,0,0:0:0:0:
36,192,200343,1,0,0:0:0:0:
36,192,200676,1,0,0:0:0:0:
109,192,200926,1,0,0:0:0:0:
36,192,201176,1,0,0:0:0:0:
109,192,201343,1,0,0:0:0:0:
182,192,201593,1,0,0:0:0:0:
256,192,201843,1,0,0:0:0:0:
182,192,202009,128,0,203009:0:0:0:0:
402,192,202009,1,0,0:0:0:0:
109,192,202176,1,0,0:0:0:0:
329,192,202343,1,0,0:0:0:0:
36,192,202509,1,0,0:0:0:0:
402,192,202676,1,0,0:0:0:0:
109,192,202843,1,0,0:0:0:0:
256,192,203009,1,0,0:0:0:0:
36,192,203176,1,0,0:0:0:0:
182,192,203259,1,0,0:0:0:0:
475,192,203343,128,0,204009:0:0:0:0:
329,192,203343,128,0,204009:0:0:0:0:
256,192,203343,1,0,0:0:0:0:
109,192,203509,1,0,0:0:0:0:
256,192,203676,1,0,0:0:0:0:
109,192,203843,1,0,0:0:0:0:
256,192,204009,1,0,0:0:0:0:
109,192,204343,1,0,0:0:0:0:
182,192,204426,1,0,0:0:0:0:
256,192,204509,1,0,0:0:0:0:
329,192,204593,1,0,0:0:0:0:
182,192,204676,1,0,0:0:0:0:
109,192,204676,1,0,0:0:0:0:
402,192,204676,1,0,0:0:0:0:
109,192,205176,1,0,0:0:0:0:
256,192,205176,1,0,0:0:0:0:
329,192,205259,1,0,0:0:0:0:
402,192,205343,1,0,0:0:0:0:
402,192,205593,1,0,0:0:0:0:
256,192,205593,1,0,0:0:0:0:
182,192,205843,1,0,0:0:0:0:
475,192,206009,1,0,0:0:0:0:
402,192,206259,1,0,0:0:0:0:
329,192,206509,1,0,0:0:0:0:
182,192,206509,1,0,0:0:0:0:
402,192,206759,1,0,0:0:0:0:
256,192,206759,1,0,0:0:0:0:
329,192,207009,1,0,0:0:0:0:
256,192,207176,1,0,0:0:0:0:
36,192,207343,1,0,0:0:0:0:
182,192,207343,1,0,0:0:0:0:
109,192,207593,1,0,0:0:0:0:
256,192,207593,1,0,0:0:0:0:
329,192,207843,1,0,0:0:0:0:
402,192,208009,1,0,0:0:0:0:
475,192,208176,1,0,0:0:0:0:
402,192,208343,1,0,0:0:0:0:
256,192,208509,1,0,0:0:0:0:
109,192,208509,1,0,0:0:0:0:
182,192,208676,1,0,0:0:0:0:
36,192,208676,1,0,0:0:0:0:
256,192,208926,1,0,0:0:0:0:
109,192,208926,1,0,0:0:0:0:
329,192,209176,1,0,0:0:0:0:
402,192,209343,1,0,0:0:0:0:
475,192,209676,1,0,0:0:0:0:
329,192,209676,1,0,0:0:0:0:
36,192,210009,128,0,210259:0:0:0:0:
182,192,210259,128,0,210509:0:0:0:0:
402,192,210259,1,0,0:0:0:0:
109,192,210509,128,0,210676:0:0:0:0:
329,192,210509,1,0,0:0:0:0:
182,192,210676,128,0,210926:0:0:0:0:
402,192,210676,1,0,0:0:0:0:
109,192,210926,1,0,0:0:0:0:
256,192,210926,128,0,211176:0:0:0:0:
329,192,211176,128,0,211343:0:0:0:0:
36,192,211176,1,0,0:0:0:0:
475,192,211343,128,0,211593:0:0:0:0:
182,192,211343,1,0,0:0:0:0:
402,192,211593,128,0,211843:0:0:0:0:
109,192,211593,1,0,0:0:0:0:
329,192,211843,128,0,212009:0:0:0:0:
36,192,211843,1,0,0:0:0:0:
182,192,212009,128,0,212343:0:0:0:0:
475,192,212009,1,0,0:0:0:0:
402,192,212343,128,0,212676:0:0:0:0:
109,192,212343,1,0,0:0:0:0:
329,192,212676,128,0,213676:0:0:0:0:
36,192,212676,1,0,0:0:0:0:
256,192,213009,1,0,0:0:0:0:
109,192,213343,1,0,0:0:0:0:
256,192,213676,1,0,0:0:0:0:
475,192,213843,1,0,0:0:0:0:
402,192,213926,1,0,0:0:0:0:
329,192,214009,1,0,0:0:0:0:
182,192,214343,1,0,0:0:0:0:
329,192,214676,1,0,0:0:0:0:
182,192,215009,1,0,0:0:0:0:
109,192,215343,1,0,0:0:0:0:
256,192,215343,1,0,0:0:0:0:
402,192,215343,1,0,0:0:0:0:
36,192,215676,1,0,0:0:0:0:
109,192,215843,1,0,0:0:0:0:
109,192,216176,1,0,0:0:0:0:
182,192,216343,1,0,0:0:0:0:
329,192,216509,1,0,0:0:0:0:
475,192,216676,1,0,0:0:0:0:
182,192,216676,1,0,0:0:0:0:
402,192,216843,1,0,0:0:0:0:
329,192,217009,1,0,0:0:0:0:
256,192,217176,1,0,0:0:0:0:
109,192,217176,1,0,0:0:0:0:
329,192,217509,1,0,0:0:0:0:
182,192,217676,1,0,0:0:0:0:
36,192,218009,1,0,0:0:0:0:
182,192,218509,1,0,0:0:0:0:
329,192,218509,1,0,0:0:0:0:
475,192,218843,1,0,0:0:0:0:
402,192,219009,1,0,0:0:0:0:
475,192,219509,1,0,0:0:0:0:
475,192,219676,1,0,0:0:0:0:
402,192,219843,1,0,0:0:0:0:
329,192,220009,1,0,0:0:0:0:
256,192,220176,1,0,0:0:0:0:
182,192,220343,1,0,0:0:0:0:
109,192,220509,1,0,0:0:0:0:
36,192,220676,1,0,0:0:0:0:
182,192,220676,1,0,0:0:0:0:
329,192,220676,1,0,0:0:0:0:
402,192,221176,1,0,0:0:0:0:
256,192,221176,1,0,0:0:0:0:
109,192,221176,1,0,0:0:0:0:
329,192,221509,1,0,0:0:0:0:
475,192,221676,1,0,0:0:0:0:
329,192,222009,1,0,0:0:0:0:
182,192,222009,1,0,0:0:0:0:
36,192,222009,1,0,0:0:0:0:
109,192,222509,1,0,0:0:0:0:
256,192,222509,1,0,0:0:0:0:
402,192,222509,1,0,0:0:0:0:
109,192,222843,1,0,0:0:0:0:
182,192,223009,1,0,0:0:0:0:
329,192,223009,1,0,0:0:0:0:
475,192,223009,1,0,0:0:0:0:
109,192,223343,1,0,0:0:0:0:
256,192,223343,1,0,0:0:0:0:
402,192,223343,1,0,0:0:0:0:
36,192,223509,1,0,0:0:0:0:
109,192,223676,1,0,0:0:0:0:
182,192,223843,1,0,0:0:0:0:
256,192,224009,1,0,0:0:0:0:
329,192,224176,1,0,0:0:0:0:
256,192,224343,1,0,0:0:0:0:
36,192,224343,1,0,0:0:0:0:
109,192,224509,1,0,0:0:0:0:
402,192,224509,1,0,0:0:0:0:
109,192,224676,1,0,0:0:0:0:
256,192,224676,1,0,0:0:0:0:
256,192,224843,1,0,0:0:0:0:
256,192,225009,1,0,0:0:0:0:
402,192,225176,1,0,0:0:0:0:
402,192,225343,1,0,0:0:0:0:
402,192,225509,1,0,0:0:0:0:
182,192,225676,1,0,0:0:0:0:
402,192,225676,1,0,0:0:0:0:
329,192,226009,1,0,0:0:0:0:
475,192,226009,1,0,0:0:0:0:
36,192,226009,128,0,226676:0:0:0:0:
182,192,226009,128,0,226676:0:0:0:0:
329,192,226843,1,0,0:0:0:0:
475,192,226843,1,0,0:0:0:0:
109,192,227009,1,0,0:0:0:0:
182,192,227176,1,0,0:0:0:0:
256,192,227343,1,0,0:0:0:0:
402,192,227343,128,0,227676:0:0:0:0:
256,192,227676,1,0,0:0:0:0:
182,192,227843,128,0,228176:0:0:0:0:
109,192,228176,128,0,228676:0:0:0:0:
475,192,228176,1,0,0:0:0:0:
329,192,228343,1,0,0:0:0:0:
475,192,228509,1,0,0:0:0:0:
182,192,228676,128,0,230009:0:0:0:0:
329,192,228676,1,0,0:0:0:0:
36,192,228843,1,0,0:0:0:0:
109,192,229009,1,0,0:0:0:0:
256,192,229176,1,0,0:0:0:0:
329,192,229343,1,0,0:0:0:0:
256,192,229509,5,0,0:0:0:0:
402,192,229676,1,0,0:0:0:0:
402,192,230009,128,0,230676:0:0:0:0:
182,192,230176,1,0,0:0:0:0:
36,192,230343,1,0,0:0:0:0:
182,192,230509,1,0,0:0:0:0:
329,192,230676,128,0,231009:0:0:0:0:
36,192,230676,1,0,0:0:0:0:
475,192,231009,128,0,232676:0:0:0:0:
109,192,231009,1,0,0:0:0:0:
329,192,231343,1,0,0:0:0:0:
182,192,231509,1,0,0:0:0:0:
402,192,231676,1,0,0:0:0:0:
109,192,231843,1,0,0:0:0:0:
329,192,232009,1,0,0:0:0:0:
182,192,232176,1,0,0:0:0:0:
402,192,232343,1,0,0:0:0:0:
109,192,232509,1,0,0:0:0:0:
182,192,232676,1,0,0:0:0:0:
329,192,232676,128,0,233343:0:0:0:0:
402,192,232676,1,0,0:0:0:0:
36,192,232843,1,0,0:0:0:0:
182,192,233009,1,0,0:0:0:0:
36,192,233176,1,0,0:0:0:0:
182,192,233343,128,0,234009:0:0:0:0:
475,192,233343,1,0,0:0:0:0:
329,192,233509,1,0,0:0:0:0:
475,192,233676,1,0,0:0:0:0:
329,192,233843,1,0,0:0:0:0:
36,192,234009,128,0,234343:0:0:0:0:
182,192,234343,1,0,0:0:0:0:
329,192,234509,1,0,0:0:0:0:
182,192,234843,128,0,235343:0:0:0:0:
475,192,235343,128,0,235843:0:0:0:0:
329,192,235343,1,0,0:0:0:0:
329,192,235843,1,0,0:0:0:0:
182,192,235926,1,0,0:0:0:0:
329,192,236009,1,0,0:0:0:0:
329,192,236676,1,0,0:0:0:0:
402,192,236759,1,0,0:0:0:0:
475,192,236843,1,0,0:0:0:0:
402,192,236926,1,0,0:0:0:0:
329,192,237009,1,0,0:0:0:0:
256,192,237093,1,0,0:0:0:0:
182,192,237176,1,0,0:0:0:0:
109,192,237259,1,0,0:0:0:0:
36,192,237343,1,0,0:0:0:0:
182,192,237509,1,0,0:0:0:0:
36,192,237676,1,0,0:0:0:0:
182,192,237843,1,0,0:0:0:0:
402,192,238009,128,0,238343:0:0:0:0:
329,192,238343,1,0,0:0:0:0:
182,192,238509,1,0,0:0:0:0:
36,192,238843,1,0,0:0:0:0:
182,192,239176,128,0,240676:0:0:0:0:
475,192,239343,1,0,0:0:0:0:
402,192,239426,1,0,0:0:0:0:
329,192,239509,1,0,0:0:0:0:
256,192,239593,1,0,0:0:0:0:
109,192,239676,1,0,0:0:0:0:
329,192,239759,1,0,0:0:0:0:
402,192,239843,1,0,0:0:0:0:
475,192,239926,1,0,0:0:0:0:
329,192,240259,1,0,0:0:0:0:
402,192,240509,1,0,0:0:0:0:
475,192,240676,1,0,0:0:0:0:
329,192,240676,128,0,241343:0:0:0:0:
36,192,240843,1,0,0:0:0:0:
182,192,241009,1,0,0:0:0:0:
36,192,241176,1,0,0:0:0:0:
256,192,241343,128,0,241676:0:0:0:0:
402,192,241676,128,0,242676:0:0:0:0:
109,192,241676,1,0,0:0:0:0:
109,192,242009,1,0,0:0:0:0:
36,192,242176,1,0,0:0:0:0:
329,192,242343,1,0,0:0:0:0:
182,192,242509,1,0,0:0:0:0:
36,192,242676,1,0,0:0:0:0:
182,192,242676,1,0,0:0:0:0:
329,192,242676,1,0,0:0:0:0:
475,192,243009,1,0,0:0:0:0:
182,192,243009,1,0,0:0:0:0:
329,192,243009,1,0,0:0:0:0:
475,192,243343,128,0,243676:0:0:0:0:
109,192,243676,1,0,0:0:0:0:
256,192,243676,1,0,0:0:0:0:
402,192,243676,1,0,0:0:0:0:
182,192,244009,1,0,0:0:0:0:
329,192,244009,1,0,0:0:0:0:
36,192,244009,1,0,0:0:0:0:
329,192,244343,1,0,0:0:0:0:
475,192,244343,1,0,0:0:0:0:
182,192,244343,1,0,0:0:0:0:
256,192,244676,128,0,245343:0:0:0:0:
402,192,244676,128,0,245343:0:0:0:0:
109,192,245676,1,0,0:0:0:0:
256,192,245843,1,0,0:0:0:0:
402,192,246009,128,0,246676:0:0:0:0:
109,192,246676,1,0,0:0:0:0:
329,192,246676,1,0,0:0:0:0:
402,192,247009,1,0,0:0:0:0:
329,192,247093,1,0,0:0:0:0:
182,192,247176,1,0,0:0:0:0:
109,192,247259,1,0,0:0:0:0:
256,192,247343,128,0,252676:0:0:0:0:
36,192,258176,5,0,0:0:0:0:
182,192,258343,1,0,0:0:0:0:
109,192,258509,1,0,0:0:0:0:
36,192,258676,1,0,0:0:0:0:
109,192,258843,1,0,0:0:0:0:
36,192,259009,1,0,0:0:0:0:
109,192,259176,1,0,0:0:0:0:
182,192,259343,1,0,0:0:0:0:
329,192,259343,1,0,0:0:0:0:
329,192,259676,1,0,0:0:0:0:
256,192,259843,1,0,0:0:0:0:
109,192,260009,1,0,0:0:0:0:
182,192,260176,1,0,0:0:0:0:
36,192,260343,1,0,0:0:0:0:
329,192,260509,1,0,0:0:0:0:
182,192,260676,1,0,0:0:0:0:
329,192,260676,1,0,0:0:0:0:
402,192,261009,1,0,0:0:0:0:
329,192,261176,1,0,0:0:0:0:
182,192,261343,1,0,0:0:0:0:
256,192,261509,1,0,0:0:0:0:
109,192,261676,1,0,0:0:0:0:
329,192,261843,1,0,0:0:0:0:
182,192,262009,1,0,0:0:0:0:
329,192,262009,1,0,0:0:0:0:
109,192,262176,1,0,0:0:0:0:
182,192,262343,1,0,0:0:0:0:
109,192,262509,1,0,0:0:0:0:
36,192,262676,1,0,0:0:0:0:
109,192,262843,1,0,0:0:0:0:
36,192,263009,1,0,0:0:0:0:
109,192,263176,1,0,0:0:0:0:
182,192,263343,1,0,0:0:0:0:
329,192,263343,1,0,0:0:0:0:
109,192,263509,1,0,0:0:0:0:
329,192,263676,1,0,0:0:0:0:
256,192,263843,1,0,0:0:0:0:
109,192,264009,1,0,0:0:0:0:
182,192,264176,1,0,0:0:0:0:
36,192,264343,1,0,0:0:0:0:
256,192,264509,1,0,0:0:0:0:
182,192,264676,1,0,0:0:0:0:
329,192,264676,1,0,0:0:0:0:
182,192,265009,1,0,0:0:0:0:
36,192,265176,1,0,0:0:0:0:
182,192,265343,1,0,0:0:0:0:
36,192,265509,1,0,0:0:0:0:
109,192,265676,1,0,0:0:0:0:
256,192,265843,1,0,0:0:0:0:
182,192,266009,1,0,0:0:0:0:
329,192,266009,1,0,0:0:0:0:
475,192,266343,1,0,0:0:0:0:
402,192,266509,1,0,0:0:0:0:
256,192,266676,1,0,0:0:0:0:
329,192,266843,1,0,0:0:0:0:
182,192,267009,1,0,0:0:0:0:
402,192,267176,1,0,0:0:0:0:
182,192,267343,1,0,0:0:0:0:
329,192,267343,1,0,0:0:0:0:
182,192,267676,1,0,0:0:0:0:
109,192,267843,1,0,0:0:0:0:
36,192,268009,1,0,0:0:0:0:
182,192,268176,1,0,0:0:0:0:
36,192,268343,1,0,0:0:0:0:
109,192,268509,1,0,0:0:0:0:
182,192,268676,1,0,0:0:0:0:
329,192,268676,1,0,0:0:0:0:
36,192,268843,1,0,0:0:0:0:
329,192,269009,1,0,0:0:0:0:
256,192,269176,1,0,0:0:0:0:
109,192,269343,1,0,0:0:0:0:
182,192,269509,1,0,0:0:0:0:
109,192,269676,1,0,0:0:0:0:
256,192,269843,1,0,0:0:0:0:
182,192,270009,1,0,0:0:0:0:
329,192,270009,1,0,0:0:0:0:
402,192,270343,1,0,0:0:0:0:
329,192,270509,1,0,0:0:0:0:
182,192,270676,1,0,0:0:0:0:
256,192,270843,1,0,0:0:0:0:
182,192,271009,1,0,0:0:0:0:
329,192,271176,1,0,0:0:0:0:
182,192,271343,1,0,0:0:0:0:
329,192,271343,1,0,0:0:0:0:
475,192,271676,1,0,0:0:0:0:
402,192,271843,1,0,0:0:0:0:
256,192,272009,1,0,0:0:0:0:
329,192,272176,1,0,0:0:0:0:
256,192,272343,1,0,0:0:0:0:
402,192,272509,1,0,0:0:0:0:
182,192,272676,1,0,0:0:0:0:
329,192,272676,1,0,0:0:0:0:
329,192,273009,1,0,0:0:0:0:
182,192,273176,1,0,0:0:0:0:
36,192,273343,1,0,0:0:0:0:
182,192,273509,1,0,0:0:0:0:
36,192,273676,1,0,0:0:0:0:
109,192,273843,1,0,0:0:0:0:
109,192,274009,1,0,0:0:0:0:
256,192,274009,1,0,0:0:0:0:
402,192,274009,1,0,0:0:0:0:
182,192,274176,1,0,0:0:0:0:
256,192,274343,1,0,0:0:0:0:
182,192,274509,1,0,0:0:0:0:
36,192,274676,1,0,0:0:0:0:
182,192,274843,1,0,0:0:0:0:
36,192,275009,1,0,0:0:0:0:
256,192,275176,1,0,0:0:0:0:
182,192,275343,1,0,0:0:0:0:
329,192,275343,1,0,0:0:0:0:
329,192,275676,1,0,0:0:0:0:
182,192,275843,1,0,0:0:0:0:
109,192,276009,1,0,0:0:0:0:
182,192,276176,1,0,0:0:0:0:
109,192,276343,1,0,0:0:0:0:
256,192,276509,1,0,0:0:0:0:
329,192,276676,1,0,0:0:0:0:
182,192,276676,1,0,0:0:0:0:
475,192,277009,1,0,0:0:0:0:
329,192,277176,1,0,0:0:0:0:
256,192,277343,1,0,0:0:0:0:
329,192,277509,1,0,0:0:0:0:
256,192,277676,1,0,0:0:0:0:
329,192,277843,1,0,0:0:0:0:
402,192,278009,1,0,0:0:0:0:
256,192,278176,1,0,0:0:0:0:
329,192,278343,1,0,0:0:0:0:
182,192,278509,1,0,0:0:0:0:
256,192,278676,128,0,279343:0:0:0:0:
109,192,278676,1,0,0:0:0:0:
402,192,278676,1,0,0:0:0:0:
182,192,279343,1,0,0:0:0:0:
329,192,279343,1,0,0:0:0:0:
36,192,279676,1,0,0:0:0:0:
182,192,279676,1,0,0:0:0:0:
475,192,280009,1,0,0:0:0:0:
329,192,280009,1,0,0:0:0:0:
329,192,280343,1,0,0:0:0:0:
182,192,280343,1,0,0:0:0:0:
109,192,280676,1,0,0:0:0:0:
256,192,280676,1,0,0:0:0:0:
402,192,280676,1,0,0:0:0:0:
36,192,281009,1,0,0:0:0:0:
182,192,281343,1,0,0:0:0:0:
36,192,281343,1,0,0:0:0:0:
256,192,281676,1,0,0:0:0:0:
36,192,281676,1,0,0:0:0:0:
402,192,282009,1,0,0:0:0:0:
182,192,282009,1,0,0:0:0:0:
329,192,282343,1,0,0:0:0:0:
109,192,282343,1,0,0:0:0:0:
475,192,282676,1,0,0:0:0:0:
402,192,282676,1,0,0:0:0:0:
329,192,283009,1,0,0:0:0:0:
182,192,283343,128,0,283676:0:0:0:0:
329,192,283343,128,0,283676:0:0:0:0:
256,192,283676,1,0,0:0:0:0:
109,192,284009,128,0,284343:0:0:0:0:
256,192,284009,128,0,284343:0:0:0:0:
182,192,284343,1,0,0:0:0:0:
182,192,284676,1,0,0:0:0:0:
329,192,284676,1,0,0:0:0:0:
109,192,285009,1,0,0:0:0:0:
256,192,285009,1,0,0:0:0:0:
36,192,285343,1,0,0:0:0:0:
182,192,285343,1,0,0:0:0:0:
109,192,285676,1,0,0:0:0:0:
256,192,285676,1,0,0:0:0:0:
182,192,286009,1,0,0:0:0:0:
402,192,286676,1,0,0:0:0:0:
256,192,287343,1,0,0:0:0:0:
402,192,287343,1,0,0:0:0:0:
109,192,287343,1,0,0:0:0:0:
329,192,287676,1,0,0:0:0:0:
402,192,287759,1,0,0:0:0:0:
329,192,287843,1,0,0:0:0:0:
182,192,287926,1,0,0:0:0:0:
109,192,288009,1,0,0:0:0:0:
182,192,288343,1,0,0:0:0:0:
329,192,288343,1,0,0:0:0:0:
36,192,288676,1,0,0:0:0:0:
182,192,288676,1,0,0:0:0:0:
36,192,289009,1,0,0:0:0:0:
109,192,289009,1,0,0:0:0:0:
109,192,289343,1,0,0:0:0:0:
256,192,289343,1,0,0:0:0:0:
109,192,289676,1,0,0:0:0:0:
109,192,290009,1,0,0:0:0:0:
256,192,290009,1,0,0:0:0:0:
402,192,290009,1,0,0:0:0:0:
36,192,290343,1,0,0:0:0:0:
109,192,290343,1,0,0:0:0:0:
329,192,290676,1,0,0:0:0:0:
256,192,290676,1,0,0:0:0:0:
182,192,291009,1,0,0:0:0:0:
256,192,291009,1,0,0:0:0:0:
36,192,291343,1,0,0:0:0:0:
109,192,291343,1,0,0:0:0:0:
36,192,291676,1,0,0:0:0:0:
36,192,292009,1,0,0:0:0:0:
256,192,292009,1,0,0:0:0:0:
109,192,292343,1,0,0:0:0:0:
329,192,292343,1,0,0:0:0:0:
256,192,292676,1,0,0:0:0:0:
475,192,292676,1,0,0:0:0:0:
182,192,293009,1,0,0:0:0:0:
402,192,293009,1,0,0:0:0:0:
475,192,293343,1,0,0:0:0:0:
329,192,293343,1,0,0:0:0:0:
329,192,293676,1,0,0:0:0:0:
329,192,294009,128,0,294343:0:0:0:0:
182,192,294009,128,0,294343:0:0:0:0:
109,192,294343,1,0,0:0:0:0:
402,192,294343,1,0,0:0:0:0:
109,192,294676,128,0,295009:0:0:0:0:
256,192,294676,128,0,295009:0:0:0:0:
36,192,295009,1,0,0:0:0:0:
329,192,295009,1,0,0:0:0:0:
109,192,295343,1,0,0:0:0:0:
256,192,295343,1,0,0:0:0:0:
402,192,295343,1,0,0:0:0:0:
402,192,295676,1,0,0:0:0:0:
475,192,295676,1,0,0:0:0:0:
329,192,296009,1,0,0:0:0:0:
402,192,296009,1,0,0:0:0:0:
256,192,296343,1,0,0:0:0:0:
329,192,296343,1,0,0:0:0:0:
329,192,296676,1,0,0:0:0:0:
475,192,296676,1,0,0:0:0:0:
329,192,297009,1,0,0:0:0:0:
256,192,297343,1,0,0:0:0:0:
36,192,297676,1,0,0:0:0:0:
182,192,297676,1,0,0:0:0:0:
109,192,298009,1,0,0:0:0:0:
182,192,298009,1,0,0:0:0:0:
182,192,298343,1,0,0:0:0:0:
329,192,298343,1,0,0:0:0:0:
256,192,298676,1,0,0:0:0:0:
475,192,298676,1,0,0:0:0:0:
36,192,299009,1,0,0:0:0:0:
182,192,299009,1,0,0:0:0:0:
329,192,299343,1,0,0:0:0:0:
402,192,299343,1,0,0:0:0:0:
182,192,299676,1,0,0:0:0:0:
256,192,299676,1,0,0:0:0:0:
36,192,300009,1,0,0:0:0:0:
109,192,300009,1,0,0:0:0:0:
109,192,300343,1,0,0:0:0:0:
182,192,300343,1,0,0:0:0:0:
182,192,300676,128,0,301009:0:0:0:0:
36,192,301009,1,0,0:0:0:0:
329,192,301343,128,0,301676:0:0:0:0:
182,192,301676,1,0,0:0:0:0:
109,192,302009,1,0,0:0:0:0:
256,192,302009,1,0,0:0:0:0:
36,192,302343,1,0,0:0:0:0:
182,192,302343,1,0,0:0:0:0:
109,192,302676,1,0,0:0:0:0:
182,192,302676,1,0,0:0:0:0:
329,192,303009,1,0,0:0:0:0:
256,192,303009,1,0,0:0:0:0:
402,192,303343,1,0,0:0:0:0:
475,192,303343,1,0,0:0:0:0:
256,192,303676,1,0,0:0:0:0:
402,192,303676,1,0,0:0:0:0:
402,192,304009,1,0,0:0:0:0:
475,192,304009,1,0,0:0:0:0:
329,192,304343,1,0,0:0:0:0:
329,192,304676,1,0,0:0:0:0:
182,192,304676,128,0,305009:0:0:0:0:
182,192,305343,1,0,0:0:0:0:
36,192,305343,128,0,305676:0:0:0:0:
182,192,306009,1,0,0:0:0:0:
329,192,306009,1,0,0:0:0:0:
109,192,306343,1,0,0:0:0:0:
256,192,306343,1,0,0:0:0:0:
36,192,306676,1,0,0:0:0:0:
182,192,306676,1,0,0:0:0:0:
109,192,307009,1,0,0:0:0:0:
256,192,307009,1,0,0:0:0:0:
182,192,307343,1,0,0:0:0:0:
329,192,308009,1,0,0:0:0:0:
256,192,308676,1,0,0:0:0:0:
402,192,308676,1,0,0:0:0:0:
329,192,309009,1,0,0:0:0:0:
402,192,309093,1,0,0:0:0:0:
329,192,309176,1,0,0:0:0:0:
182,192,309259,1,0,0:0:0:0:
109,192,309343,1,0,0:0:0:0:
182,192,309676,1,0,0:0:0:0:
329,192,309676,1,0,0:0:0:0:
36,192,310009,128,0,310343:0:0:0:0:
109,192,310009,1,0,0:0:0:0:
475,192,310009,1,0,0:0:0:0:
329,192,310343,1,0,0:0:0:0:
256,192,310676,1,0,0:0:0:0:
182,192,310676,128,0,311009:0:0:0:0:
475,192,310676,1,0,0:0:0:0:
329,192,311009,1,0,0:0:0:0:
182,192,311343,1,0,0:0:0:0:
256,192,311343,1,0,0:0:0:0:
36,192,311676,1,0,0:0:0:0:
109,192,311676,1,0,0:0:0:0:
329,192,312009,1,0,0:0:0:0:
402,192,312009,1,0,0:0:0:0:
182,192,312343,1,0,0:0:0:0:
256,192,312343,1,0,0:0:0:0:
109,192,312676,1,0,0:0:0:0:
182,192,312676,1,0,0:0:0:0:
36,192,313009,1,0,0:0:0:0:
109,192,313343,1,0,0:0:0:0:
329,192,313343,1,0,0:0:0:0:
182,192,313676,1,0,0:0:0:0:
402,192,313676,1,0,0:0:0:0:
256,192,314009,1,0,0:0:0:0:
475,192,314009,1,0,0:0:0:0:
256,192,314343,1,0,0:0:0:0:
402,192,314343,1,0,0:0:0:0:
402,192,314676,1,0,0:0:0:0:
475,192,314676,1,0,0:0:0:0:
256,192,315009,1,0,0:0:0:0:
182,192,315343,128,0,315676:0:0:0:0:
329,192,315343,128,0,315676:0:0:0:0:
36,192,316009,128,0,316343:0:0:0:0:
182,192,316009,128,0,316343:0:0:0:0:
109,192,316676,1,0,0:0:0:0:
256,192,316676,1,0,0:0:0:0:
402,192,317009,1,0,0:0:0:0:
475,192,317009,1,0,0:0:0:0:
329,192,317343,1,0,0:0:0:0:
475,192,317343,1,0,0:0:0:0:
256,192,317676,1,0,0:0:0:0:
475,192,317676,1,0,0:0:0:0:
256,192,318009,1,0,0:0:0:0:
402,192,318009,1,0,0:0:0:0:
329,192,318343,1,0,0:0:0:0:
109,192,318676,1,0,0:0:0:0:
36,192,319009,1,0,0:0:0:0:
256,192,319009,1,0,0:0:0:0:
109,192,319343,1,0,0:0:0:0:
329,192,319343,1,0,0:0:0:0:
182,192,319676,1,0,0:0:0:0:
402,192,319676,1,0,0:0:0:0:
256,192,320009,1,0,0:0:0:0:
475,192,320009,1,0,0:0:0:0:
329,192,320343,1,0,0:0:0:0:
109,192,320343,1,0,0:0:0:0:
182,192,320676,1,0,0:0:0:0:
402,192,320676,1,0,0:0:0:0:
109,192,321017,1,0,0:0:0:0:
329,192,321017,1,0,0:0:0:0:
36,192,321369,1,0,0:0:0:0:
256,192,321369,1,0,0:0:0:0:
109,192,321732,128,0,322277:0:0:0:0:
329,192,321732,128,0,322277:0:0:0:0:
182,192,322277,1,0,0:0:0:0:
256,192,322277,1,0,0:0:0:0:
36,192,322677,1,0,0:0:0:0:
182,192,322677,1,0,0:0:0:0:
109,192,323019,1,0,0:0:0:0:
256,192,323019,1,0,0:0:0:0:
256,192,323352,1,0,0:0:0:0:
475,192,323519,1,0,0:0:0:0:
329,192,323685,1,0,0:0:0:0:
402,192,323685,1,0,0:0:0:0:
182,192,324018,1,0,0:0:0:0:
256,192,324018,1,0,0:0:0:0:
36,192,324351,1,0,0:0:0:0:
109,192,324351,1,0,0:0:0:0:
182,192,324685,1,0,0:0:0:0:
256,192,324685,1,0,0:0:0:0:
329,192,325018,1,0,0:0:0:0:
402,192,325018,1,0,0:0:0:0:
182,192,325351,1,0,0:0:0:0:
256,192,325351,1,0,0:0:0:0:
36,192,325685,1,0,0:0:0:0:
109,192,325685,1,0,0:0:0:0:
182,192,326018,1,0,0:0:0:0:
256,192,326018,1,0,0:0:0:0:
109,192,326351,1,0,0:0:0:0:
329,192,326351,1,0,0:0:0:0:
402,192,326351,1,0,0:0:0:0:
182,192,326685,1,0,0:0:0:0:
329,192,327018,1,0,0:0:0:0:
182,192,327351,1,0,0:0:0:0:
109,192,327685,1,0,0:0:0:0:
256,192,327685,1,0,0:0:0:0:
402,192,327685,1,0,0:0:0:0:
109,192,328018,1,0,0:0:0:0:
256,192,328018,1,0,0:0:0:0:
36,192,328351,1,0,0:0:0:0:
182,192,328351,1,0,0:0:0:0:
109,192,328685,1,0,0:0:0:0:
256,192,328851,1,0,0:0:0:0:
402,192,329018,1,0,0:0:0:0:
182,192,329018,1,0,0:0:0:0:
109,192,329351,1,0,0:0:0:0:
329,192,329351,1,0,0:0:0:0:
36,192,329685,1,0,0:0:0:0:
256,192,329685,1,0,0:0:0:0:
109,192,330018,1,0,0:0:0:0:
329,192,330018,1,0,0:0:0:0:
256,192,330351,1,0,0:0:0:0:
475,192,330351,1,0,0:0:0:0:
109,192,330685,1,0,0:0:0:0:
329,192,330685,1,0,0:0:0:0:
36,192,331018,1,0,0:0:0:0:
256,192,331018,1,0,0:0:0:0:
109,192,331351,1,0,0:0:0:0:
329,192,331351,1,0,0:0:0:0:
182,192,331685,1,0,0:0:0:0:
402,192,331685,1,0,0:0:0:0:
36,192,331685,1,0,0:0:0:0:
475,192,332018,1,0,0:0:0:0:
402,192,332351,1,0,0:0:0:0:
329,192,332685,1,0,0:0:0:0:
329,192,333018,128,0,334018:0:0:0:0:
256,192,333018,1,0,0:0:0:0:
109,192,333351,1,0,0:0:0:0:
182,192,333685,1,0,0:0:0:0:
36,192,334018,1,0,0:0:0:0:
256,192,334351,128,0,335018:0:0:0:0:
182,192,334351,1,0,0:0:0:0:
402,192,334351,1,0,0:0:0:0:
109,192,334685,1,0,0:0:0:0:
109,192,335018,128,0,335685:0:0:0:0:
36,192,335018,1,0,0:0:0:0:
182,192,335351,1,0,0:0:0:0:
182,192,335685,128,0,337018:0:0:0:0:
329,192,335685,1,0,0:0:0:0:
475,192,335685,1,0,0:0:0:0:
329,192,336018,1,0,0:0:0:0:
475,192,336268,1,0,0:0:0:0:
256,192,336685,1,0,0:0:0:0:
329,192,337018,128,0,338351:0:0:0:0:
402,192,337018,1,0,0:0:0:0:
109,192,337018,1,0,0:0:0:0:
182,192,337351,1,0,0:0:0:0:
402,192,337685,1,0,0:0:0:0:
109,192,338018,1,0,0:0:0:0:
256,192,338351,128,0,339018:0:0:0:0:
36,192,338351,1,0,0:0:0:0:
475,192,338351,1,0,0:0:0:0:
109,192,339018,1,0,0:0:0:0:
402,192,339018,1,0,0:0:0:0:
329,192,339351,1,0,0:0:0:0:
475,192,339518,1,0,0:0:0:0:
256,192,339685,1,0,0:0:0:0:
402,192,339685,1,0,0:0:0:0:
182,192,340018,1,0,0:0:0:0:
329,192,340018,1,0,0:0:0:0:
182,192,340351,1,0,0:0:0:0:
36,192,340351,1,0,0:0:0:0:
109,192,340685,1,0,0:0:0:0:
256,192,340685,1,0,0:0:0:0:
182,192,341018,128,0,341685:0:0:0:0:
402,192,341018,128,0,341685:0:0:0:0:
256,192,341351,1,0,0:0:0:0:
329,192,341685,128,0,342351:0:0:0:0:
475,192,341685,128,0,342351:0:0:0:0:
109,192,341685,1,0,0:0:0:0:
256,192,342018,1,0,0:0:0:0:
402,192,342351,128,0,343018:0:0:0:0:
182,192,342351,128,0,343018:0:0:0:0:
36,192,342351,1,0,0:0:0:0:
256,192,342685,1,0,0:0:0:0:
36,192,343018,128,0,343685:0:0:0:0:
256,192,343018,128,0,343685:0:0:0:0:
475,192,343018,1,0,0:0:0:0:
329,192,343351,1,0,0:0:0:0:
182,192,343685,1,0,0:0:0:0:
109,192,343685,128,0,344351:0:0:0:0:
329,192,343851,1,0,0:0:0:0:
256,192,344018,1,0,0:0:0:0:
402,192,344185,1,0,0:0:0:0:
182,192,344351,128,0,345018:0:0:0:0:
329,192,344351,1,0,0:0:0:0:
475,192,344518,1,0,0:0:0:0:
402,192,344685,1,0,0:0:0:0:
475,192,344851,1,0,0:0:0:0:
329,192,345018,128,0,345685:0:0:0:0:
256,192,345018,1,0,0:0:0:0:
402,192,345185,1,0,0:0:0:0:
256,192,345351,1,0,0:0:0:0:
182,192,345518,1,0,0:0:0:0:
256,192,345685,128,0,346351:0:0:0:0:
109,192,345685,1,0,0:0:0:0:
182,192,345851,1,0,0:0:0:0:
109,192,346018,1,0,0:0:0:0:
36,192,346185,1,0,0:0:0:0:
182,192,346351,128,0,347018:0:0:0:0:
475,192,346351,1,0,0:0:0:0:
329,192,346518,1,0,0:0:0:0:
475,192,346685,1,0,0:0:0:0:
329,192,346851,1,0,0:0:0:0:
109,192,347018,128,0,347685:0:0:0:0:
475,192,347018,1,0,0:0:0:0:
329,192,347185,1,0,0:0:0:0:
475,192,347351,1,0,0:0:0:0:
329,192,347518,1,0,0:0:0:0:
256,192,347685,128,0,348185:0:0:0:0:
402,192,347685,128,0,348185:0:0:0:0:
182,192,348185,128,0,348685:0:0:0:0:
329,192,348185,128,0,348685:0:0:0:0:
109,192,348685,128,0,349018:0:0:0:0:
256,192,348685,128,0,349018:0:0:0:0:
36,192,349018,128,0,350351:0:0:0:0:
475,192,349518,1,0,0:0:0:0:
402,192,349518,1,0,0:0:0:0:
475,192,349685,1,0,0:0:0:0:
402,192,349685,1,0,0:0:0:0:
329,192,349935,1,0,0:0:0:0:
109,192,350351,128,0,351685:0:0:0:0:
256,192,350351,1,0,0:0:0:0:
402,192,350351,1,0,0:0:0:0:
329,192,351018,1,0,0:0:0:0:
256,192,351018,1,0,0:0:0:0:
256,192,351351,1,0,0:0:0:0:
182,192,351351,1,0,0:0:0:0:
182,192,351685,128,0,353018:0:0:0:0:
402,192,351685,1,0,0:0:0:0:
475,192,351685,1,0,0:0:0:0:
329,192,351851,1,0,0:0:0:0:
402,192,352018,1,0,0:0:0:0:
329,192,352185,1,0,0:0:0:0:
256,192,352351,1,0,0:0:0:0:
329,192,352684,1,0,0:0:0:0:
475,192,352684,1,0,0:0:0:0:
256,192,353018,128,0,354351:0:0:0:0:
402,192,353018,1,0,0:0:0:0:
475,192,353018,1,0,0:0:0:0:
109,192,353184,1,0,0:0:0:0:
329,192,353351,1,0,0:0:0:0:
182,192,353518,1,0,0:0:0:0:
402,192,353684,1,0,0:0:0:0:
109,192,353851,1,0,0:0:0:0:
329,192,354018,1,0,0:0:0:0:
182,192,354018,1,0,0:0:0:0:
36,192,354351,128,0,355018:0:0:0:0:
109,192,355018,128,0,355684:0:0:0:0:
256,192,355684,128,0,356351:0:0:0:0:
329,192,355684,1,0,0:0:0:0:
402,192,355851,1,0,0:0:0:0:
329,192,356018,1,0,0:0:0:0:
109,192,356184,1,0,0:0:0:0:
182,192,356351,128,0,357018:0:0:0:0:
475,192,356351,1,0,0:0:0:0:
256,192,356518,1,0,0:0:0:0:
329,192,356684,1,0,0:0:0:0:
402,192,356851,1,0,0:0:0:0:
402,192,357018,128,0,357684:0:0:0:0:
475,192,357018,1,0,0:0:0:0:
402,192,358018,1,0,0:0:0:0:
256,192,358018,1,0,0:0:0:0:
182,192,358184,1,0,0:0:0:0:
109,192,358351,128,0,359018:0:0:0:0:
256,192,358351,1,0,0:0:0:0:
329,192,358351,1,0,0:0:0:0:
402,192,358601,1,0,0:0:0:0:
329,192,358851,1,0,0:0:0:0:
36,192,359018,128,0,359684:0:0:0:0:
182,192,359018,1,0,0:0:0:0:
109,192,359684,128,0,360351:0:0:0:0:
109,192,360684,1,0,0:0:0:0:
329,192,360684,1,0,0:0:0:0:
256,192,361018,1,0,0:0:0:0:
475,192,361018,1,0,0:0:0:0:
329,192,361684,1,0,0:0:0:0:
475,192,361684,1,0,0:0:0:0:
402,192,361684,1,0,0:0:0:0:
36,192,362018,1,0,0:0:0:0:
109,192,362018,1,0,0:0:0:0:
182,192,362018,1,0,0:0:0:0:
182,192,362351,1,0,0:0:0:0:
329,192,362351,1,0,0:0:0:0:
256,192,362351,1,0,0:0:0:0:
402,192,362684,1,0,0:0:0:0:
329,192,362851,1,0,0:0:0:0:
402,192,363184,1,0,0:0:0:0:
182,192,363351,1,0,0:0:0:0:
256,192,363684,128,0,365018:0:0:0:0:
329,192,364351,1,0,0:0:0:0:
402,192,364434,1,0,0:0:0:0:
329,192,364518,1,0,0:0:0:0:
182,192,364601,1,0,0:0:0:0:
109,192,364684,1,0,0:0:0:0:
182,192,364768,1,0,0:0:0:0:
329,192,364851,1,0,0:0:0:0:
182,192,364934,1,0,0:0:0:0:
402,192,365018,128,0,365351:0:0:0:0:
182,192,365351,1,0,0:0:0:0:
329,192,365851,1,0,0:0:0:0:
182,192,365851,1,0,0:0:0:0:
109,192,366184,1,0,0:0:0:0:
182,192,366184,1,0,0:0:0:0:
329,192,366518,1,0,0:0:0:0:
402,192,366518,1,0,0:0:0:0:
256,192,366851,1,0,0:0:0:0:
256,192,367018,1,0,0:0:0:0:
182,192,367101,1,0,0:0:0:0:
109,192,367184,1,0,0:0:0:0:
329,192,367351,1,0,0:0:0:0:
182,192,367684,128,0,368018:0:0:0:0:
329,192,367684,128,0,368018:0:0:0:0:
402,192,368518,1,0,0:0:0:0:
256,192,368518,1,0,0:0:0:0:
182,192,368851,1,0,0:0:0:0:
256,192,368851,1,0,0:0:0:0:
329,192,369184,1,0,0:0:0:0:
475,192,369184,1,0,0:0:0:0:
256,192,369518,1,0,0:0:0:0:
329,192,369518,1,0,0:0:0:0:
182,192,369684,1,0,0:0:0:0:
36,192,369768,1,0,0:0:0:0:
182,192,369851,1,0,0:0:0:0:
402,192,370018,1,0,0:0:0:0:
329,192,370018,1,0,0:0:0:0:
329,192,370351,128,0,370684:0:0:0:0:
182,192,370351,128,0,370684:0:0:0:0:
182,192,371184,1,0,0:0:0:0:
329,192,371184,1,0,0:0:0:0:
109,192,371518,1,0,0:0:0:0:
182,192,371518,1,0,0:0:0:0:
402,192,371851,1,0,0:0:0:0:
329,192,371851,1,0,0:0:0:0:
256,192,372184,1,0,0:0:0:0:
182,192,372351,1,0,0:0:0:0:
109,192,372434,1,0,0:0:0:0:
182,192,372518,1,0,0:0:0:0:
329,192,372684,1,0,0:0:0:0:
402,192,372684,1,0,0:0:0:0:
329,192,373018,128,0,373351:0:0:0:0:
182,192,373018,128,0,373351:0:0:0:0:
256,192,373851,1,0,0:0:0:0:
329,192,373851,1,0,0:0:0:0:
182,192,374184,1,0,0:0:0:0:
256,192,374184,1,0,0:0:0:0:
329,192,374518,1,0,0:0:0:0:
402,192,374518,1,0,0:0:0:0:
256,192,374851,1,0,0:0:0:0:
329,192,374851,1,0,0:0:0:0:
182,192,375018,1,0,0:0:0:0:
109,192,375101,1,0,0:0:0:0:
182,192,375184,1,0,0:0:0:0:
329,192,375351,1,0,0:0:0:0:
36,192,375684,128,0,377018:0:0:0:0:
329,192,375684,1,0,0:0:0:0:
182,192,375851,1,0,0:0:0:0:
402,192,376018,1,0,0:0:0:0:
182,192,376184,1,0,0:0:0:0:
329,192,376351,1,0,0:0:0:0:
182,192,376518,1,0,0:0:0:0:
402,192,376684,1,0,0:0:0:0:
182,192,376851,1,0,0:0:0:0:
329,192,377018,1,0,0:0:0:0:
182,192,377184,1,0,0:0:0:0:
109,192,377351,128,0,377684:0:0:0:0:
36,192,377351,1,0,0:0:0:0:
182,192,377684,128,0,378018:0:0:0:0:
256,192,377684,1,0,0:0:0:0:
329,192,378018,128,0,378351:0:0:0:0:
402,192,378018,1,0,0:0:0:0:
256,192,378351,128,0,379684:0:0:0:0:
182,192,378351,1,0,0:0:0:0:
36,192,378518,1,0,0:0:0:0:
329,192,378684,1,0,0:0:0:0:
36,192,378851,1,0,0:0:0:0:
182,192,379018,1,0,0:0:0:0:
36,192,379184,1,0,0:0:0:0:
329,192,379351,1,0,0:0:0:0:
36,192,379518,1,0,0:0:0:0:
329,192,379684,128,0,380351:0:0:0:0:
182,192,379684,1,0,0:0:0:0:
109,192,379851,1,0,0:0:0:0:
182,192,380018,1,0,0:0:0:0:
109,192,380184,1,0,0:0:0:0:
402,192,380351,128,0,381018:0:0:0:0:
256,192,380351,1,0,0:0:0:0:
182,192,380518,1,0,0:0:0:0:
329,192,380684,1,0,0:0:0:0:
182,192,380851,1,0,0:0:0:0:
475,192,381018,128,0,383684:0:0:0:0:
182,192,381018,128,0,381351:0:0:0:0:
256,192,381851,1,0,0:0:0:0:
329,192,381851,1,0,0:0:0:0:
36,192,382184,1,0,0:0:0:0:
109,192,382184,1,0,0:0:0:0:
256,192,382518,1,0,0:0:0:0:
329,192,382518,1,0,0:0:0:0:
109,192,382851,1,0,0:0:0:0:
256,192,383018,1,0,0:0:0:0:
329,192,383101,1,0,0:0:0:0:
256,192,383184,1,0,0:0:0:0:
329,192,383351,1,0,0:0:0:0:
402,192,383351,1,0,0:0:0:0:
402,192,383684,128,0,385018:0:0:0:0:
256,192,383684,1,0,0:0:0:0:
109,192,383851,1,0,0:0:0:0:
329,192,384018,1,0,0:0:0:0:
109,192,384184,1,0,0:0:0:0:
256,192,384351,1,0,0:0:0:0:
109,192,384518,1,0,0:0:0:0:
329,192,384684,1,0,0:0:0:0:
109,192,384851,1,0,0:0:0:0:
329,192,385018,128,0,386351:0:0:0:0:
256,192,385018,1,0,0:0:0:0:
182,192,385018,1,0,0:0:0:0:
36,192,385184,1,0,0:0:0:0:
182,192,385351,1,0,0:0:0:0:
36,192,385518,1,0,0:0:0:0:
182,192,385684,1,0,0:0:0:0:
256,192,385684,1,0,0:0:0:0:
36,192,385851,1,0,0:0:0:0:
182,192,386018,1,0,0:0:0:0:
109,192,386101,1,0,0:0:0:0:
182,192,386184,1,0,0:0:0:0:
109,192,386268,1,0,0:0:0:0:
402,192,386351,1,0,0:0:0:0:
36,192,386684,1,0,0:0:0:0:
182,192,386684,1,0,0:0:0:0:
402,192,386684,1,0,0:0:0:0:
36,192,386851,1,0,0:0:0:0:
182,192,386851,1,0,0:0:0:0:
329,192,386851,1,0,0:0:0:0:
36,192,387184,1,0,0:0:0:0:
182,192,387184,1,0,0:0:0:0:
329,192,387184,1,0,0:0:0:0:
36,192,387351,1,0,0:0:0:0:
256,192,387351,1,0,0:0:0:0:
182,192,387351,1,0,0:0:0:0:
329,192,387684,1,0,0:0:0:0:
402,192,388018,1,0,0:0:0:0:
182,192,388351,1,0,0:0:0:0:
329,192,388351,1,0,0:0:0:0:
36,192,388518,1,0,0:0:0:0:
109,192,388684,1,0,0:0:0:0:
256,192,388851,1,0,0:0:0:0:
329,192,389018,1,0,0:0:0:0:
475,192,389018,1,0,0:0:0:0:
182,192,389018,1,0,0:0:0:0:
182,192,389351,1,0,0:0:0:0:
329,192,389351,1,0,0:0:0:0:
475,192,389351,1,0,0:0:0:0:
109,192,389518,1,0,0:0:0:0:
329,192,389518,1,0,0:0:0:0:
475,192,389518,1,0,0:0:0:0:
109,192,389851,1,0,0:0:0:0:
329,192,389851,1,0,0:0:0:0:
475,192,389851,1,0,0:0:0:0:
256,192,390018,1,0,0:0:0:0:
329,192,390018,1,0,0:0:0:0:
475,192,390018,1,0,0:0:0:0:
256,192,390351,1,0,0:0:0:0:
329,192,390684,1,0,0:0:0:0:
182,192,391018,1,0,0:0:0:0:
36,192,391184,1,0,0:0:0:0:
182,192,391351,1,0,0:0:0:0:
329,192,391518,1,0,0:0:0:0:
109,192,391684,1,0,0:0:0:0:
256,192,391684,1,0,0:0:0:0:
402,192,391684,1,0,0:0:0:0:
109,192,392018,1,0,0:0:0:0:
256,192,392018,1,0,0:0:0:0:
475,192,392018,1,0,0:0:0:0:
109,192,392184,1,0,0:0:0:0:
256,192,392184,1,0,0:0:0:0:
402,192,392184,1,0,0:0:0:0:
109,192,392518,1,0,0:0:0:0:
402,192,392518,1,0,0:0:0:0:
256,192,392518,1,0,0:0:0:0:
109,192,392684,1,0,0:0:0:0:
256,192,392684,1,0,0:0:0:0:
329,192,392684,1,0,0:0:0:0:
182,192,393018,1,0,0:0:0:0:
109,192,393351,1,0,0:0:0:0:
256,192,393684,1,0,0:0:0:0:
109,192,393851,1,0,0:0:0:0:
256,192,394018,1,0,0:0:0:0:
475,192,394184,1,0,0:0:0:0:
182,192,394351,1,0,0:0:0:0:
329,192,394351,1,0,0:0:0:0:
36,192,394684,1,0,0:0:0:0:
182,192,394684,1,0,0:0:0:0:
475,192,394684,1,0,0:0:0:0:
36,192,394851,1,0,0:0:0:0:
182,192,394851,1,0,0:0:0:0:
329,192,394851,1,0,0:0:0:0:
36,192,395184,1,0,0:0:0:0:
182,192,395184,1,0,0:0:0:0:
329,192,395184,1,0,0:0:0:0:
36,192,395351,1,0,0:0:0:0:
182,192,395351,1,0,0:0:0:0:
475,192,395351,1,0,0:0:0:0:
182,192,395684,1,0,0:0:0:0:
329,192,396018,1,0,0:0:0:0:
182,192,396351,1,0,0:0:0:0:
36,192,396518,1,0,0:0:0:0:
182,192,396684,1,0,0:0:0:0:
475,192,396851,1,0,0:0:0:0:
109,192,397018,1,0,0:0:0:0:
256,192,397018,1,0,0:0:0:0:
402,192,397018,1,0,0:0:0:0:
109,192,397351,1,0,0:0:0:0:
256,192,397351,1,0,0:0:0:0:
402,192,397351,1,0,0:0:0:0:
329,192,397518,1,0,0:0:0:0:
109,192,397518,1,0,0:0:0:0:
256,192,397518,1,0,0:0:0:0:
475,192,397851,1,0,0:0:0:0:
256,192,397851,1,0,0:0:0:0:
402,192,398018,1,0,0:0:0:0:
182,192,398018,1,0,0:0:0:0:
329,192,398184,1,0,0:0:0:0:
109,192,398184,1,0,0:0:0:0:
329,192,398351,1,0,0:0:0:0:
402,192,398684,1,0,0:0:0:0:
182,192,399018,1,0,0:0:0:0:
329,192,399018,1,0,0:0:0:0:
36,192,399184,1,0,0:0:0:0:
182,192,399351,1,0,0:0:0:0:
329,192,399518,1,0,0:0:0:0:
182,192,399684,1,0,0:0:0:0:
329,192,399684,1,0,0:0:0:0:
475,192,399684,1,0,0:0:0:0:
329,192,400018,1,0,0:0:0:0:
182,192,400018,1,0,0:0:0:0:
109,192,400184,1,0,0:0:0:0:
256,192,400184,1,0,0:0:0:0:
329,192,400518,1,0,0:0:0:0:
36,192,400518,1,0,0:0:0:0:
182,192,400684,1,0,0:0:0:0:
475,192,400684,1,0,0:0:0:0:
109,192,400851,1,0,0:0:0:0:
402,192,400851,1,0,0:0:0:0:
36,192,401018,1,0,0:0:0:0:
329,192,401351,1,0,0:0:0:0:
182,192,401684,1,0,0:0:0:0:
329,192,401684,1,0,0:0:0:0:
36,192,401851,1,0,0:0:0:0:
182,192,402018,1,0,0:0:0:0:
475,192,402184,1,0,0:0:0:0:
109,192,402351,1,0,0:0:0:0:
256,192,402351,1,0,0:0:0:0:
402,192,402351,1,0,0:0:0:0:
182,192,402684,1,0,0:0:0:0:
256,192,402684,1,0,0:0:0:0:
36,192,402851,1,0,0:0:0:0:
109,192,402851,1,0,0:0:0:0:
402,192,403184,1,0,0:0:0:0:
475,192,403184,1,0,0:0:0:0:
256,192,403351,1,0,0:0:0:0:
329,192,403351,1,0,0:0:0:0:
109,192,403518,1,0,0:0:0:0:
182,192,403518,1,0,0:0:0:0:
109,192,403684,1,0,0:0:0:0:
329,192,404018,1,0,0:0:0:0:
182,192,404351,1,0,0:0:0:0:
36,192,404518,1,0,0:0:0:0:
182,192,404684,1,0,0:0:0:0:
329,192,404851,1,0,0:0:0:0:
36,192,405018,1,0,0:0:0:0:
182,192,405018,1,0,0:0:0:0:
329,192,405018,1,0,0:0:0:0:
475,192,405018,1,0,0:0:0:0:
182,192,405351,1,0,0:0:0:0:
329,192,405351,1,0,0:0:0:0:
36,192,405518,1,0,0:0:0:0:
182,192,405518,1,0,0:0:0:0:
329,192,406018,1,0,0:0:0:0:
475,192,406018,1,0,0:0:0:0:
36,192,407184,1,0,0:0:0:0:
182,192,407184,1,0,0:0:0:0:
109,192,407351,1,0,0:0:0:0:
256,192,407351,1,0,0:0:0:0:
182,192,407518,1,0,0:0:0:0:
329,192,407518,1,0,0:0:0:0:
109,192,407684,1,0,0:0:0:0:
256,192,407684,1,0,0:0:0:0:
402,192,407684,1,0,0:0:0:0:
329,192,407851,1,0,0:0:0:0:
256,192,407934,1,0,0:0:0:0:
182,192,408018,1,0,0:0:0:0:
256,192,408184,1,0,0:0:0:0:
402,192,408184,1,0,0:0:0:0:
256,192,408351,1,0,0:0:0:0:
256,192,408518,1,0,0:0:0:0:
329,192,408684,1,0,0:0:0:0:
182,192,408851,1,0,0:0:0:0:
109,192,409018,1,0,0:0:0:0:
256,192,409018,1,0,0:0:0:0:
182,192,409184,1,0,0:0:0:0:
109,192,409268,1,0,0:0:0:0:
36,192,409351,1,0,0:0:0:0:
256,192,409518,1,0,0:0:0:0:
109,192,409518,1,0,0:0:0:0:
109,192,409684,1,0,0:0:0:0:
109,192,409851,1,0,0:0:0:0:
182,192,410018,1,0,0:0:0:0:
36,192,410184,1,0,0:0:0:0:
182,192,410351,1,0,0:0:0:0:
329,192,410351,1,0,0:0:0:0:
182,192,410518,1,0,0:0:0:0:
256,192,410601,1,0,0:0:0:0:
329,192,410684,1,0,0:0:0:0:
256,192,410851,1,0,0:0:0:0:
329,192,411018,1,0,0:0:0:0:
182,192,411184,1,0,0:0:0:0:
256,192,411351,1,0,0:0:0:0:
329,192,411518,1,0,0:0:0:0:
402,192,411684,1,0,0:0:0:0:
475,192,411851,1,0,0:0:0:0:
402,192,411934,1,0,0:0:0:0:
329,192,412018,1,0,0:0:0:0:
182,192,412018,1,0,0:0:0:0:
182,192,412518,1,0,0:0:0:0:
402,192,412518,1,0,0:0:0:0:
109,192,412684,1,0,0:0:0:0:
329,192,412684,1,0,0:0:0:0:
256,192,412851,1,0,0:0:0:0:
475,192,412851,1,0,0:0:0:0:
109,192,413018,1,0,0:0:0:0:
256,192,413018,1,0,0:0:0:0:
402,192,413018,1,0,0:0:0:0:
182,192,413268,1,0,0:0:0:0:
329,192,413268,1,0,0:0:0:0:
109,192,413518,1,0,0:0:0:0:
402,192,413518,1,0,0:0:0:0:
36,192,413684,1,0,0:0:0:0:
475,192,413684,1,0,0:0:0:0:
329,192,414184,1,0,0:0:0:0:
402,192,414268,1,0,0:0:0:0:
475,192,414351,1,0,0:0:0:0:
402,192,414434,1,0,0:0:0:0:
329,192,414518,1,0,0:0:0:0:
256,192,414601,1,0,0:0:0:0:
182,192,414684,1,0,0:0:0:0:
36,192,415018,1,0,0:0:0:0:
182,192,415018,1,0,0:0:0:0:
109,192,415268,1,0,0:0:0:0:
256,192,415268,1,0,0:0:0:0:
182,192,415518,1,0,0:0:0:0:
329,192,415518,1,0,0:0:0:0:
329,192,415684,1,0,0:0:0:0:
475,192,415684,1,0,0:0:0:0:
182,192,416018,1,0,0:0:0:0:
109,192,416101,1,0,0:0:0:0:
36,192,416184,1,0,0:0:0:0:
109,192,416268,1,0,0:0:0:0:
182,192,416351,1,0,0:0:0:0:
256,192,416434,1,0,0:0:0:0:
329,192,416518,1,0,0:0:0:0:
402,192,416601,1,0,0:0:0:0:
475,192,416684,1,0,0:0:0:0:
402,192,416768,1,0,0:0:0:0:
329,192,416851,1,0,0:0:0:0:
256,192,416934,1,0,0:0:0:0:
182,192,417018,1,0,0:0:0:0:
36,192,417018,1,0,0:0:0:0:
329,192,417518,1,0,0:0:0:0:
256,192,417601,1,0,0:0:0:0:
182,192,417684,1,0,0:0:0:0:
329,192,417934,1,0,0:0:0:0:
475,192,418184,1,0,0:0:0:0:
256,192,418351,1,0,0:0:0:0:
402,192,418351,1,0,0:0:0:0:
36,192,418601,1,0,0:0:0:0:
182,192,418601,1,0,0:0:0:0:
109,192,418851,1,0,0:0:0:0:
256,192,418851,1,0,0:0:0:0:
329,192,419018,1,0,0:0:0:0:
475,192,419018,1,0,0:0:0:0:
402,192,419268,1,0,0:0:0:0:
256,192,419268,1,0,0:0:0:0:
182,192,419518,1,0,0:0:0:0:
329,192,419518,1,0,0:0:0:0:
109,192,419684,1,0,0:0:0:0:
256,192,419684,1,0,0:0:0:0:
256,192,419934,1,0,0:0:0:0:
402,192,419934,1,0,0:0:0:0:
329,192,420184,1,0,0:0:0:0:
475,192,420184,1,0,0:0:0:0:
329,192,420351,1,0,0:0:0:0:
475,192,420351,1,0,0:0:0:0:
182,192,420518,1,0,0:0:0:0:
402,192,420518,1,0,0:0:0:0:
182,192,420684,1,0,0:0:0:0:
402,192,420684,1,0,0:0:0:0:
182,192,420851,1,0,0:0:0:0:
329,192,420851,1,0,0:0:0:0:
182,192,421018,1,0,0:0:0:0:
329,192,421018,1,0,0:0:0:0:
182,192,421601,1,0,0:0:0:0:
256,192,421684,1,0,0:0:0:0:
329,192,421934,1,0,0:0:0:0:
402,192,422184,1,0,0:0:0:0:
475,192,422351,1,0,0:0:0:0:
329,192,422518,1,0,0:0:0:0:
402,192,422684,1,0,0:0:0:0:
256,192,422851,1,0,0:0:0:0:
329,192,423018,1,0,0:0:0:0:
182,192,423184,1,0,0:0:0:0:
256,192,423351,1,0,0:0:0:0:
109,192,423518,1,0,0:0:0:0:
182,192,423684,1,0,0:0:0:0:
329,192,423684,1,0,0:0:0:0:
36,192,424101,1,0,0:0:0:0:
109,192,424184,1,0,0:0:0:0:
182,192,424268,1,0,0:0:0:0:
329,192,424351,1,0,0:0:0:0:
475,192,424601,1,0,0:0:0:0:
329,192,424601,1,0,0:0:0:0:
182,192,424851,1,0,0:0:0:0:
329,192,424851,1,0,0:0:0:0:
36,192,425018,1,0,0:0:0:0:
182,192,425018,1,0,0:0:0:0:
329,192,425101,1,0,0:0:0:0:
402,192,425184,1,0,0:0:0:0:
475,192,425268,1,0,0:0:0:0:
402,192,425351,1,0,0:0:0:0:
329,192,425434,1,0,0:0:0:0:
256,192,425518,1,0,0:0:0:0:
182,192,425601,1,0,0:0:0:0:
36,192,425684,1,0,0:0:0:0:
109,192,425684,1,0,0:0:0:0:
182,192,426018,1,0,0:0:0:0:
36,192,426184,1,0,0:0:0:0:
329,192,426351,1,0,0:0:0:0:
109,192,426351,1,0,0:0:0:0:
109,192,426601,1,0,0:0:0:0:
402,192,426851,1,0,0:0:0:0:
182,192,426851,1,0,0:0:0:0:
109,192,427018,1,0,0:0:0:0:
182,192,427268,1,0,0:0:0:0:
329,192,427268,1,0,0:0:0:0:
402,192,427518,1,0,0:0:0:0:
329,192,427684,1,0,0:0:0:0:
475,192,427684,1,0,0:0:0:0:
256,192,428018,1,0,0:0:0:0:
402,192,428018,1,0,0:0:0:0:
182,192,428351,1,0,0:0:0:0:
329,192,428351,1,0,0:0:0:0:
36,192,428684,1,0,0:0:0:0:
182,192,428684,1,0,0:0:0:0:
256,192,429018,1,0,0:0:0:0:
402,192,429018,1,0,0:0:0:0:
109,192,429018,128,0,429684:0:0:0:0:
182,192,429684,128,0,430351:0:0:0:0:
256,192,429684,1,0,0:0:0:0:
402,192,429684,1,0,0:0:0:0:
256,192,430351,128,0,431018:0:0:0:0:
329,192,430351,1,0,0:0:0:0:
475,192,430351,1,0,0:0:0:0:
329,192,431018,128,0,431684:0:0:0:0:
182,192,431018,1,0,0:0:0:0:
402,192,431018,1,0,0:0:0:0:
256,192,431184,1,0,0:0:0:0:
402,192,431351,1,0,0:0:0:0:
256,192,431518,1,0,0:0:0:0:
256,192,431684,128,0,433018:0:0:0:0:
109,192,431684,1,0,0:0:0:0:
182,192,431684,1,0,0:0:0:0:
36,192,431851,1,0,0:0:0:0:
329,192,432018,1,0,0:0:0:0:
36,192,432184,1,0,0:0:0:0:
182,192,432351,1,0,0:0:0:0:
36,192,432518,1,0,0:0:0:0:
329,192,432684,1,0,0:0:0:0:
36,192,432851,1,0,0:0:0:0:
402,192,433018,128,0,434018:0:0:0:0:
475,192,433018,1,0,0:0:0:0:
402,192,434351,128,0,435684:0:0:0:0:
256,192,434351,1,0,0:0:0:0:
109,192,434518,1,0,0:0:0:0:
329,192,434684,1,0,0:0:0:0:
109,192,434851,1,0,0:0:0:0:
256,192,435018,1,0,0:0:0:0:
109,192,435184,1,0,0:0:0:0:
329,192,435351,1,0,0:0:0:0:
109,192,435518,1,0,0:0:0:0:
329,192,435684,128,0,436351:0:0:0:0:
256,192,435684,1,0,0:0:0:0:
182,192,435851,1,0,0:0:0:0:
256,192,436018,1,0,0:0:0:0:
402,192,436184,1,0,0:0:0:0:
256,192,436351,128,0,437018:0:0:0:0:
182,192,436351,1,0,0:0:0:0:
329,192,436518,1,0,0:0:0:0:
36,192,436684,1,0,0:0:0:0:
182,192,436851,1,0,0:0:0:0:
182,192,437018,128,0,438351:0:0:0:0:
402,192,437518,1,0,0:0:0:0:
402,192,437851,1,0,0:0:0:0:
329,192,438018,1,0,0:0:0:0:
256,192,438351,128,0,439018:0:0:0:0:
109,192,438351,1,0,0:0:0:0:
36,192,438518,1,0,0:0:0:0:
182,192,438684,1,0,0:0:0:0:
109,192,438851,1,0,0:0:0:0:
329,192,439018,128,0,439684:0:0:0:0:
402,192,439018,1,0,0:0:0:0:
182,192,439018,1,0,0:0:0:0:
402,192,439684,128,0,441018:0:0:0:0:
109,192,439684,1,0,0:0:0:0:
256,192,439684,1,0,0:0:0:0:
36,192,439851,1,0,0:0:0:0:
182,192,440018,1,0,0:0:0:0:
36,192,440184,1,0,0:0:0:0:
109,192,440351,1,0,0:0:0:0:
36,192,440518,1,0,0:0:0:0:
182,192,440684,1,0,0:0:0:0:
36,192,440851,1,0,0:0:0:0:
329,192,441018,128,0,441684:0:0:0:0:
109,192,441018,1,0,0:0:0:0:
256,192,441018,1,0,0:0:0:0:
256,192,441684,128,0,442351:0:0:0:0:
182,192,441851,1,0,0:0:0:0:
402,192,442018,1,0,0:0:0:0:
182,192,442184,1,0,0:0:0:0:
182,192,442351,128,0,443684:0:0:0:0:
475,192,442351,1,0,0:0:0:0:
329,192,442518,1,0,0:0:0:0:
475,192,442684,1,0,0:0:0:0:
256,192,442851,1,0,0:0:0:0:
475,192,443018,1,0,0:0:0:0:
329,192,443184,1,0,0:0:0:0:
475,192,443351,1,0,0:0:0:0:
256,192,443518,1,0,0:0:0:0:
256,192,443684,128,0,444351:0:0:0:0:
109,192,443684,1,0,0:0:0:0:
402,192,443684,1,0,0:0:0:0:
329,192,444351,128,0,445018:0:0:0:0:
182,192,444351,1,0,0:0:0:0:
402,192,444351,1,0,0:0:0:0:
402,192,445018,128,0,447684:0:0:0:0:
256,192,445018,1,0,0:0:0:0:
475,192,445018,1,0,0:0:0:0:
109,192,445518,1,0,0:0:0:0:
182,192,445684,1,0,0:0:0:0:
256,192,446018,1,0,0:0:0:0:
329,192,446018,1,0,0:0:0:0:
256,192,446351,1,0,0:0:0:0:
182,192,446518,1,0,0:0:0:0:
256,192,446684,1,0,0:0:0:0:
329,192,446851,1,0,0:0:0:0:
182,192,447018,1,0,0:0:0:0:
256,192,447184,1,0,0:0:0:0:
109,192,447351,1,0,0:0:0:0:
182,192,447518,1,0,0:0:0:0:
475,192,447684,128,0,448684:0:0:0:0:
109,192,447684,1,0,0:0:0:0:
329,192,447684,1,0,0:0:0:0:
329,192,448684,128,0,449684:0:0:0:0:
402,192,448684,1,0,0:0:0:0:
182,192,448684,1,0,0:0:0:0:
402,192,449684,128,0,450351:0:0:0:0:
256,192,449684,1,0,0:0:0:0:
475,192,449684,1,0,0:0:0:0:
109,192,449684,128,0,450351:0:0:0:0:
182,192,450351,1,0,0:0:0:0:
329,192,450351,1,0,0:0:0:0:
256,192,450518,1,0,0:0:0:0:
402,192,450518,1,0,0:0:0:0:
256,192,450851,1,0,0:0:0:0:
329,192,451018,1,0,0:0:0:0:
182,192,451184,1,0,0:0:0:0:
109,192,451351,1,0,0:0:0:0:
36,192,451684,1,0,0:0:0:0:
182,192,451684,1,0,0:0:0:0:
109,192,451851,1,0,0:0:0:0:
36,192,452018,1,0,0:0:0:0:
182,192,452018,1,0,0:0:0:0:
256,192,452184,1,0,0:0:0:0:
329,192,452351,1,0,0:0:0:0:
256,192,452518,1,0,0:0:0:0:
182,192,452684,1,0,0:0:0:0:
36,192,452851,1,0,0:0:0:0:
475,192,453018,1,0,0:0:0:0:
402,192,453184,1,0,0:0:0:0:
329,192,453351,1,0,0:0:0:0:
256,192,453518,1,0,0:0:0:0:
329,192,453684,1,0,0:0:0:0:
402,192,453851,1,0,0:0:0:0:
329,192,454018,1,0,0:0:0:0:
182,192,454184,1,0,0:0:0:0:
109,192,454351,1,0,0:0:0:0:
329,192,454351,1,0,0:0:0:0:
256,192,454518,1,0,0:0:0:0:
182,192,454684,1,0,0:0:0:0:
36,192,454851,1,0,0:0:0:0:
182,192,455018,1,0,0:0:0:0:
329,192,455101,1,0,0:0:0:0:
402,192,455184,1,0,0:0:0:0:
329,192,455268,1,0,0:0:0:0:
182,192,455351,1,0,0:0:0:0:
109,192,455518,1,0,0:0:0:0:
36,192,455684,1,0,0:0:0:0:
182,192,455684,1,0,0:0:0:0:
109,192,455851,1,0,0:0:0:0:
256,192,456018,1,0,0:0:0:0:
329,192,456184,1,0,0:0:0:0:
256,192,456351,1,0,0:0:0:0:
182,192,456518,1,0,0:0:0:0:
109,192,456684,1,0,0:0:0:0:
36,192,457018,1,0,0:0:0:0:
109,192,457018,1,0,0:0:0:0:
182,192,457184,1,0,0:0:0:0:
256,192,457351,1,0,0:0:0:0:
109,192,457518,1,0,0:0:0:0:
182,192,457684,1,0,0:0:0:0:
329,192,457851,1,0,0:0:0:0:
256,192,458018,1,0,0:0:0:0:
182,192,458184,1,0,0:0:0:0:
475,192,458351,1,0,0:0:0:0:
256,192,458351,1,0,0:0:0:0:
402,192,458518,1,0,0:0:0:0:
329,192,458684,1,0,0:0:0:0:
182,192,458851,1,0,0:0:0:0:
256,192,459018,1,0,0:0:0:0:
329,192,459184,1,0,0:0:0:0:
256,192,459351,1,0,0:0:0:0:
109,192,459518,1,0,0:0:0:0:
182,192,459684,128,0,461018:0:0:0:0:
475,192,459684,1,0,0:0:0:0:
402,192,459768,1,0,0:0:0:0:
329,192,459851,1,0,0:0:0:0:
329,192,460018,1,0,0:0:0:0:
402,192,460101,1,0,0:0:0:0:
475,192,460184,1,0,0:0:0:0:
475,192,460351,1,0,0:0:0:0:
402,192,460434,1,0,0:0:0:0:
329,192,460518,1,0,0:0:0:0:
329,192,460684,1,0,0:0:0:0:
402,192,460768,1,0,0:0:0:0:
475,192,460851,1,0,0:0:0:0:
36,192,461018,1,0,0:0:0:0:
329,192,461018,1,0,0:0:0:0:
329,192,461518,1,0,0:0:0:0:
256,192,461684,1,0,0:0:0:0:
182,192,461851,1,0,0:0:0:0:
109,192,462018,1,0,0:0:0:0:
36,192,462351,1,0,0:0:0:0:
109,192,462851,1,0,0:0:0:0:
256,192,463018,1,0,0:0:0:0:
329,192,463184,1,0,0:0:0:0:
256,192,463351,1,0,0:0:0:0:
109,192,463518,1,0,0:0:0:0:
475,192,463684,1,0,0:0:0:0:
402,192,463851,1,0,0:0:0:0:
329,192,464018,1,0,0:0:0:0:
256,192,464184,1,0,0:0:0:0:
329,192,464351,1,0,0:0:0:0:
402,192,464518,1,0,0:0:0:0:
329,192,464684,1,0,0:0:0:0:
182,192,464851,1,0,0:0:0:0:
256,192,465018,1,0,0:0:0:0:
182,192,465184,1,0,0:0:0:0:
36,192,465351,1,0,0:0:0:0:
109,192,465518,1,0,0:0:0:0:
182,192,465684,1,0,0:0:0:0:
329,192,465768,1,0,0:0:0:0:
402,192,465851,1,0,0:0:0:0:
329,192,465934,1,0,0:0:0:0:
182,192,466018,1,0,0:0:0:0:
109,192,466184,1,0,0:0:0:0:
36,192,466351,1,0,0:0:0:0:
182,192,466351,1,0,0:0:0:0:
475,192,466851,1,0,0:0:0:0:
329,192,466851,1,0,0:0:0:0:
256,192,467018,1,0,0:0:0:0:
182,192,467184,1,0,0:0:0:0:
109,192,467351,1,0,0:0:0:0:
36,192,467684,1,0,0:0:0:0:
256,192,468184,1,0,0:0:0:0:
329,192,468351,1,0,0:0:0:0:
256,192,468518,1,0,0:0:0:0:
182,192,468684,1,0,0:0:0:0:
475,192,469018,1,0,0:0:0:0:
402,192,469184,1,0,0:0:0:0:
329,192,469351,1,0,0:0:0:0:
182,192,469518,1,0,0:0:0:0:
256,192,469684,1,0,0:0:0:0:
329,192,469851,1,0,0:0:0:0:
256,192,470018,1,0,0:0:0:0:
109,192,470184,1,0,0:0:0:0:
329,192,470351,1,0,0:0:0:0:
182,192,470518,1,0,0:0:0:0:
256,192,470684,1,0,0:0:0:0:
475,192,470851,1,0,0:0:0:0:
109,192,471018,1,0,0:0:0:0:
256,192,471018,1,0,0:0:0:0:
402,192,471018,1,0,0:0:0:0:
36,192,471684,128,0,473018:0:0:0:0:
182,192,471684,128,0,473018:0:0:0:0:
475,192,471684,1,0,0:0:0:0:
402,192,471851,1,0,0:0:0:0:
329,192,472018,1,0,0:0:0:0:
402,192,472184,1,0,0:0:0:0:
475,192,472351,1,0,0:0:0:0:
402,192,472518,1,0,0:0:0:0:
329,192,472684,1,0,0:0:0:0:
402,192,472851,1,0,0:0:0:0:
329,192,473018,1,0,0:0:0:0:
109,192,473018,128,0,474351:0:0:0:0:
402,192,473018,128,0,474351:0:0:0:0:
256,192,473184,1,0,0:0:0:0:
182,192,473351,1,0,0:0:0:0:
256,192,473518,1,0,0:0:0:0:
329,192,473684,1,0,0:0:0:0:
256,192,473851,1,0,0:0:0:0:
182,192,474018,1,0,0:0:0:0:
256,192,474184,1,0,0:0:0:0:
329,192,474351,1,0,0:0:0:0:
182,192,474351,1,0,0:0:0:0:
109,192,474518,1,0,0:0:0:0:
256,192,474518,1,0,0:0:0:0:
109,192,474684,1,0,0:0:0:0:
182,192,474768,1,0,0:0:0:0:
109,192,474851,1,0,0:0:0:0:
182,192,474934,1,0,0:0:0:0:
256,192,475018,1,0,0:0:0:0:
256,192,475184,1,0,0:0:0:0:
329,192,475268,1,0,0:0:0:0:
329,192,475518,1,0,0:0:0:0:
402,192,475601,1,0,0:0:0:0:
475,192,475684,128,0,477018:0:0:0:0:
182,192,475684,1,0,0:0:0:0:
36,192,475851,1,0,0:0:0:0:
329,192,476018,1,0,0:0:0:0:
36,192,476184,1,0,0:0:0:0:
182,192,476351,1,0,0:0:0:0:
36,192,476518,1,0,0:0:0:0:
329,192,476684,1,0,0:0:0:0:
36,192,476851,1,0,0:0:0:0:
182,192,477018,1,0,0:0:0:0:
329,192,477018,1,0,0:0:0:0:
36,192,477268,1,0,0:0:0:0:
182,192,477268,1,0,0:0:0:0:
109,192,477518,1,0,0:0:0:0:
182,192,477518,1,0,0:0:0:0:
329,192,477684,1,0,0:0:0:0:
402,192,477684,1,0,0:0:0:0:
256,192,477934,1,0,0:0:0:0:
109,192,477934,1,0,0:0:0:0:
182,192,478184,1,0,0:0:0:0:
256,192,478184,1,0,0:0:0:0:
402,192,478351,1,0,0:0:0:0:
475,192,478351,1,0,0:0:0:0:
329,192,478601,1,0,0:0:0:0:
182,192,478601,1,0,0:0:0:0:
475,192,478851,1,0,0:0:0:0:
402,192,478851,1,0,0:0:0:0:
475,192,479018,1,0,0:0:0:0:
402,192,479018,1,0,0:0:0:0:
256,192,479268,1,0,0:0:0:0:
402,192,479268,1,0,0:0:0:0:
109,192,479518,1,0,0:0:0:0:
256,192,479518,1,0,0:0:0:0:
36,192,479684,1,0,0:0:0:0:
182,192,479684,1,0,0:0:0:0:
182,192,480018,1,0,0:0:0:0:
329,192,480018,1,0,0:0:0:0:
182,192,480184,1,0,0:0:0:0:
329,192,480184,1,0,0:0:0:0:
36,192,480351,1,0,0:0:0:0:
109,192,480518,1,0,0:0:0:0:
182,192,480684,1,0,0:0:0:0:
329,192,480851,1,0,0:0:0:0:
256,192,481018,1,0,0:0:0:0:
109,192,481018,1,0,0:0:0:0:
402,192,481018,1,0,0:0:0:0:
182,192,481184,1,0,0:0:0:0:
36,192,481351,1,0,0:0:0:0:
475,192,481684,1,0,0:0:0:0:
402,192,481851,1,0,0:0:0:0:
329,192,482018,1,0,0:0:0:0:
256,192,482184,1,0,0:0:0:0:
182,192,482351,1,0,0:0:0:0:
36,192,482351,1,0,0:0:0:0:
109,192,482601,1,0,0:0:0:0:
36,192,482601,1,0,0:0:0:0:
182,192,483018,1,0,0:0:0:0:
329,192,483018,1,0,0:0:0:0:
256,192,483268,1,0,0:0:0:0:
402,192,483268,1,0,0:0:0:0:
475,192,483518,1,0,0:0:0:0:
329,192,483518,1,0,0:0:0:0:
402,192,483684,1,0,0:0:0:0:
475,192,483684,1,0,0:0:0:0:
256,192,483934,1,0,0:0:0:0:
475,192,483934,1,0,0:0:0:0:
402,192,484184,1,0,0:0:0:0:
182,192,484184,1,0,0:0:0:0:
36,192,484351,1,0,0:0:0:0:
256,192,484351,1,0,0:0:0:0:
109,192,484684,1,0,0:0:0:0:
329,192,484684,1,0,0:0:0:0:
402,192,484851,1,0,0:0:0:0:
182,192,485018,1,0,0:0:0:0:
402,192,485018,1,0,0:0:0:0:
329,192,485184,1,0,0:0:0:0:
36,192,485351,1,0,0:0:0:0:
256,192,485351,1,0,0:0:0:0:
109,192,485518,1,0,0:0:0:0:
182,192,485601,1,0,0:0:0:0:
256,192,485684,1,0,0:0:0:0:
36,192,485934,1,0,0:0:0:0:
182,192,486184,1,0,0:0:0:0:
329,192,486351,1,0,0:0:0:0:
36,192,486351,1,0,0:0:0:0:
256,192,486601,1,0,0:0:0:0:
36,192,486601,1,0,0:0:0:0:
182,192,486851,1,0,0:0:0:0:
36,192,486851,1,0,0:0:0:0:
109,192,487018,1,0,0:0:0:0:
36,192,487018,1,0,0:0:0:0:
182,192,487351,1,0,0:0:0:0:
36,192,487351,1,0,0:0:0:0:
329,192,487518,1,0,0:0:0:0:
182,192,487518,1,0,0:0:0:0:
475,192,487684,1,0,0:0:0:0:
329,192,487684,1,0,0:0:0:0:
36,192,488018,1,0,0:0:0:0:
109,192,488101,1,0,0:0:0:0:
182,192,488184,1,0,0:0:0:0:
256,192,488268,1,0,0:0:0:0:
329,192,488351,1,0,0:0:0:0:
402,192,488434,1,0,0:0:0:0:
475,192,488518,1,0,0:0:0:0:
402,192,488601,1,0,0:0:0:0:
329,192,488684,1,0,0:0:0:0:
256,192,488768,1,0,0:0:0:0:
182,192,488851,1,0,0:0:0:0:
109,192,488934,1,0,0:0:0:0:
36,192,489018,1,0,0:0:0:0:
182,192,489018,1,0,0:0:0:0:
329,192,489018,1,0,0:0:0:0:
109,192,489684,1,0,0:0:0:0:
256,192,489684,1,0,0:0:0:0:
402,192,489684,1,0,0:0:0:0:
36,192,490351,1,0,0:0:0:0:
182,192,490351,1,0,0:0:0:0:
329,192,490351,1,0,0:0:0:0:
36,192,490684,1,0,0:0:0:0:
182,192,491018,128,0,491351:0:0:0:0:
329,192,491684,1,0,0:0:0:0:
475,192,491684,1,0,0:0:0:0:
182,192,491851,1,0,0:0:0:0:
329,192,491934,1,0,0:0:0:0:
182,192,492018,1,0,0:0:0:0:
329,192,492101,1,0,0:0:0:0:
36,192,492184,1,0,0:0:0:0:
36,192,492351,1,0,0:0:0:0:
256,192,492351,1,0,0:0:0:0:
109,192,492518,1,0,0:0:0:0:
329,192,492518,1,0,0:0:0:0:
182,192,492684,1,0,0:0:0:0:
402,192,492684,1,0,0:0:0:0:
475,192,492851,1,0,0:0:0:0:
256,192,492851,1,0,0:0:0:0:
109,192,493018,128,0,493684:0:0:0:0:
256,192,493018,1,0,0:0:0:0:
402,192,493018,1,0,0:0:0:0:
402,192,493684,1,0,0:0:0:0:
256,192,493684,1,0,0:0:0:0:
182,192,493684,128,0,494351:0:0:0:0:
475,192,494351,1,0,0:0:0:0:
329,192,494351,1,0,0:0:0:0:
256,192,494351,128,0,495018:0:0:0:0:
329,192,495018,128,0,495684:0:0:0:0:
402,192,495018,1,0,0:0:0:0:
182,192,495018,1,0,0:0:0:0:
256,192,495184,1,0,0:0:0:0:
402,192,495351,1,0,0:0:0:0:
256,192,495518,1,0,0:0:0:0:
256,192,495684,128,0,497018:0:0:0:0:
182,192,495684,1,0,0:0:0:0:
109,192,495684,1,0,0:0:0:0:
36,192,495851,1,0,0:0:0:0:
329,192,496018,1,0,0:0:0:0:
36,192,496184,1,0,0:0:0:0:
182,192,496351,1,0,0:0:0:0:
36,192,496518,1,0,0:0:0:0:
329,192,496684,1,0,0:0:0:0:
36,192,496851,1,0,0:0:0:0:
402,192,497018,128,0,498018:0:0:0:0:
475,192,497018,1,0,0:0:0:0:
256,192,498351,1,0,0:0:0:0:
402,192,498351,128,0,499684:0:0:0:0:
109,192,498518,1,0,0:0:0:0:
329,192,498684,1,0,0:0:0:0:
109,192,498851,1,0,0:0:0:0:
256,192,499018,1,0,0:0:0:0:
109,192,499184,1,0,0:0:0:0:
329,192,499351,1,0,0:0:0:0:
109,192,499518,1,0,0:0:0:0:
329,192,499684,128,0,500351:0:0:0:0:
256,192,499684,1,0,0:0:0:0:
182,192,499851,1,0,0:0:0:0:
256,192,500018,1,0,0:0:0:0:
402,192,500184,1,0,0:0:0:0:
256,192,500351,128,0,501018:0:0:0:0:
182,192,500351,1,0,0:0:0:0:
329,192,500518,1,0,0:0:0:0:
36,192,500684,1,0,0:0:0:0:
109,192,500851,1,0,0:0:0:0:
182,192,501018,128,0,502351:0:0:0:0:
402,192,501518,1,0,0:0:0:0:
402,192,501851,1,0,0:0:0:0:
329,192,502018,1,0,0:0:0:0:
256,192,502351,128,0,503018:0:0:0:0:
109,192,502351,1,0,0:0:0:0:
36,192,502518,1,0,0:0:0:0:
182,192,502684,1,0,0:0:0:0:
109,192,502851,1,0,0:0:0:0:
329,192,503018,128,0,503684:0:0:0:0:
402,192,503018,1,0,0:0:0:0:
182,192,503018,1,0,0:0:0:0:
402,192,503684,128,0,505018:0:0:0:0:
109,192,503684,1,0,0:0:0:0:
256,192,503684,1,0,0:0:0:0:
36,192,503851,1,0,0:0:0:0:
182,192,504018,1,0,0:0:0:0:
36,192,504184,1,0,0:0:0:0:
109,192,504351,1,0,0:0:0:0:
36,192,504518,1,0,0:0:0:0:
182,192,504684,1,0,0:0:0:0:
36,192,504851,1,0,0:0:0:0:
109,192,505018,1,0,0:0:0:0:
256,192,505018,1,0,0:0:0:0:
329,192,505018,128,0,505684:0:0:0:0:
475,192,505684,128,0,506351:0:0:0:0:
402,192,506351,128,0,507018:0:0:0:0:
109,192,506351,1,0,0:0:0:0:
256,192,506518,1,0,0:0:0:0:
109,192,506684,1,0,0:0:0:0:
256,192,506851,1,0,0:0:0:0:
329,192,507018,128,0,507684:0:0:0:0:
36,192,507018,1,0,0:0:0:0:
182,192,507184,1,0,0:0:0:0:
36,192,507351,1,0,0:0:0:0:
182,192,507518,1,0,0:0:0:0:
182,192,507684,128,0,508351:0:0:0:0:
256,192,508351,128,0,509018:0:0:0:0:
475,192,508684,1,0,0:0:0:0:
402,192,508768,1,0,0:0:0:0:
329,192,508851,1,0,0:0:0:0:
402,192,509018,128,0,511684:0:0:0:0:
182,192,510351,1,0,0:0:0:0:
182,192,510518,1,0,0:0:0:0:
109,192,510768,1,0,0:0:0:0:
36,192,511018,1,0,0:0:0:0:
109,192,511184,1,0,0:0:0:0:
256,192,511351,1,0,0:0:0:0:
36,192,511518,1,0,0:0:0:0:
109,192,511684,1,0,0:0:0:0:
256,192,511684,1,0,0:0:0:0:
36,192,511851,1,0,0:0:0:0:
182,192,511851,1,0,0:0:0:0:
256,192,512184,1,0,0:0:0:0:
475,192,512184,1,0,0:0:0:0:
182,192,512518,1,0,0:0:0:0:
402,192,512518,1,0,0:0:0:0:
109,192,512851,1,0,0:0:0:0:
329,192,512851,1,0,0:0:0:0:
36,192,514018,1,0,0:0:0:0:
182,192,514018,1,0,0:0:0:0:
329,192,514018,1,0,0:0:0:0:
109,192,514351,1,0,0:0:0:0:
256,192,514351,1,0,0:0:0:0:
402,192,514351,1,0,0:0:0:0:
182,192,515018,128,0,515351:0:0:0:0:
329,192,515018,128,0,515351:0:0:0:0:
109,192,515351,128,0,515684:0:0:0:0:
256,192,515351,128,0,515684:0:0:0:0:
36,192,515684,1,0,0:0:0:0:
182,192,515684,1,0,0:0:0:0:
109,192,515934,1,0,0:0:0:0:
256,192,515934,1,0,0:0:0:0:
182,192,516184,1,0,0:0:0:0:
329,192,516184,1,0,0:0:0:0:
182,192,516351,1,0,0:0:0:0:
329,192,516351,1,0,0:0:0:0:
475,192,516851,1,0,0:0:0:0:
329,192,516851,1,0,0:0:0:0:
475,192,517018,1,0,0:0:0:0:
329,192,517018,1,0,0:0:0:0:
182,192,517018,1,0,0:0:0:0:
402,192,517268,1,0,0:0:0:0:
182,192,517268,1,0,0:0:0:0:
329,192,517518,1,0,0:0:0:0:
109,192,517518,1,0,0:0:0:0:
256,192,517684,1,0,0:0:0:0:
36,192,517684,1,0,0:0:0:0:
329,192,518184,1,0,0:0:0:0:
475,192,518184,1,0,0:0:0:0:
475,192,518351,1,0,0:0:0:0:
329,192,518351,1,0,0:0:0:0:
182,192,518351,1,0,0:0:0:0:
402,192,518601,1,0,0:0:0:0:
182,192,518601,1,0,0:0:0:0:
329,192,518851,1,0,0:0:0:0:
109,192,518851,1,0,0:0:0:0:
256,192,519018,1,0,0:0:0:0:
36,192,519018,1,0,0:0:0:0:
109,192,519268,1,0,0:0:0:0:
329,192,519268,1,0,0:0:0:0:
36,192,519518,1,0,0:0:0:0:
256,192,519518,1,0,0:0:0:0:
182,192,519684,128,0,520351:0:0:0:0:
36,192,519684,128,0,520351:0:0:0:0:
329,192,520351,1,0,0:0:0:0:
475,192,520351,1,0,0:0:0:0:
109,192,520684,1,0,0:0:0:0:
256,192,520684,1,0,0:0:0:0:
256,192,521018,1,0,0:0:0:0:
402,192,521018,1,0,0:0:0:0:
475,192,521184,1,0,0:0:0:0:
329,192,521184,1,0,0:0:0:0:
402,192,521351,1,0,0:0:0:0:
256,192,521351,1,0,0:0:0:0:
182,192,521518,1,0,0:0:0:0:
329,192,521518,1,0,0:0:0:0:
109,192,521518,1,0,0:0:0:0:
109,192,521851,1,0,0:0:0:0:
256,192,521851,1,0,0:0:0:0:
329,192,522018,1,0,0:0:0:0:
182,192,522018,1,0,0:0:0:0:
402,192,522184,1,0,0:0:0:0:
256,192,522184,1,0,0:0:0:0:
36,192,522351,128,0,523684:0:0:0:0:
182,192,522351,128,0,524351:0:0:0:0:
475,192,522351,1,0,0:0:0:0:
256,192,522518,1,0,0:0:0:0:
402,192,522684,1,0,0:0:0:0:
475,192,522851,1,0,0:0:0:0:
402,192,522934,1,0,0:0:0:0:
329,192,523018,1,0,0:0:0:0:
402,192,523184,1,0,0:0:0:0:
109,192,523684,128,0,524351:0:0:0:0:
402,192,523684,1,0,0:0:0:0:
256,192,523851,1,0,0:0:0:0:
329,192,524018,1,0,0:0:0:0:
475,192,524184,1,0,0:0:0:0:
402,192,524268,1,0,0:0:0:0:
329,192,524351,1,0,0:0:0:0:
402,192,524518,1,0,0:0:0:0:
109,192,524684,128,0,525018:0:0:0:0:
256,192,524684,128,0,525018:0:0:0:0:
182,192,525018,128,0,525351:0:0:0:0:
329,192,525018,128,0,525351:0:0:0:0:
109,192,525684,1,0,0:0:0:0:
402,192,525684,1,0,0:0:0:0:
182,192,526018,1,0,0:0:0:0:
329,192,526018,1,0,0:0:0:0:
109,192,526351,1,0,0:0:0:0:
256,192,526351,1,0,0:0:0:0:
402,192,526351,1,0,0:0:0:0:
182,192,526601,1,0,0:0:0:0:
329,192,526601,1,0,0:0:0:0:
402,192,526851,1,0,0:0:0:0:
109,192,526851,1,0,0:0:0:0:
36,192,527018,1,0,0:0:0:0:
475,192,527018,1,0,0:0:0:0:
475,192,527518,1,0,0:0:0:0:
329,192,527518,1,0,0:0:0:0:
475,192,527684,1,0,0:0:0:0:
329,192,527684,1,0,0:0:0:0:
182,192,527684,1,0,0:0:0:0:
402,192,527934,1,0,0:0:0:0:
182,192,527934,1,0,0:0:0:0:
329,192,528184,1,0,0:0:0:0:
109,192,528184,1,0,0:0:0:0:
256,192,528351,1,0,0:0:0:0:
36,192,528351,1,0,0:0:0:0:
329,192,528851,1,0,0:0:0:0:
475,192,528851,1,0,0:0:0:0:
182,192,529018,1,0,0:0:0:0:
329,192,529018,1,0,0:0:0:0:
475,192,529018,1,0,0:0:0:0:
182,192,529268,1,0,0:0:0:0:
402,192,529268,1,0,0:0:0:0:
109,192,529518,1,0,0:0:0:0:
329,192,529518,1,0,0:0:0:0:
36,192,529684,1,0,0:0:0:0:
256,192,529684,1,0,0:0:0:0:
329,192,529934,1,0,0:0:0:0:
109,192,529934,1,0,0:0:0:0:
256,192,530184,1,0,0:0:0:0:
475,192,530184,1,0,0:0:0:0:
182,192,530351,128,0,531018:0:0:0:0:
36,192,530351,128,0,531018:0:0:0:0:
109,192,531018,128,0,531351:0:0:0:0:
182,192,531351,128,0,531684:0:0:0:0:
329,192,531351,1,0,0:0:0:0:
402,192,531351,1,0,0:0:0:0:
109,192,531684,1,0,0:0:0:0:
402,192,531684,1,0,0:0:0:0:
256,192,531851,1,0,0:0:0:0:
475,192,531851,1,0,0:0:0:0:
182,192,532018,1,0,0:0:0:0:
329,192,532018,1,0,0:0:0:0:
256,192,532184,1,0,0:0:0:0:
475,192,532184,1,0,0:0:0:0:
329,192,532184,1,0,0:0:0:0:
109,192,532518,1,0,0:0:0:0:
256,192,532518,1,0,0:0:0:0:
329,192,532518,1,0,0:0:0:0:
182,192,532684,1,0,0:0:0:0:
256,192,532684,1,0,0:0:0:0:
402,192,532684,1,0,0:0:0:0:
475,192,532851,1,0,0:0:0:0:
256,192,532851,1,0,0:0:0:0:
402,192,532851,1,0,0:0:0:0:
475,192,533018,1,0,0:0:0:0:
182,192,533018,1,0,0:0:0:0:
402,192,533018,128,0,534351:0:0:0:0:
36,192,533184,1,0,0:0:0:0:
109,192,533351,1,0,0:0:0:0:
256,192,533518,1,0,0:0:0:0:
182,192,533601,1,0,0:0:0:0:
109,192,533684,1,0,0:0:0:0:
182,192,533851,1,0,0:0:0:0:
475,192,534351,1,0,0:0:0:0:
329,192,534518,1,0,0:0:0:0:
402,192,534684,1,0,0:0:0:0:
256,192,534851,1,0,0:0:0:0:
329,192,535018,1,0,0:0:0:0:
182,192,535184,1,0,0:0:0:0:
256,192,535351,1,0,0:0:0:0:
36,192,535684,1,0,0:0:0:0:
256,192,535684,1,0,0:0:0:0:
475,192,535684,1,0,0:0:0:0:
36,192,535851,1,0,0:0:0:0:
36,192,536018,1,0,0:0:0:0:
402,192,536184,1,0,0:0:0:0:
256,192,536184,1,0,0:0:0:0:
109,192,536184,1,0,0:0:0:0:
109,192,536351,1,0,0:0:0:0:
109,192,536518,1,0,0:0:0:0:
182,192,536684,1,0,0:0:0:0:
329,192,536684,1,0,0:0:0:0:
109,192,537018,1,0,0:0:0:0:
256,192,537018,1,0,0:0:0:0:
402,192,537018,1,0,0:0:0:0:
402,192,537184,1,0,0:0:0:0:
402,192,537351,1,0,0:0:0:0:
36,192,537518,1,0,0:0:0:0:
256,192,537518,1,0,0:0:0:0:
475,192,537518,1,0,0:0:0:0:
475,192,537684,1,0,0:0:0:0:
475,192,537851,1,0,0:0:0:0:
182,192,538018,1,0,0:0:0:0:
329,192,538018,1,0,0:0:0:0:
109,192,538351,1,0,0:0:0:0:
402,192,538351,1,0,0:0:0:0:
109,192,538518,1,0,0:0:0:0:
109,192,538684,1,0,0:0:0:0:
36,192,538851,1,0,0:0:0:0:
475,192,538851,1,0,0:0:0:0:
475,192,539018,1,0,0:0:0:0:
475,192,539184,1,0,0:0:0:0:
182,192,539351,1,0,0:0:0:0:
329,192,539351,1,0,0:0:0:0:
36,192,539684,1,0,0:0:0:0:
475,192,539684,1,0,0:0:0:0:
36,192,539851,1,0,0:0:0:0:
36,192,540018,1,0,0:0:0:0:
109,192,540184,1,0,0:0:0:0:
402,192,540184,1,0,0:0:0:0:
402,192,540351,1,0,0:0:0:0:
402,192,540518,1,0,0:0:0:0:
182,192,540684,1,0,0:0:0:0:
329,192,540684,1,0,0:0:0:0:
475,192,541018,128,0,541518:0:0:0:0:
109,192,541018,1,0,0:0:0:0:
329,192,541018,1,0,0:0:0:0:
182,192,541518,128,0,542018:0:0:0:0:
329,192,541518,1,0,0:0:0:0:
36,192,541518,1,0,0:0:0:0:
402,192,542018,1,0,0:0:0:0:
36,192,542018,1,0,0:0:0:0:
256,192,542351,1,0,0:0:0:0:
402,192,542351,1,0,0:0:0:0:
475,192,542518,1,0,0:0:0:0:
182,192,542684,1,0,0:0:0:0:
329,192,542684,1,0,0:0:0:0:
475,192,542851,1,0,0:0:0:0:
109,192,543018,1,0,0:0:0:0:
256,192,543018,1,0,0:0:0:0:
475,192,543184,1,0,0:0:0:0:
36,192,543351,1,0,0:0:0:0:
182,192,543351,1,0,0:0:0:0:
182,192,543684,1,0,0:0:0:0:
36,192,543684,1,0,0:0:0:0:
329,192,543684,1,0,0:0:0:0:
475,192,543684,1,0,0:0:0:0:
402,192,543851,1,0,0:0:0:0:
402,192,544018,1,0,0:0:0:0:
182,192,544184,1,0,0:0:0:0:
109,192,544184,1,0,0:0:0:0:
329,192,544184,1,0,0:0:0:0:
402,192,544184,1,0,0:0:0:0:
109,192,544351,1,0,0:0:0:0:
109,192,544518,1,0,0:0:0:0:
182,192,544684,1,0,0:0:0:0:
329,192,544684,1,0,0:0:0:0:
109,192,545018,128,0,545684:0:0:0:0:
256,192,545018,128,0,545684:0:0:0:0:
402,192,545018,128,0,545684:0:0:0:0:
36,192,545851,1,0,0:0:0:0:
182,192,545851,1,0,0:0:0:0:
109,192,546018,1,0,0:0:0:0:
256,192,546018,1,0,0:0:0:0:
182,192,546184,1,0,0:0:0:0:
329,192,546184,1,0,0:0:0:0:
329,192,546351,128,0,547018:0:0:0:0:
36,192,546351,1,0,0:0:0:0:
182,192,546351,1,0,0:0:0:0:
36,192,546518,1,0,0:0:0:0:
36,192,546684,1,0,0:0:0:0:
182,192,546851,1,0,0:0:0:0:
475,192,547018,128,0,547684:0:0:0:0:
36,192,547018,1,0,0:0:0:0:
182,192,547184,1,0,0:0:0:0:
402,192,547684,128,0,548351:0:0:0:0:
109,192,547684,1,0,0:0:0:0:
256,192,547684,1,0,0:0:0:0:
109,192,547851,1,0,0:0:0:0:
109,192,548018,1,0,0:0:0:0:
182,192,548184,1,0,0:0:0:0:
329,192,548351,128,0,549018:0:0:0:0:
36,192,548351,1,0,0:0:0:0:
182,192,548518,1,0,0:0:0:0:
402,192,549018,1,0,0:0:0:0:
475,192,549018,1,0,0:0:0:0:
182,192,549184,1,0,0:0:0:0:
256,192,549184,1,0,0:0:0:0:
329,192,549351,1,0,0:0:0:0:
475,192,549351,1,0,0:0:0:0:
256,192,549518,1,0,0:0:0:0:
109,192,549518,128,0,550018:0:0:0:0:
475,192,550018,128,0,550351:0:0:0:0:
329,192,550018,1,0,0:0:0:0:
402,192,550018,1,0,0:0:0:0:
402,192,550351,128,0,550684:0:0:0:0:
256,192,550351,1,0,0:0:0:0:
329,192,550351,1,0,0:0:0:0:
329,192,550684,128,0,551018:0:0:0:0:
182,192,550684,1,0,0:0:0:0:
256,192,550684,1,0,0:0:0:0:
256,192,551018,128,0,551351:0:0:0:0:
109,192,551018,1,0,0:0:0:0:
182,192,551018,1,0,0:0:0:0:
109,192,551351,128,0,551684:0:0:0:0:
182,192,551351,1,0,0:0:0:0:
36,192,551351,1,0,0:0:0:0:
182,192,551684,128,0,552351:0:0:0:0:
256,192,551684,1,0,0:0:0:0:
36,192,551684,1,0,0:0:0:0:
256,192,552351,128,0,553018:0:0:0:0:
109,192,552351,1,0,0:0:0:0:
36,192,552351,1,0,0:0:0:0:
329,192,553018,128,0,553684:0:0:0:0:
182,192,553018,1,0,0:0:0:0:
109,192,553018,1,0,0:0:0:0:
475,192,553684,128,0,554351:0:0:0:0:
256,192,553684,1,0,0:0:0:0:
402,192,553684,1,0,0:0:0:0:
402,192,554351,128,0,555684:0:0:0:0:
256,192,554351,1,0,0:0:0:0:
329,192,554351,1,0,0:0:0:0:
329,192,555684,1,0,0:0:0:0:
475,192,555684,1,0,0:0:0:0:
36,192,555851,1,0,0:0:0:0:
182,192,555851,1,0,0:0:0:0:
329,192,556018,1,0,0:0:0:0:
475,192,556018,1,0,0:0:0:0:
36,192,556184,1,0,0:0:0:0:
182,192,556184,1,0,0:0:0:0:
329,192,556351,1,0,0:0:0:0:
475,192,556351,1,0,0:0:0:0:
36,192,556518,1,0,0:0:0:0:
182,192,556518,1,0,0:0:0:0:
329,192,556684,1,0,0:0:0:0:
475,192,556684,1,0,0:0:0:0:
36,192,557018,1,0,0:0:0:0:
182,192,557018,1,0,0:0:0:0:
329,192,557018,1,0,0:0:0:0:
475,192,557018,1,0,0:0:0:0:
109,192,557518,1,0,0:0:0:0:
182,192,557684,1,0,0:0:0:0:
109,192,558018,1,0,0:0:0:0:
36,192,558351,1,0,0:0:0:0:
256,192,558351,1,0,0:0:0:0:
109,192,558601,1,0,0:0:0:0:
329,192,558601,1,0,0:0:0:0:
182,192,558851,1,0,0:0:0:0:
402,192,558851,1,0,0:0:0:0:
256,192,559018,1,0,0:0:0:0:
475,192,559018,1,0,0:0:0:0:
329,192,559518,1,0,0:0:0:0:
475,192,559518,1,0,0:0:0:0:
329,192,559684,1,0,0:0:0:0:
475,192,559684,1,0,0:0:0:0:
256,192,559934,1,0,0:0:0:0:
402,192,559934,1,0,0:0:0:0:
182,192,560184,1,0,0:0:0:0:
329,192,560184,1,0,0:0:0:0:
109,192,560351,1,0,0:0:0:0:
256,192,560351,1,0,0:0:0:0:
329,192,560851,1,0,0:0:0:0:
475,192,560851,1,0,0:0:0:0:
329,192,561018,1,0,0:0:0:0:
475,192,561018,1,0,0:0:0:0:
256,192,561268,1,0,0:0:0:0:
402,192,561268,1,0,0:0:0:0:
182,192,561518,1,0,0:0:0:0:
329,192,561518,1,0,0:0:0:0:
109,192,561684,1,0,0:0:0:0:
256,192,561684,1,0,0:0:0:0:
402,192,561934,1,0,0:0:0:0:
256,192,561934,1,0,0:0:0:0:
402,192,562184,1,0,0:0:0:0:
475,192,562184,1,0,0:0:0:0:
329,192,562351,1,0,0:0:0:0:
402,192,562351,1,0,0:0:0:0:
109,192,563018,1,0,0:0:0:0:
256,192,563018,1,0,0:0:0:0:
402,192,563018,1,0,0:0:0:0:
36,192,563351,1,0,0:0:0:0:
182,192,563351,1,0,0:0:0:0:
329,192,563351,1,0,0:0:0:0:
36,192,563684,1,0,0:0:0:0:
182,192,563684,1,0,0:0:0:0:
329,192,563851,1,0,0:0:0:0:
475,192,563851,1,0,0:0:0:0:
329,192,564018,1,0,0:0:0:0:
182,192,564184,1,0,0:0:0:0:
36,192,564518,1,0,0:0:0:0:
109,192,564684,1,0,0:0:0:0:
329,192,564851,1,0,0:0:0:0:
256,192,565018,128,0,567018:0:0:0:0:
402,192,565018,128,0,567018:0:0:0:0:
109,192,565018,128,0,567018:0:0:0:0:
329,192,567351,1,0,0:0:0:0:
36,192,567351,1,0,0:0:0:0:
182,192,567351,1,0,0:0:0:0:
402,192,567684,1,0,0:0:0:0:
256,192,567684,1,0,0:0:0:0:
109,192,567684,1,0,0:0:0:0:
329,192,568351,128,0,568684:0:0:0:0:
182,192,568351,128,0,568684:0:0:0:0:
109,192,568684,128,0,569018:0:0:0:0:
256,192,568684,128,0,569018:0:0:0:0:
182,192,569018,1,0,0:0:0:0:
36,192,569018,1,0,0:0:0:0:
256,192,569268,1,0,0:0:0:0:
109,192,569268,1,0,0:0:0:0:
329,192,569518,1,0,0:0:0:0:
182,192,569518,1,0,0:0:0:0:
182,192,569684,1,0,0:0:0:0:
329,192,569684,1,0,0:0:0:0:
475,192,570184,1,0,0:0:0:0:
329,192,570184,1,0,0:0:0:0:
475,192,570351,1,0,0:0:0:0:
182,192,570351,1,0,0:0:0:0:
329,192,570351,1,0,0:0:0:0:
182,192,570601,1,0,0:0:0:0:
402,192,570601,1,0,0:0:0:0:
109,192,570851,1,0,0:0:0:0:
329,192,570851,1,0,0:0:0:0:
36,192,571018,1,0,0:0:0:0:
256,192,571018,1,0,0:0:0:0:
329,192,571518,1,0,0:0:0:0:
475,192,571518,1,0,0:0:0:0:
475,192,571684,1,0,0:0:0:0:
329,192,571684,1,0,0:0:0:0:
182,192,571684,1,0,0:0:0:0:
182,192,571934,1,0,0:0:0:0:
402,192,571934,1,0,0:0:0:0:
109,192,572184,1,0,0:0:0:0:
329,192,572184,1,0,0:0:0:0:
36,192,572351,1,0,0:0:0:0:
256,192,572351,1,0,0:0:0:0:
329,192,572601,1,0,0:0:0:0:
109,192,572601,1,0,0:0:0:0:
256,192,572851,1,0,0:0:0:0:
475,192,572851,1,0,0:0:0:0:
36,192,573018,128,0,573684:0:0:0:0:
182,192,573018,128,0,573684:0:0:0:0:
329,192,573684,1,0,0:0:0:0:
475,192,573684,1,0,0:0:0:0:
256,192,574018,1,0,0:0:0:0:
109,192,574018,1,0,0:0:0:0:
256,192,574351,1,0,0:0:0:0:
402,192,574351,1,0,0:0:0:0:
475,192,574518,1,0,0:0:0:0:
329,192,574518,1,0,0:0:0:0:
256,192,574684,1,0,0:0:0:0:
402,192,574684,1,0,0:0:0:0:
109,192,574851,1,0,0:0:0:0:
182,192,574851,1,0,0:0:0:0:
329,192,574851,1,0,0:0:0:0:
109,192,575184,1,0,0:0:0:0:
256,192,575184,1,0,0:0:0:0:
329,192,575351,1,0,0:0:0:0:
182,192,575351,1,0,0:0:0:0:
402,192,575518,1,0,0:0:0:0:
256,192,575518,1,0,0:0:0:0:
36,192,575684,128,0,577018:0:0:0:0:
182,192,575684,128,0,577018:0:0:0:0:
475,192,575684,1,0,0:0:0:0:
256,192,575851,1,0,0:0:0:0:
402,192,576018,1,0,0:0:0:0:
475,192,576184,1,0,0:0:0:0:
402,192,576268,1,0,0:0:0:0:
329,192,576351,1,0,0:0:0:0:
402,192,576518,1,0,0:0:0:0:
329,192,577018,128,0,578351:0:0:0:0:
475,192,577018,128,0,578351:0:0:0:0:
36,192,578351,128,0,579684:0:0:0:0:
109,192,579684,128,0,580184:0:0:0:0:
256,192,580184,128,0,580684:0:0:0:0:
182,192,580684,128,0,581017:0:0:0:0:
36,192,581017,128,0,582351:0:0:0:0:
109,192,582351,1,0,0:0:0:0:
182,192,582684,1,0,0:0:0:0:
256,192,583017,1,0,0:0:0:0:
329,192,583351,1,0,0:0:0:0:
402,192,583684,128,0,585017:0:0:0:0:
329,192,585017,128,0,585517:0:0:0:0:
475,192,585517,128,0,586017:0:0:0:0:
402,192,586017,128,0,586351:0:0:0:0:
475,192,586351,128,0,587684:0:0:0:0:
256,192,587684,1,0,0:0:0:0:
402,192,587684,1,0,0:0:0:0:
182,192,588017,1,0,0:0:0:0:
329,192,588017,1,0,0:0:0:0:
109,192,588351,1,0,0:0:0:0:
256,192,588351,1,0,0:0:0:0:
36,192,588684,1,0,0:0:0:0:
182,192,588684,1,0,0:0:0:0:
182,192,589017,1,0,0:0:0:0:
329,192,589017,1,0,0:0:0:0:
402,192,589017,128,0,590351:0:0:0:0:
109,192,589684,1,0,0:0:0:0:
256,192,589684,1,0,0:0:0:0:
109,192,589851,1,0,0:0:0:0:
109,192,590017,1,0,0:0:0:0:
109,192,590351,1,0,0:0:0:0:
182,192,590351,1,0,0:0:0:0:
329,192,590351,128,0,591684:0:0:0:0:
36,192,591017,1,0,0:0:0:0:
182,192,591017,1,0,0:0:0:0:
256,192,591684,128,0,592351:0:0:0:0:
182,192,591684,1,0,0:0:0:0:
329,192,592351,128,0,593684:0:0:0:0:
402,192,592351,1,0,0:0:0:0:
402,192,593684,128,0,594351:0:0:0:0:
256,192,593684,1,0,0:0:0:0:
475,192,594351,128,0,595684:0:0:0:0:
329,192,594351,1,0,0:0:0:0:
182,192,595017,1,0,0:0:0:0:
109,192,595184,1,0,0:0:0:0:
182,192,595351,1,0,0:0:0:0:
182,192,595684,1,0,0:0:0:0:
329,192,595684,1,0,0:0:0:0:
402,192,595684,1,0,0:0:0:0:
402,192,596184,1,0,0:0:0:0:
329,192,596184,1,0,0:0:0:0:
109,192,596184,1,0,0:0:0:0:
329,192,596684,1,0,0:0:0:0:
256,192,596684,1,0,0:0:0:0:
36,192,596684,1,0,0:0:0:0:
256,192,597017,1,0,0:0:0:0:
109,192,597017,1,0,0:0:0:0:
36,192,597017,128,0,599517:0:0:0:0:
329,192,598017,1,0,0:0:0:0:
402,192,598184,1,0,0:0:0:0:
475,192,598351,1,0,0:0:0:0:
402,192,598517,1,0,0:0:0:0:
329,192,598684,1,0,0:0:0:0:
402,192,598851,1,0,0:0:0:0:
329,192,599017,1,0,0:0:0:0:
256,192,599184,1,0,0:0:0:0:
182,192,599351,1,0,0:0:0:0:
109,192,599517,1,0,0:0:0:0:
109,192,600351,1,0,0:0:0:0:
182,192,600351,1,0,0:0:0:0:
329,192,600351,1,0,0:0:0:0:
402,192,600351,1,0,0:0:0:0:
