osu file format v9

[General]
AudioFilename: Analogue.mp3
AudioLeadIn: 0
PreviewTime: 50381
Countdown: 0
SampleSet: Normal
StackLeniency: 0.7
Mode: 1
LetterboxInBreaks: 1

[Editor]
DistanceSpacing: 1
BeatDivisor: 4
GridSize: 4

[Metadata]
Title:Analogue
Artist:a-ha
Creator:Saturos-fangirl
Version:Taiko Hard
Source:
Tags:Shiro Odaril SG SapphireGhost CDFA Taiko

[Difficulty]
HPDrainRate:5
CircleSize:5
OverallDifficulty:6
ApproachRate:5
SliderMultiplier:1.4
SliderTickRate:2

[Events]
//Background and Video events
0,0,"ahaAnalogueWallpaper.jpg"
//Break Periods
//Storyboard Layer 0 (Background)
//Storyboard Layer 1 (Fail)
//Storyboard Layer 2 (Pass)
//Storyboard Layer 3 (Foreground)
//Storyboard Sound Samples
//Background Colour Transformations
3,100,190,192,194

[TimingPoints]
334,521.426274669981,4,1,0,56,1,0
47588,-100,4,1,0,71,0,0
49413,-100,4,1,0,80,0,0
49674,-100,4,1,0,91,0,0
49934,-100,4,1,0,100,0,0
50195,-100,4,1,0,81,0,0
50390,-100,4,1,0,82,0,1
55169,-100,4,1,0,66,0,1
55430,-100,4,1,0,82,0,1
63512,-100,4,1,0,60,0,1
63773,-100,4,1,0,82,0,1
67794,-100,4,1,0,71,0,1
68316,-100,4,1,0,59,0,1
68837,-100,4,1,0,100,0,1
69162,-100,4,1,0,100,0,0
69422,-100,4,1,0,67,0,0
73270,-100,4,1,0,58,0,0
94054,-100,4,1,0,43,0,0
94314,-100,4,1,0,58,0,0
104448,-100,4,1,0,37,0,0
104708,-100,4,1,0,58,0,0
109903,-100,4,1,0,71,0,0
110164,-100,4,1,0,81,0,0
110424,-100,4,1,0,100,0,0
110685,-100,4,1,0,71,0,0
110876,-100,4,1,0,82,0,1
115659,-100,4,1,0,67,0,1
115920,-100,4,1,0,82,0,1
124003,-100,4,1,0,64,0,1
124263,-100,4,1,0,82,0,1
129387,-100,4,1,0,70,0,0
133294,-100,4,1,0,55,0,0
133815,-100,4,1,0,80,0,0
148285,-100,4,1,0,55,0,0
148546,-100,4,1,0,80,0,0
151901,-100,4,1,0,93,0,0
152162,-100,4,1,0,50,0,0
152533,-100,4,1,0,70,0,0
156574,-100,4,1,0,58,0,0
162832,-100,4,1,0,40,0,0
164189,-100,4,1,0,55,0,0
164657,-100,4,1,0,70,0,0
164918,-100,4,1,0,89,0,0
165104,-100,4,1,0,82,0,1
169892,-100,4,1,0,64,0,1
170152,-100,4,1,0,82,0,1
178235,-100,4,1,0,67,0,1
178496,-100,4,1,0,82,0,1
181790,-100,4,1,0,60,0,0
203036,-100,4,1,0,66,0,0
203818,-100,4,1,0,60,0,0
209393,-100,4,1,0,75,0,0
219411,-100,4,2,0,5,0,0

[Colours]
Combo1 : 64,128,128
Combo2 : 128,128,192

[HitObjects]
256,192,8676,1,0
360,192,8937,5,8
256,192,9198,5,0
360,192,9719,5,8
256,192,10241,5,0
360,192,10501,5,8
256,192,10762,5,0
360,192,11283,5,8
360,192,11805,1,8
256,192,11935,5,0
256,192,12066,1,0
256,192,12196,1,0
360,192,12326,5,8
360,192,12587,1,8
256,192,12848,5,0
360,192,13108,5,8
256,192,13369,5,0
360,192,13891,5,8
256,192,14412,5,0
360,192,14673,5,8
256,192,14933,5,0
360,192,15455,5,8
256,192,15716,5,0
364,192,15976,5,8
360,192,16498,1,8
360,192,16628,1,8
360,192,16758,1,8
360,192,16889,1,8
252,192,17019,5,0
256,192,17280,1,0
360,192,17541,5,8
256,192,17801,5,0
360,192,18062,5,8
256,192,18323,5,0
360,192,18583,5,8
256,192,18714,5,0
256,192,18844,1,0
360,192,19105,5,8
256,192,19366,5,0
360,192,19626,5,8
256,192,19887,5,0
256,192,20148,1,0
360,192,20278,5,8
256,192,20539,5,0
360,192,20669,5,8
360,192,20930,1,8
308,116,21191,5,4
260,192,21451,1,0
360,192,21712,5,8
256,192,21973,5,0
360,192,22233,5,8
260,192,22494,5,0
360,192,22755,5,8
260,192,22885,5,0
260,192,23016,1,0
360,192,23276,5,8
256,192,23537,5,0
360,192,23798,5,8
260,192,24058,5,0
260,192,24319,1,0
360,192,24449,5,8
256,192,24710,5,0
360,188,24841,5,8
360,192,25101,1,8
316,100,25362,5,4
260,192,25623,1,0
360,192,25883,5,8
256,192,26144,5,0
360,188,26405,5,8
260,192,26666,5,0
360,192,26926,5,8
260,192,27187,5,0
256,192,27317,1,0
360,192,27448,5,8
260,192,27708,5,0
360,188,27969,5,8
260,192,28230,5,0
260,192,28491,1,0
360,192,28621,5,8
256,192,28882,5,0
360,192,29012,5,8
360,188,29273,1,8
304,108,29533,5,4
260,192,29794,1,0
360,192,30055,5,8
256,192,30316,5,0
360,192,30576,5,8
260,192,30837,5,0
360,192,31098,5,8
260,192,31358,5,0
256,192,31489,1,0
360,192,31619,5,8
256,192,31880,5,0
360,192,32141,5,8
260,192,32401,5,0
260,192,32662,1,0
360,192,32923,5,8
360,192,33183,1,8
360,192,33314,1,8
360,192,33444,1,8
360,192,33574,1,8
256,192,33705,5,0
360,192,33965,5,8
256,192,34226,5,0
360,192,34748,5,8
256,192,35269,5,0
360,192,35530,5,8
256,192,35790,5,0
360,192,36312,5,8
256,192,36573,5,0
360,192,36833,5,8
360,192,36964,1,8
360,192,37094,1,8
360,192,37224,1,8
256,192,37355,5,0
360,192,37615,5,8
308,108,37876,5,4
360,192,38137,5,8
256,192,38398,5,0
360,192,38919,5,8
256,192,39440,5,0
360,192,39701,5,8
256,192,39962,5,0
360,192,40483,5,8
360,192,40614,1,8
256,192,40744,5,0
360,192,41005,5,8
256,192,41265,5,0
360,192,41526,5,8
360,192,41787,1,8
256,192,42048,5,0
260,196,42178,1,0
360,192,42308,5,8
256,192,42569,5,0
360,192,43090,5,8
256,192,43612,5,0
360,192,43873,5,8
256,192,44133,5,0
360,192,44655,5,8
256,192,44915,5,0
360,192,45176,5,8
360,192,45307,1,8
256,192,45437,5,0
360,192,45698,5,8
360,192,45958,1,8
304,116,46219,5,4
360,192,46480,5,8
256,192,46740,5,0
360,192,47262,5,8
360,192,47783,1,8
256,192,48044,5,0
304,112,48305,1,4
256,192,48565,1,0
256,192,48826,1,0
256,192,48957,1,0
256,192,49087,1,0
256,192,49348,1,0
304,112,49608,5,12
404,112,49869,1,12
404,112,50130,1,12
364,192,50390,1,12
256,192,50651,5,0
256,192,50781,1,0
404,112,50912,5,8
256,192,51173,5,0
404,112,51433,5,8
256,192,51694,5,0
256,192,51824,1,0
404,112,51955,5,8
256,192,52215,5,0
364,192,52476,5,8
256,192,52606,5,0
256,192,52737,1,0
404,112,52998,5,8
304,112,53258,5,4
364,192,53519,5,8
304,112,53780,5,4
364,192,54040,5,8
304,112,54301,5,4
364,192,54562,5,8
256,192,54692,5,0
256,192,54823,1,0
408,84,55083,5,8
256,192,55214,5,0
256,192,55344,1,0
364,192,55605,5,8
256,192,55865,5,0
256,192,55996,1,0
364,192,56126,5,8
308,112,56387,5,0
364,192,56648,5,8
308,112,56908,5,0
364,192,57169,5,8
364,192,57299,1,8
256,192,57430,5,0
364,192,57690,5,8
256,192,57821,5,0
256,192,58081,1,0
364,192,58212,5,8
364,192,58473,1,8
304,120,58733,5,4
256,192,58994,1,0
400,104,59255,5,8
256,192,59385,5,0
256,192,59515,1,0
364,192,59776,5,8
256,192,59906,5,0
256,192,60037,1,0
256,192,60298,1,0
364,192,60558,5,8
256,192,60819,5,0
256,192,60949,1,0
400,104,61080,5,8
400,104,61340,1,8
304,112,61601,5,4
364,192,61862,5,8
304,112,62123,5,4
364,192,62383,5,8
304,112,62644,5,4
256,192,62905,1,0
256,192,63035,1,0
404,104,63165,5,8
404,104,63426,1,8
256,192,63556,5,0
256,192,63687,1,0
256,192,63948,1,0
364,192,64208,5,8
256,192,64339,5,0
364,192,64469,5,8
364,192,64730,1,8
364,192,64990,5,0
308,112,65121,1,0
364,192,65251,5,8
364,192,65512,1,8
364,192,65642,1,8
256,192,65772,5,0
364,192,66033,5,8
256,192,66294,5,0
364,192,66555,5,8
364,192,66685,1,8
256,192,66815,5,0
364,192,67076,5,8
256,192,67337,5,0
364,192,67597,5,8
364,192,67728,1,8
256,192,67858,5,0
364,192,68119,5,8
256,192,68249,5,0
256,192,68510,1,0
364,192,68640,5,8
256,192,68901,5,0
308,120,69162,1,4
364,192,69422,5,8
256,192,69683,5,0
256,192,69944,1,0
360,192,70205,5,8
256,192,70465,5,0
256,192,70726,1,0
365,193,70987,5,8
256,192,71247,5,0
256,192,71508,1,0
364,192,71769,5,8
256,192,72030,5,0
364,192,72290,5,8
364,192,72421,1,8
364,192,72551,1,8
364,192,72681,1,8
256,192,72812,5,0
256,192,73072,1,0
256,192,73333,1,0
364,192,73594,5,8
256,192,73855,5,0
256,192,74115,1,0
364,192,74376,5,8
256,192,74637,5,0
256,192,74897,1,0
364,192,75158,5,8
256,192,75419,5,0
256,192,75680,1,0
364,192,75940,5,8
364,192,76201,1,8
256,192,76462,5,0
256,192,76722,1,0
364,192,76983,5,8
364,192,77114,1,8
364,192,77244,1,8
364,192,77374,1,8
308,104,77505,5,0
256,192,77765,1,0
360,192,78026,5,8
256,192,78287,5,0
360,192,78547,5,8
256,192,78808,5,0
360,192,79069,5,8
256,192,79199,5,0
256,192,79330,1,0
360,192,79590,5,8
256,192,79851,5,0
360,192,80112,5,8
256,192,80372,5,0
256,192,80633,1,0
360,192,80764,5,8
256,192,81024,5,0
360,192,81155,5,8
360,192,81415,1,8
308,116,81676,5,4
260,192,81937,1,0
360,192,82197,5,8
256,192,82458,5,0
360,192,82719,5,8
260,192,82980,5,0
360,192,83240,5,8
260,192,83371,5,0
260,192,83501,1,0
360,192,83762,5,8
256,192,84022,5,0
360,192,84283,5,8
260,192,84544,5,0
260,192,84805,1,0
360,192,84935,5,8
256,192,85196,5,0
360,188,85326,5,8
360,192,85587,1,8
316,100,85847,5,4
260,192,86108,1,0
360,192,86369,5,8
256,192,86630,5,0
360,192,86890,5,8
256,192,87151,5,0
360,192,87412,5,8
256,192,87542,5,0
256,192,87672,1,0
360,192,87933,5,8
256,192,88194,5,0
360,192,88455,5,8
256,192,88715,5,0
256,192,88976,1,0
360,192,89106,5,8
256,192,89367,5,0
360,192,89497,5,8
360,192,89758,1,8
308,116,90019,5,4
260,192,90280,1,0
360,192,90540,5,8
360,192,90671,1,8
256,192,90801,5,0
360,192,91062,5,8
260,192,91322,5,0
360,192,91583,5,8
260,192,91844,5,0
360,192,92105,5,8
360,192,92235,1,8
256,192,92365,5,0
360,192,92626,5,8
260,192,92887,5,0
260,192,93147,1,0
360,192,93278,5,8
256,192,93538,5,0
360,188,93669,5,8
360,192,93930,1,8
316,100,94190,5,4
260,192,94451,1,0
360,192,94581,5,8
260,192,94712,5,0
256,192,94972,1,0
360,192,95233,5,8
360,192,95494,1,8
260,192,95755,5,0
260,192,96015,1,0
304,104,96276,1,4
372,192,96667,5,8
372,192,97058,1,8
304,104,97319,5,4
304,104,97840,1,4
260,192,98362,1,0
376,192,98622,5,8
260,192,98883,5,0
260,192,99144,1,0
376,192,99404,5,8
260,192,99665,5,0
260,192,99926,1,0
376,192,100187,5,8
260,192,100447,5,0
260,192,100708,1,0
376,192,100969,5,8
376,192,101099,1,8
260,192,101229,5,0
260,192,101490,1,0
260,192,101751,1,0
376,192,102012,5,8
260,192,102142,5,0
376,192,102272,5,8
312,112,102533,5,4
260,192,102794,1,0
364,192,103054,5,8
256,192,103315,5,0
360,192,103576,5,8
360,192,103837,1,8
260,192,104097,5,0
260,192,104358,1,0
304,104,104619,1,4
372,192,105010,5,8
372,192,105401,1,8
304,104,105662,5,4
304,104,106183,1,4
256,192,106704,1,0
372,192,106965,5,8
256,192,107226,5,0
256,192,107487,1,0
372,192,107747,5,8
256,192,108008,5,0
256,192,108269,1,0
372,192,108529,5,8
304,112,108790,5,4
256,192,109051,1,0
256,192,109312,1,0
256,192,109442,1,0
256,192,109572,1,0
256,192,109833,1,0
304,112,110094,5,12
404,112,110354,1,12
404,112,110615,1,12
364,192,110876,1,12
256,192,111137,5,0
256,192,111267,1,0
404,112,111397,5,8
256,192,111658,5,0
404,112,111919,5,8
256,192,112179,5,0
256,192,112310,1,0
404,112,112440,5,8
256,192,112701,5,0
404,112,112962,5,8
256,192,113092,5,0
256,192,113222,1,0
404,112,113483,5,8
304,112,113744,5,4
364,192,114004,5,8
304,112,114265,5,4
364,192,114526,5,8
304,112,114787,5,4
256,192,115047,1,0
256,192,115178,1,0
364,192,115308,5,8
408,84,115569,1,8
256,192,115699,5,0
256,192,115829,1,0
364,192,116090,5,8
256,192,116351,5,0
256,192,116481,1,0
364,192,116612,5,8
256,192,116872,5,0
364,192,117133,5,8
256,192,117394,5,0
364,192,117654,5,8
364,192,117785,1,8
256,192,117915,5,0
364,192,118176,5,8
256,192,118306,5,0
256,192,118567,1,0
364,192,118697,5,8
364,192,118958,1,8
304,120,119219,5,4
364,192,119479,5,8
400,104,119740,1,8
256,192,119870,5,0
256,192,120001,1,0
364,192,120262,5,8
256,192,120392,5,0
256,192,120522,1,0
400,104,120783,5,8
256,192,120913,5,0
364,192,121044,5,8
364,192,121304,1,8
256,192,121565,5,0
256,192,121695,1,0
364,192,121826,5,8
304,112,122087,5,0
364,192,122347,5,8
256,192,122478,5,0
364,192,122608,5,8
364,192,122869,1,8
256,192,123129,5,0
364,192,123390,5,8
256,192,123520,5,0
404,104,123651,1,0
404,104,123912,5,8
256,192,124042,5,0
256,192,124172,1,0
256,192,124433,1,0
256,192,124694,1,0
256,192,124954,1,0
400,192,125215,5,8
400,192,125345,1,8
256,192,125476,5,0
400,192,125737,5,8
400,192,125867,1,8
256,192,125997,5,0
256,192,126258,1,0
256,192,126388,1,0
400,192,126519,5,8
256,192,126779,5,8
400,192,127040,5,0
256,192,127301,5,0
324,108,127562,5,12
256,192,127822,5,0
256,192,128083,1,0
256,192,128344,1,0
256,192,128474,1,0
400,192,128604,5,8
256,192,128865,5,0
256,192,129126,1,0
400,192,129387,5,8
256,192,129647,5,0
400,192,130038,5,8
256,192,130429,5,0
256,192,130690,1,0
400,192,131081,5,8
256,192,131472,5,0
400,192,131733,5,8
256,192,131994,5,0
256,192,132254,1,0
256,192,132515,1,0
256,192,132645,1,0
400,192,132776,5,8
256,192,133036,5,0
256,192,133297,1,0
256,192,133558,1,0
256,192,134079,1,0
400,192,134340,5,8
256,192,134601,5,0
256,192,134731,1,0
256,192,134861,1,0
400,192,135122,5,8
256,192,135383,5,0
256,192,135644,1,0
256,192,135904,1,0
400,192,136165,5,8
256,192,136295,5,0
400,192,136426,5,8
256,192,136686,5,0
400,192,136947,5,8
256,192,137208,5,0
256,192,137469,1,0
400,192,137729,5,8
256,192,137990,5,0
400,192,138251,5,8
260,192,138511,5,0
400,192,138772,5,8
256,192,139033,5,0
256,192,139294,1,0
384,192,139554,5,8
256,192,139815,5,0
312,112,140076,1,4
256,192,140336,1,0
384,192,140597,5,8
256,192,140858,5,0
256,192,141119,1,0
256,192,141379,1,0
384,192,141640,5,8
256,192,141901,1,8
312,108,142161,5,4
256,192,142422,1,0
384,192,142683,5,8
256,192,142944,5,0
256,192,143204,1,0
256,192,143465,1,0
384,192,143726,5,8
256,192,143986,5,0
316,108,144247,1,4
256,192,144508,1,0
384,192,144769,5,8
256,192,145029,5,0
256,192,145290,1,0
256,192,145551,1,0
384,192,145811,5,8
256,192,146072,1,8
320,112,146333,5,4
256,192,146594,1,0
384,192,146854,5,8
256,192,147115,5,0
256,192,147376,1,0
256,192,147636,1,0
384,192,147897,5,8
256,192,148158,1,8
316,100,148419,5,4
260,192,148679,1,0
360,192,148810,5,8
260,192,148940,5,0
256,192,149201,1,0
360,192,149461,5,8
360,192,149722,1,8
260,192,149983,5,0
260,192,150244,1,0
304,104,150504,1,4
372,192,150895,5,8
372,192,151286,1,8
304,104,151547,5,4
304,104,152069,1,4
304,104,152590,5,12
256,192,153372,5,0
256,192,153894,1,0
384,192,154154,5,8
256,192,154415,5,0
256,192,154936,1,0
256,192,155458,1,0
384,192,155719,5,8
384,192,156240,1,8
256,192,156761,5,0
256,192,157022,1,0
384,192,157283,5,8
256,192,157544,5,0
256,192,157804,1,0
384,192,158065,5,8
256,192,158326,5,0
384,192,158586,5,8
256,192,158847,5,0
256,192,159108,1,0
384,192,159369,5,8
256,192,159629,5,0
256,192,159890,1,0
384,192,160151,5,8
256,192,160411,5,0
384,192,160672,5,8
256,192,160933,5,0
256,192,161194,1,0
384,192,161454,5,8
256,192,161715,5,0
256,192,161976,1,0
384,192,162236,5,8
256,192,162497,5,0
256,192,162758,5,8
304,112,163018,5,4
304,112,163801,1,4
304,112,164322,5,12
404,112,164583,5,4
404,112,164843,5,12
364,192,165104,5,4
256,192,165365,1,0
256,192,165495,1,0
404,112,165626,5,8
256,192,165886,5,0
404,112,166147,5,8
256,192,166408,5,0
256,192,166538,1,0
404,112,166668,5,8
256,192,166929,5,0
364,192,167190,5,8
256,192,167320,5,0
256,192,167451,1,0
404,112,167711,5,8
304,112,167972,5,4
364,192,168233,5,8
304,112,168493,5,4
364,192,168754,5,8
304,112,169015,5,4
364,192,169276,5,8
256,192,169406,5,0
256,192,169536,1,0
408,84,169797,5,8
256,192,169927,5,0
256,192,170058,1,0
364,192,170318,5,8
256,192,170579,5,0
256,192,170710,1,0
364,192,170840,5,8
364,192,170970,5,0
308,112,171101,5,8
256,192,171231,5,0
364,192,171361,5,8
364,192,171492,1,8
308,112,171622,5,0
364,192,171883,5,8
364,192,172013,1,8
256,192,172143,5,0
364,192,172404,5,8
256,192,172535,5,0
256,192,172795,1,0
364,192,172926,5,8
364,192,173186,1,8
304,120,173447,5,4
256,192,173708,1,0
400,104,173968,5,8
256,192,174099,5,0
256,192,174229,1,0
364,192,174490,5,8
256,192,174751,5,0
364,192,175011,5,8
256,192,175142,5,0
364,192,175272,5,8
256,192,175533,5,0
256,192,175663,1,0
400,104,175793,5,8
400,104,176054,1,8
304,112,176315,5,4
364,192,176576,5,8
304,112,176836,5,4
364,192,177097,5,8
304,112,177358,5,4
364,192,177618,5,8
364,192,177749,1,8
256,192,177879,5,0
404,104,178140,5,8
364,192,178270,1,8
256,192,178401,5,0
256,192,178661,1,0
256,192,178922,1,0
256,192,179052,1,0
364,192,179183,5,8
308,112,179443,1,8
364,192,179704,1,8
256,192,179834,5,0
308,112,179965,1,0
364,192,180226,5,8
364,192,180356,1,8
256,192,180486,5,0
364,192,180747,5,8
256,192,181008,5,0
256,192,181268,1,0
256,192,181529,1,0
304,100,181790,5,12
256,192,182051,5,0
364,192,182311,5,8
256,192,182572,5,0
256,192,182702,1,0
364,192,182833,5,8
256,192,183093,5,0
256,192,183354,1,0
364,192,183615,5,8
364,192,183876,1,8
256,192,184136,5,0
364,192,184397,5,8
364,192,184658,1,8
256,192,184918,5,0
256,192,185049,1,0
364,192,185179,5,8
256,192,185440,5,0
364,192,185701,5,8
256,192,185961,5,0
256,192,186222,1,0
256,192,186352,1,0
364,192,186483,5,8
256,192,186743,5,0
256,192,187004,1,0
304,108,187265,1,4
364,192,187526,5,8
304,108,187786,5,4
364,192,188047,5,8
304,108,188308,5,4
364,192,188568,5,8
252,192,188829,5,0
364,192,189090,5,8
252,192,189351,5,0
364,192,189611,5,8
364,192,189742,1,8
252,192,189872,5,0
300,108,190133,1,4
252,192,190393,1,0
364,192,190654,5,8
252,192,190915,5,0
364,192,191176,5,8
252,192,191436,5,0
252,192,191697,1,0
364,192,191958,5,8
252,192,192479,5,0
364,192,192740,5,8
252,192,193001,5,0
252,192,193261,1,0
252,192,193522,1,0
252,192,194043,1,0
364,192,194304,5,8
252,192,194565,5,0
364,192,194826,5,8
252,192,195347,5,0
252,192,195608,1,0
364,192,195868,5,8
252,192,196129,5,0
364,192,196390,5,8
252,192,196650,5,0
252,192,196911,1,0
364,192,197172,5,8
364,192,197433,1,8
364,192,197693,1,8
252,192,197954,5,0
252,192,198215,1,0
312,108,198475,5,12
252,192,198736,5,0
252,192,198997,1,0
252,192,199258,1,0
252,192,199388,1,0
372,192,199518,5,8
252,192,199779,5,0
252,192,200040,1,0
372,192,200300,5,8
252,192,200822,5,0
372,192,201083,5,8
252,192,201343,5,0
252,192,201604,1,0
372,192,201865,5,8
252,192,202125,5,0
252,192,202386,1,0
372,192,202647,5,8
252,192,202908,5,0
252,192,203168,1,0
252,192,203429,1,0
252,192,203559,1,0
372,192,203690,5,8
252,192,203950,5,0
372,192,204472,5,8
252,192,204733,5,0
252,192,204993,1,0
372,192,205254,5,8
252,192,205515,5,0
372,192,205775,5,8
252,192,206036,5,0
252,192,206558,1,0
372,192,206818,5,8
252,192,207079,5,0
372,192,207340,5,8
252,192,207600,5,0
252,192,207731,1,0
372,192,207861,5,8
252,192,208122,5,0
252,192,208383,1,0
252,192,208643,1,0
372,192,209165,5,8
372,192,209425,1,8
252,192,209686,5,0
252,192,209817,1,0
372,192,209947,5,8
372,192,210208,1,8
252,192,210468,5,0
304,100,210990,1,4
372,192,211250,5,8
372,192,211511,1,8
252,192,211772,5,0
252,192,212033,5,0
372,192,212293,5,8
372,192,212554,1,8
252,192,212815,5,0
308,120,213075,1,4
372,192,213336,5,8
372,192,213597,1,8
252,192,213858,5,0
252,192,214118,1,0
372,192,214379,5,8
372,192,214640,1,8
252,192,214900,5,0
308,112,215161,1,4
372,192,215422,5,8
372,192,215683,1,8
252,192,215943,5,0
252,192,216204,1,0
372,192,216465,5,8
372,192,216725,1,8
252,192,216986,5,0
304,104,217247,1,4
372,192,217508,5,8
372,192,217768,1,8
252,192,218029,5,0
252,192,218290,1,0
372,192,218550,5,8
372,192,218811,1,8
252,192,219072,5,0
308,104,219333,1,4
