osu file format v9

[General]
AudioFilename: Analogue.mp3
AudioLeadIn: 0
PreviewTime: 50381
Countdown: 0
SampleSet: Soft
StackLeniency: 0.7
Mode: 0
LetterboxInBreaks: 1

[Editor]
DistanceSpacing: 1
BeatDivisor: 4
GridSize: 4

[Metadata]
Title:Analogue
Artist:a-ha
Creator:Saturos-fangirl
Version:Easy
Source:
Tags:Shiro Odaril SG SapphireGhost CDFA Taiko

[Difficulty]
HPDrainRate:3
CircleSize:4
OverallDifficulty:2
ApproachRate:4
SliderMultiplier:0.9
SliderTickRate:2

[Events]
//Background and Video events
0,0,"ahaAnalogueWallpaper.jpg"
//Break Periods
2,69362,76706
2,133758,147099
//Storyboard Layer 0 (Background)
//Storyboard Layer 1 (Fail)
//Storyboard Layer 2 (Pass)
//Storyboard Layer 3 (Foreground)
//Storyboard Sound Samples
//Background Colour Transformations
3,100,163,162,255

[TimingPoints]
334,521.426274669981,4,2,1,56,1,0
47588,-100,4,2,1,71,0,0
49413,-100,4,2,1,80,0,0
49674,-100,4,2,1,91,0,0
49934,-100,4,2,1,100,0,0
50195,-100,4,1,0,81,0,0
50390,-100,4,1,0,82,0,1
55169,-100,4,1,0,66,0,1
55430,-100,4,1,0,82,0,1
63512,-100,4,1,0,60,0,1
63773,-100,4,1,0,82,0,1
66946,-100,4,1,0,50,0,1
67794,-100,4,1,0,47,0,1
68316,-100,4,1,0,39,0,1
68837,-100,4,2,0,100,0,1
69162,-100,4,2,0,100,0,0
73270,-100,4,2,1,58,0,0
94054,-100,4,2,1,43,0,0
94314,-100,4,2,1,58,0,0
104448,-100,4,2,1,37,0,0
104708,-100,4,2,1,58,0,0
109903,-100,4,2,1,71,0,0
110164,-100,4,2,1,81,0,0
110424,-100,4,2,1,100,0,0
110685,-100,4,1,0,71,0,0
110876,-100,4,1,0,82,0,1
115659,-100,4,1,0,67,0,1
115920,-100,4,1,0,82,0,1
124003,-100,4,1,0,64,0,1
124263,-100,4,1,0,82,0,1
129387,-100,4,1,0,70,0,0
133294,-100,4,1,0,55,0,0
133815,-100,4,2,1,80,0,0
148285,-100,4,2,1,55,0,0
148546,-100,4,2,1,80,0,0
151901,-100,4,2,1,93,0,0
152162,-100,4,2,1,50,0,0
152533,-100,4,2,1,70,0,0
156574,-100,4,2,1,58,0,0
162832,-100,4,1,0,40,0,0
164189,-100,4,1,0,55,0,0
164657,-100,4,1,0,70,0,0
164918,-100,4,1,0,89,0,0
165104,-100,4,1,0,82,0,1
169892,-100,4,1,0,64,0,1
170152,-100,4,1,0,82,0,1
178235,-100,4,1,0,67,0,1
178496,-100,4,1,0,82,0,1
181790,-100,4,1,0,60,0,0
203036,-100,4,2,1,97,0,0
203818,-100,4,1,0,60,0,0
209393,-100,4,1,0,75,0,0
219411,-100,4,2,0,5,0,0

[Colours]
Combo1 : 236,196,232
Combo2 : 128,128,192
Combo3 : 62,130,98
Combo4 : 0,151,223

[HitObjects]
256,256,8676,1,2
320,88,9719,1,0
184,88,10501,1,2
256,216,11283,1,0
301,138,11805,1,4
213,138,12326,1,4
256,56,12848,5,2
340,160,13630,2,0,B|320:212,1,45
280,280,14412,2,0,B|232:280,1,45
188,196,15194,2,0,B|171:153,1,45
256,196,15976,1,4
400,192,17019,5,0
400,100,17541,1,0
352,100,17801,2,0,B|248:100,1,90,8|0
204,32,18844,2,0,B|308:32,2,90,8|0|8
120,68,20408,2,0,B|120:128,3,45,0|0|0|8
160,196,21712,5,0
216,216,21973,2,0,B|216:120,1,90,8|0
272,196,23016,2,0,B|272:92,1,90,8|0
352,220,24058,5,0
312,260,24319,2,0,B|288:280|240:280|224:248,2,90,8|0|4
388,160,25883,5,0
340,160,26144,2,0,B|244:160,1,90,8|0
188,224,27187,2,0,B|116:296,2,90,8|0|8
236,148,28751,2,0,B|272:192,3,45,0|0|0|8
340,96,30055,6,0,B|292:136,1,45,0|8
360,196,30837,1,0
308,272,31358,1,8
256,196,31880,1,0
128,76,32662,5,0
193,137,33183,1,8
256,197,33705,5,4
432,196,34748,1,0
344,296,35530,1,2
256,192,36312,1,8
192,128,36833,1,2
128,192,37355,1,8
192,256,37876,5,4
320,128,38919,1,8
440,192,39701,1,2
336,280,40483,2,0,B|252:224,1,90,8|0
172,252,41526,2,0,B|220:288,2,45,8|0|4
256,96,43090,5,0
352,192,43873,1,8
392,64,44655,1,8
328,120,45176,1,2
264,172,45698,1,8
192,112,46219,5,4
336,224,47262,1,2
272,288,47783,1,8
184,288,48305,5,4
128,220,48826,2,0,B|128:168,1,45,0|4
188,100,49608,2,0,B|188:144,1,45,0|4
256,192,50390,6,0,B|296:208|309:137|309:137|320:208|364:192,1,180,4|0
308,316,52215,1,4
220,320,52737,1,0
204,232,53258,2,0,B|108:232,1,90
52,160,54301,2,0,B|52:208,1,45
106,116,55083,2,0,B|158:116,1,45,0|8
224,168,55865,6,0,B|195:139|171:188|191:228|232:244|256:266|256:266|280:244|320:228|340:188|316:139|288:168,1,315,0|4
124,232,58733,6,0,B|176:180|72:120|120:60,1,180,4|0
260,68,60558,1,4
272,260,61601,2,0,B|182:260,1,90
120,188,62644,2,0,B|120:268,1,45
40,192,63426,2,0,B|40:140,1,45,0|8
120,188,64208,2,0,B|245:188|245:188|245:264|245:264|317:188|317:188|244:112,1,405,0|0
304,48,67076,5,8
372,108,67597,1,0
436,172,68119,1,8
372,240,68640,1,0
308,300,69162,1,2
112,80,78026,5,0
160,80,78287,2,0,B|264:80,1,90,8|0
304,152,79330,2,0,B|200:152,2,90,8|0|8
368,80,80894,2,0,B|368:136,3,45,0|8|0|8
368,216,82197,5,0
312,232,82458,2,0,B|312:136,1,90,8|0
252,216,83501,2,0,B|252:112,1,90,8|0
172,92,84544,5,0
216,44,84805,2,0,B|240:24|288:24|304:52,2,90,8|0|4
136,136,86369,5,0
176,192,86630,2,0,B|220:180|244:124,1,90
336,136,87672,2,0,B|348:84|408:60,2,90,8|0|0
272,52,89237,2,0,B|228:20,3,45,0|8|0|8
144,72,90540,6,0,B|192:112,1,45,0|8
192,192,91322,1,0
256,256,91844,1,8
320,192,92365,1,0
256,72,93147,5,8
356,32,93669,1,8
432,112,94190,6,0,B|406:166|341:154,1,90,4|0
295,136,94972,2,0,B|181:150|166:267,1,180,8|0
148,312,96276,2,0,B|124:348|72:332,2,67.5,0|8|0
200,28,98362,6,0,B|200:87,1,45,8|0
232,156,99144,2,0,B|280:156,1,45
368,156,99926,2,0,B|368:216,1,45,8|0
344,300,100708,1,0
276,300,100969,2,0,B|196:232,1,90,8|0
112,248,102012,2,0,B|192:320,1,90,8|4
332,192,103315,6,0,B|404:216|468:176|476:96,1,180
440,84,104619,2,0,B|390:75|330:109|314:160,1,135,4|0
192,112,106704,5,4
336,224,107747,1,2
272,288,108269,1,0
184,288,108790,5,4
128,220,109312,2,0,B|128:168,1,45,0|4
188,88,110094,2,0,B|188:152,1,45,8|4
256,192,110876,6,0,B|296:208|309:137|309:137|320:208|364:192,1,180,4|0
308,316,112701,1,4
228,276,113222,1,0
256,192,113744,2,0,B|160:192,1,90
76,196,114787,2,0,B|76:116,1,45
122,96,115569,2,0,B|174:96,1,45,0|8
228,160,116351,6,0,B|199:131|175:180|195:220|236:236|260:258|260:258|284:236|324:220|344:180|320:131|292:160,1,315,0|4
124,232,119219,6,0,B|176:180|72:120|120:60,1,180,4|0
240,12,121044,1,4
280,184,122087,2,0,B|190:184,1,90
104,208,123129,2,0,B|104:144,1,45
108,72,123912,2,0,B|168:72,2,45,0|8|0
272,200,125215,6,0,B|324:192|284:140|296:128,1,90,4|0
224,144,126258,2,0,B|196:116|244:104|240:60,1,90,4|0
256,192,127301,12,4,129387
212,80,130169,5,8
300,80,130690,1,8
256,192,131472,12,0,133558
432,112,148419,6,0,B|406:166|341:154,1,90,4|0
295,136,149201,2,0,B|181:150|166:267,1,180,8|0
148,312,150504,2,0,B|124:348|72:332,2,67.5,0|8|0
256,232,152069,5,8
188,180,152590,2,0,B|160:148|160:108|168:68|204:52|244:28|296:40|324:64|336:84|356:116|352:144|320:184,1,360
256,288,155719,5,2
212,112,156761,6,0,B|20:112,1,180,2|0
300,112,158847,2,0,B|492:112,1,180,2|0
256,192,160933,2,0,B|64:192,1,180,2|0
184,288,163018,5,4
116,224,163540,2,0,B|116:172,3,45,0|4|0|8
208,192,164843,1,8
256,192,165104,6,0,B|296:208|309:137|309:137|320:208|364:192,1,180,4|0
312,320,166929,1,4
256,192,167972,2,0,B|160:192,1,90
80,168,169015,2,0,B|80:224,1,45
108,104,169797,2,0,B|160:104,1,45,0|8
224,160,170579,6,0,B|195:131|171:180|191:220|232:236|256:258|256:258|280:236|320:220|340:180|316:131|288:160,1,315,0|4
124,232,173447,6,0,B|176:180|72:120|120:60,1,180,4|0
240,8,175272,1,4
280,184,176315,2,0,B|190:184,1,90
100,160,177358,2,0,B|100:240,1,45
156,120,178140,2,0,B|216:120,1,45,0|8
256,192,178922,6,0,B|288:192|288:192|328:236|328:236|352:212|352:212|368:192|368:192|400:192,1,180
368,108,180486,1,8
292,64,181008,2,4,B|248:52|248:52|216:84|216:84|164:68,1,135,0|4
256,192,182051,12,4,183615
232,64,184397,6,0,B|288:64,1,45,8|0
256,160,185179,1,0
256,248,185701,2,0,B|256:296,1,45
324,228,186483,2,0,B|324:164,1,45,8|0
324,92,187265,5,4
260,24,187786,1,4
196,92,188308,1,4
260,160,188829,2,0,B|260:232,3,45,0|8|0|8
348,224,190133,5,4
304,280,190654,2,0,B|176:280,1,90,8|4
240,192,191697,2,0,B|296:192,1,45,8|4
264,104,192479,1,8
264,16,193001,1,0
264,104,193522,1,8
288,192,194043,2,0,B|324:228|304:280|236:280|208:232|248:192,1,180,4|8
164,168,195608,1,0
96,80,196129,6,0,B|152:80,1,45,0|8
232,80,196911,2,0,B|176:80,1,45,8|0
165,167,197693,1,0
256,192,198215,12,0,200300
256,332,201083,5,8
200,260,201604,2,0,B|140:260,1,45,0|8
136,128,202647,6,0,B|84:128,2,45,0|0|8
228,128,203690,2,0,B|288:128,1,45,8|0
364,128,204472,1,0
300,192,204993,5,8
364,256,205515,1,0
300,320,206036,1,0
256,192,206297,12,0,208904
256,192,209947,5,0
256,192,210990,1,4
152,108,212815,5,0
152,108,213075,1,4
352,108,214900,5,0
352,108,215161,1,4
352,264,216986,5,0
352,264,217247,1,4
152,264,219072,5,0
152,264,219333,1,0
256,192,219593,12,0,225590
