osu file format v9

[General]
AudioFilename: Analogue.mp3
AudioLeadIn: 0
PreviewTime: 50381
Countdown: 0
SampleSet: Soft
StackLeniency: 0.3
Mode: 0
LetterboxInBreaks: 1

[Editor]
Bookmarks: 18055
DistanceSpacing: 1
BeatDivisor: 4
GridSize: 4

[Metadata]
Title:Analogue
Artist:a-ha
Creator:Saturos-fangirl
Version:Abomination
Source:
Tags:Shiro Odaril SG SapphireGhost CDFA Taiko

[Difficulty]
HPDrainRate:6
CircleSize:5
OverallDifficulty:8
ApproachRate:8
SliderMultiplier:2.6
SliderTickRate:2

[Events]
//Background and Video events
0,0,"ahaAnalogueWallpaper.jpg"
//Break Periods
2,69362,76228
2,133758,147665
//Storyboard Layer 0 (Background)
//Storyboard Layer 1 (Fail)
//Storyboard Layer 2 (Pass)
//Storyboard Layer 3 (Foreground)
//Storyboard Sound Samples
//Background Colour Transformations
3,100,163,162,255

[TimingPoints]
334,521.426274669981,4,2,1,56,1,0
47588,-100,4,2,0,71,0,0
49413,-100,4,2,0,80,0,0
49674,-100,4,2,0,91,0,0
49934,-100,4,2,0,100,0,0
50195,-100,4,1,0,81,0,0
50390,-100,4,1,0,82,0,1
55169,-100,4,1,0,66,0,1
55430,-100,4,1,0,82,0,1
63512,-100,4,1,0,60,0,1
63773,-100,4,1,0,82,0,1
67794,-100,4,1,0,71,0,1
68316,-100,4,1,0,59,0,1
68837,-100,4,2,0,45,0,1
69162,-100,4,2,0,100,0,0
73270,-100,4,2,1,58,0,0
94054,-100,4,2,1,43,0,0
94314,-100,4,2,1,58,0,0
104448,-100,4,2,1,37,0,0
104708,-100,4,2,1,58,0,0
109903,-100,4,2,0,71,0,0
110164,-100,4,2,0,81,0,0
110424,-100,4,2,0,100,0,0
110685,-100,4,1,0,71,0,0
110876,-100,4,1,0,82,0,1
115659,-100,4,1,0,67,0,1
115920,-100,4,1,0,82,0,1
124003,-100,4,1,0,64,0,1
124263,-100,4,1,0,82,0,1
129387,-100,4,1,0,70,0,0
133294,-100,4,1,0,55,0,0
133815,-100,4,2,0,80,0,0
148285,-100,4,2,0,55,0,0
148546,-100,4,2,1,80,0,0
151901,-100,4,2,1,93,0,0
152162,-100,4,2,0,50,0,0
152533,-100,4,2,0,70,0,0
156574,-100,4,2,1,58,0,0
162832,-100,4,1,0,40,0,0
164189,-100,4,1,0,55,0,0
164657,-100,4,1,0,70,0,0
164918,-100,4,1,0,89,0,0
165104,-100,4,1,0,82,0,1
169892,-100,4,1,0,64,0,1
170152,-100,4,1,0,82,0,1
178235,-100,4,1,0,67,0,1
178496,-100,4,1,0,82,0,1
181790,-100,4,1,0,60,0,0
203036,-100,4,2,1,97,0,0
203818,-100,4,1,0,60,0,0
209393,-100,4,1,0,75,0,0
219411,-100,4,2,0,5,0,0

[Colours]
Combo1 : 236,196,232
Combo2 : 128,128,192
Combo3 : 62,130,98
Combo4 : 0,151,223

[HitObjects]
76,60,8676,1,0
76,60,8937,1,2
416,60,9198,1,8
416,360,9458,5,0
416,360,9719,1,2
416,60,9980,1,0
160,276,10241,5,0
160,276,10501,1,2
416,60,10762,1,8
256,60,11023,5,0
256,60,11283,1,2
256,344,11544,1,0
216,240,11805,5,8
296,240,11935,1,0
324,169,12066,1,0
256,120,12196,1,0
187,169,12326,1,2
324,168,12587,1,0
480,352,12848,5,0
256,28,13108,2,0,B|256:168,1,130,2|8
484,28,13630,5,0
256,352,13891,2,0,B|256:222,1,130,2|0
32,352,14412,5,8
256,28,14673,2,0,B|256:158,1,130,2|0
32,32,15194,5,0
256,356,15455,2,0,B|256:216,1,130,8|0
256,356,15976,1,2
356,56,16237,5,0
356,56,16498,1,8
408,92,16628,1,0
432,152,16758,1,0
408,212,16889,1,0
356,248,17019,1,0
256,152,17280,5,0
140,152,17541,2,0,B|232:28,1,130
104,32,18062,2,0,B|16:144,1,130,0|0
23,249,18583,2,0,B|104:352,1,130,8|0
217,336,19105,2,0,B|140:232,1,130
268,192,19626,2,0,B|448:192,1,130
328,84,20148,6,0,B|104:84,1,195
88,132,20669,1,8
128,184,20799,1,0
76,224,20930,1,0
124,268,21060,1,0
72,308,21191,1,0
176,228,21451,5,0
256,124,21712,2,0,B|304:124|304:124|304:156|304:156|360:156,1,130
484,188,22233,1,0
354,228,22494,2,0,B|304:228|304:228|304:260|304:260|256:260,1,130,0|8
180,124,23016,2,0,B|180:240|180:240|176:312|232:348|276:332,1,260
392,332,23798,5,0
464,192,24058,1,0
392,52,24319,1,0
324,192,24580,1,0
256,52,24841,1,8
220,116,24971,1,0
292,116,25101,1,0
256,180,25232,1,0
256,252,25362,1,8
256,52,25623,1,0
188,192,25883,5,0
60,104,26144,2,0,B|20:136|0:188|64:212|120:236|96:284|48:324,1,260
256,192,26926,1,8
452,104,27187,2,0,B|492:136|512:188|448:212|392:236|416:284|464:324,1,260
256,192,27969,1,0
256,356,28230,1,0
256,192,28491,6,0,B|256:40,1,130
256,192,29012,1,8
200,224,29142,1,0
144,192,29273,1,0
144,124,29403,1,0
204,152,29533,1,8
316,80,29794,1,0
452,60,30055,6,0,B|340:140,1,130
60,324,30576,2,0,B|172:244,1,130
60,60,31098,2,0,B|172:140,1,130,8|0
452,324,31619,2,0,B|340:244,1,130
256,8,32141,6,0,B|256:164,1,130,8|0
256,376,32662,2,0,B|256:220,1,130,8|0
256,192,33183,1,0
256,192,33314,1,0
256,192,33444,1,0
256,192,33574,1,0
256,192,33705,5,4
456,192,33965,1,0
56,192,34226,1,8
256,28,34487,1,0
456,192,34748,1,0
256,356,35009,1,0
56,192,35269,1,8
256,28,35530,1,0
256,356,35790,1,0
256,192,36051,5,0
256,28,36312,1,0
256,356,36573,1,0
256,28,36833,1,0
320,56,36964,1,0
352,116,37094,1,0
324,180,37225,1,0
256,192,37355,2,0,B|144:80,1,130,8|0
256,192,37876,6,0,B|368:304,1,130
256,24,38398,1,8
256,192,38658,2,0,B|144:304,1,130
256,24,39180,1,0
192,344,39440,2,0,B|371:344,1,130,8|0
256,24,39962,1,0
340,136,40223,6,0,B|380:128|380:128|368:88|368:88|420:80,1,130,0|8
172,248,40744,2,0,B|132:256|132:256|144:296|144:296|92:304,1,130
256,40,41265,2,0,B|196:100,1,65
210,85,41526,2,0,B|263:139,1,65,8|0
256,132,41787,2,0,B|196:192,1,65
210,177,42048,5,0
256,224,42178,1,0
304,180,42308,1,0
32,52,42569,1,8
32,192,42830,2,0,B|32:264,2,65
480,332,43351,1,0
480,192,43612,2,0,B|480:120,2,65,8|0|0
320,248,44133,1,0
256,368,44394,6,0,B|256:188,1,130,0|8
256,52,44915,1,0
324,108,45176,2,0,B|388:108,1,65
188,168,45437,2,0,B|124:168,1,65
324,232,45698,2,0,B|388:232,1,65,8|0
188,292,45958,2,0,B|124:292,1,65
256,348,46219,6,0,B|256:176,2,130,0|0|8
476,348,47001,2,0,B|476:188,2,130
36,348,47783,2,0,B|36:188,1,130,8|0
256,44,48305,5,4
256,336,48565,1,0
256,336,48696,1,0
256,336,48826,1,0
256,44,49087,1,4
256,116,49608,5,8
321,153,49739,1,0
321,230,49869,1,0
256,268,49999,1,0
190,230,50130,1,8
190,153,50260,1,0
256,116,50390,6,0,B|360:44|420:72|460:136|464:232,1,260,4|8
256,116,51173,1,0
256,116,51433,2,0,B|152:44|92:72|52:136|48:232,1,260,4|8
124,296,52215,1,4
256,248,52476,2,0,B|256:378,1,130
256,28,52998,2,0,B|256:158,1,130,8|0
440,200,53519,2,0,B|300:200,1,130
70,200,54040,2,0,B|200:200,2,130,8|0|0
256,28,54823,5,0
256,28,54953,1,0
256,28,55083,1,8
256,348,55344,1,0
256,348,55474,1,0
256,348,55605,1,0
256,192,55865,5,0
484,32,56126,1,8
256,192,56387,1,0
32,32,56648,1,0
256,192,56908,1,0
28,356,57169,1,8
256,192,57430,1,0
480,364,57690,1,0
256,192,57951,1,0
256,192,58081,1,0
256,192,58212,1,8
256,28,58473,1,0
288,352,58733,6,0,B|288:248|288:248|328:228|352:136|236:116,1,260,4|8
256,192,59515,1,0
224,352,59776,2,0,B|224:248|224:248|184:228|160:136|276:116,1,260,4|8
368,128,60558,2,0,B|324:68|264:52|248:52|188:68|144:128,1,260,4|0
256,192,61340,1,8
384,192,61601,2,0,B|320:192|320:192|320:160|292:136,1,130
128,192,62123,2,0,B|192:192|192:192|192:224|220:248,1,130,0|8
256,8,62644,2,0,B|256:72|264:80|264:80|248:92|248:92|264:116|264:116|248:128,1,130
257,120,63035,1,0
257,120,63165,1,8
352,344,63426,5,0
288,344,63556,1,8
256,288,63687,1,0
224,344,63817,1,0
160,344,63948,1,0
256,192,64208,5,0
480,364,64469,1,8
256,192,64730,1,0
32,28,64990,1,0
256,192,65251,1,0
32,364,65512,1,8
256,192,65772,1,0
480,32,66033,5,0
32,28,66294,1,0
32,364,66555,1,8
480,364,66815,1,0
480,32,67076,5,0
256,32,67337,1,0
32,28,67597,1,8
256,32,67858,1,0
140,192,68119,5,0
140,256,68249,1,0
140,320,68380,1,0
372,320,68640,1,0
372,256,68770,1,0
372,192,68901,1,4
256,112,69162,5,8
256,132,76983,5,0
313,173,77114,1,0
291,240,77244,1,0
220,240,77374,1,0
198,173,77505,5,8
256,320,77765,1,0
313,173,78026,1,8
376,40,78287,2,0,B|448:56|456:136,1,130
456,280,78808,2,0,B|440:352|360:360,1,130,0|8
328,100,79330,2,0,B|400:116|408:196,1,130
328,281,79851,2,0,B|400:265|408:185,1,130,0|8
256,192,80372,2,0,B|128:192,2,130
144,124,81155,5,8
76,136,81285,1,0
36,192,81415,1,0
76,248,81546,1,0
144,260,81676,1,0
144,124,81937,1,0
256,356,82197,5,8
328,248,82458,2,0,B|372:184|372:112,1,130
376,68,82849,2,0,B|380:28|372:-4,1,65
256,36,83240,1,8
184,248,83501,2,0,B|140:184|140:112,1,130
136,68,83892,2,0,B|132:28|140:-4,1,65
256,36,84283,1,8
256,348,84544,5,0
256,316,84674,1,0
256,288,84805,1,0
256,36,85065,1,0
292,244,85326,1,8
224,212,85456,1,0
292,180,85587,1,0
224,148,85717,1,0
156,116,85847,1,0
356,116,86108,1,0
256,348,86369,5,8
64,192,86630,2,0,B|192:192,1,130
448,192,87151,2,0,B|320:192,1,130,0|8
0,64,87672,2,0,B|168:64,1,130
512,64,88194,2,0,B|344:64,1,130,0|8
256,384,88715,2,0,B|256:216,1,130
256,0,89237,5,0
256,0,89497,1,8
256,64,89628,1,0
256,128,89758,1,0
256,192,89888,1,0
256,256,90019,1,0
256,0,90280,1,0
456,48,90540,5,8
400,116,90801,2,0,B|344:176|344:176|352:264|264:312|200:260,1,260
256,192,91583,1,8
284,116,91844,2,0,B|248:80|156:120|168:208|168:208|112:268,1,260
124,48,92626,6,0,B|32:139,1,130,8|0
388,48,93147,2,0,B|479:139,1,130,0|0
256,52,93669,1,8
256,80,93799,1,0
256,108,93930,1,0
256,136,94060,1,0
256,164,94190,6,0,B|384:164|348:240|308:328|460:328,1,260,4|8
256,164,94972,2,0,B|128:164|164:240|204:328|52:328,1,260
256,324,95755,1,8
256,164,96015,1,0
352,112,96276,1,0
256,0,96537,2,0,B|256:72,1,65
96,112,96928,2,0,B|184:112,1,65
256,164,97319,5,0
396,352,97580,1,0
256,164,97840,1,8
116,352,98101,1,0
476,160,98362,6,0,B|476:16,1,130
256,192,98883,1,8
36,224,99144,2,0,B|36:368,1,130
256,192,99665,1,0
36,160,99926,2,0,B|36:16,1,130,8|0
256,192,100447,1,0
476,224,100708,2,0,B|476:368,1,130,0|8
388,76,101490,5,0
288,160,101751,1,0
124,76,102012,1,8
224,160,102272,1,0
256,224,102403,1,0
256,296,102533,2,0,B|324:372|408:336|452:296|444:212,1,260,4|8
242,236,103315,2,0,B|232:172|280:128|360:96|424:168,1,260
340,232,104097,1,8
172,232,104358,1,0
176,324,104619,2,0,B|244:316|252:272|256:236|256:236|260:272|268:316|336:324,1,260,0|8
256,168,105401,1,0
256,168,105531,1,0
256,168,105662,5,0
440,168,105922,1,0
256,168,106183,1,8
72,168,106444,1,0
160,352,106704,2,0,B|160:208,2,130,0|0|8
352,32,107487,2,0,B|352:176,2,130
256,328,108269,1,8
256,56,108529,5,0
126,149,108790,1,4
385,149,109051,1,0
176,302,109312,1,0
335,302,109572,1,4
256,128,110094,5,0
200,160,110224,1,0
200,224,110354,1,8
256,256,110485,1,0
312,224,110615,1,8
312,160,110746,1,0
256,320,110876,6,0,B|184:320|120:256|112:192|120:128|184:64|256:64,1,390,4|0
256,320,111919,2,0,B|328:320|392:256|400:192|392:128|328:64|256:64,1,390,4|0
135,192,112962,2,0,B|195:232|263:188,1,130
144,124,113483,2,0,B|84:84|16:128,1,130,8|0
256,52,114004,2,0,B|304:100,1,65
256,144,114265,2,0,B|208:192,1,65
256,240,114526,2,0,B|304:288,1,65,8|0
256,332,114787,1,0
300,376,114917,1,0
344,332,115047,1,0
320,48,115569,5,8
256,96,115699,1,0
192,48,115829,1,0
256,0,115960,1,0
320,48,116090,1,0
196,192,116351,6,0,B|68:192,1,130,0|8
316,192,116872,2,0,B|444:192,1,130,0|0
256,192,117394,2,0,B|256:56,1,130,0|8
256,192,117915,1,0
256,256,118045,1,0
256,320,118176,1,0
256,192,118437,1,0
256,128,118567,1,0
256,64,118697,1,8
444,64,118958,1,0
444,64,119219,6,0,B|320:64|276:164|308:280|484:308|492:152|408:124|388:160,1,390,4|0
68,64,120262,2,0,B|192:64|236:164|204:280|28:308|20:152|104:124|124:160,1,390,4|0
256,196,121304,1,0
476,256,121565,1,0
256,196,121826,1,8
448,64,122087,6,0,B|304:64,1,130
68,192,122608,2,0,B|204:192,1,130,0|8
448,320,123129,2,0,B|304:320,1,130
256,48,123912,5,8
316,92,124042,1,0
293,163,124172,1,0
218,163,124303,1,0
195,92,124433,1,0
316,92,124694,1,0
216,164,124954,5,8
256,48,125215,1,0
292,164,125476,1,0
256,48,125737,1,0
180,276,125997,1,8
256,48,126258,1,0
332,276,126519,1,0
256,48,126779,1,0
256,360,127040,1,8
256,48,127301,1,0
256,192,127562,12,0,129387
256,192,129908,5,0
480,32,130169,1,8
256,192,130429,1,0
32,32,130690,1,0
56,32,130820,1,0
80,32,130951,1,0
480,352,131211,1,8
456,352,131341,1,0
432,352,131472,1,0
256,192,131733,12,0,133558
256,92,148419,6,0,B|316:120|332:192|424:216|480:204,1,260,4|8
256,92,149201,2,0,B|196:120|180:192|88:216|32:204,1,260
256,32,149983,1,8
256,368,150244,1,0
480,32,150504,5,0
28,32,150895,1,0
256,368,151286,1,0
256,368,151417,1,0
256,368,151547,1,8
480,368,151808,1,0
256,192,152069,1,8
28,368,152329,1,0
256,192,152590,12,0,154676
256,192,155458,5,0
256,28,155719,1,2
256,192,155979,1,0
256,356,156240,1,2
460,64,156761,5,0
324,64,157022,1,0
188,64,157283,1,2
120,64,157413,1,0
52,64,157544,1,0
52,284,157804,5,0
188,284,158065,1,0
256,284,158195,1,0
324,284,158326,1,2
460,284,158586,1,0
460,64,158847,5,0
356,144,159108,1,0
256,60,159369,1,2
256,128,159499,1,0
256,196,159629,1,0
52,284,159890,5,0
52,148,160151,1,0
100,100,160281,1,0
148,148,160411,1,2
148,284,160672,1,0
256,36,160933,5,0
412,192,161194,1,0
256,348,161454,1,2
100,192,161715,1,0
56,36,161976,5,0
456,36,162236,1,0
456,348,162497,1,2
56,348,162758,1,0
256,192,163018,5,4
480,192,163279,1,0
32,192,163540,1,0
256,192,163801,1,4
144,60,164322,5,8
200,116,164452,1,0
256,60,164583,1,4
312,116,164713,1,0
368,60,164843,1,8
256,192,165104,5,4
256,336,165365,1,0
256,264,165495,1,0
256,192,165626,1,8
256,48,165886,1,0
256,120,166017,1,0
256,192,166147,1,0
476,196,166408,1,0
256,192,166668,1,8
32,192,166929,5,0
256,32,167190,1,0
476,196,167451,1,0
256,352,167711,1,8
256,192,167972,5,0
480,32,168233,1,0
256,192,168493,1,0
32,352,168754,1,8
256,192,169015,1,0
32,32,169276,5,0
256,192,169536,1,0
480,352,169797,1,8
256,360,170058,1,0
296,296,170188,1,0
220,296,170318,1,0
192,28,170579,6,0,B|344:28,1,130,0|8
464,124,171101,2,0,B|464:260,1,130
320,352,171622,2,0,B|190:352,1,130,0|8
48,254,172143,2,0,B|48:124,1,130
256,192,172665,1,0
256,192,172795,1,0
256,192,172926,1,8
256,360,173186,1,0
336,124,173447,6,0,B|400:128|400:128|364:72|364:72|424:72|424:72|424:40|424:40|464:16,1,260,4|8
256,192,174229,1,0
176,124,174490,2,0,B|112:128|112:128|148:72|148:72|88:72|88:72|88:40|88:40|48:16,1,260,4|8
132,284,175272,2,0,B|212:240|308:240|380:284,1,260
256,356,176054,1,8
480,356,176315,5,0
480,192,176576,1,0
480,28,176836,1,0
480,192,177097,1,8
256,192,177358,1,0
32,192,177618,1,0
256,124,178140,5,8
320,170,178270,1,0
295,247,178401,1,0
216,247,178531,1,0
191,170,178661,1,0
256,28,178922,5,0
320,172,179183,1,8
256,28,179443,1,0
192,172,179704,1,0
256,28,179965,1,0
312,269,180226,1,8
256,28,180486,1,0
199,269,180747,1,0
256,360,181008,1,0
256,28,181268,1,8
256,28,181529,1,0
256,360,181790,6,0,B|360:324|324:260|284:192|424:152,1,260,4|8
324,52,182572,1,0
192,52,182833,1,4
124,164,183093,2,0,B|231:192|191:260|155:324|259:360,1,260
256,192,184136,5,0
416,48,184397,1,8
96,48,184658,1,0
256,192,184918,1,0
416,148,185179,2,0,B|416:240|392:292|328:304|224:304,1,260
96,148,185961,2,0,B|96:240|120:292|184:304|288:304,1,260,0|8
256,96,186743,1,0
296,32,186874,1,0
220,32,187004,1,0
256,192,187265,5,0
480,32,187526,1,8
256,192,187786,1,0
480,360,188047,1,0
256,192,188308,1,0
32,364,188568,1,8
256,192,188829,1,0
28,32,189090,1,0
256,192,189351,1,0
256,48,189611,1,8
256,120,189742,1,0
256,192,189872,1,0
384,76,190133,6,0,B|444:124|444:268|384:316,1,260,4|8
256,192,190915,1,0
128,76,191176,2,0,B|68:124|68:268|128:316,1,260,4|8
96,20,191958,2,0,B|20:80|16:168|8:236|24:320|108:384,1,390,0|8
256,192,193001,5,0
256,32,193261,1,0
256,192,193522,1,0
256,352,193783,1,8
328,192,194043,1,0
256,120,194174,1,0
184,192,194304,1,0
256,352,194565,1,0
328,120,194826,5,8
256,48,194956,1,0
184,120,195086,1,0
256,312,195347,1,0
256,120,195608,1,0
256,312,195868,1,8
480,224,196129,6,0,B|344:224,2,130
32,224,196911,2,0,B|168:224,2,130,8|0|0
256,32,197693,2,0,B|256:176,1,130,0|8
256,228,198084,1,0
256,296,198215,1,0
256,192,198475,12,0,200300
376,84,200822,5,0
424,84,200952,1,0
472,84,201083,1,8
256,192,201343,1,0
136,300,201604,1,0
88,300,201734,1,0
40,300,201865,1,0
376,300,202125,1,8
424,300,202255,1,0
472,300,202386,1,0
256,192,202647,12,0,204472
256,328,204993,5,0
256,56,205254,1,8
256,328,205515,1,0
256,328,205645,1,0
256,328,205775,1,0
256,192,206036,12,0,208643
256,328,209165,5,0
256,56,209425,1,8
256,328,209686,1,0
256,328,209817,1,0
256,328,209947,1,0
313,210,210208,1,0
291,143,210338,1,0
220,143,210468,1,8
198,210,210599,1,0
256,252,210729,1,0
256,32,210990,5,4
256,328,211250,1,0
472,112,211511,1,8
40,112,211772,1,0
256,232,212033,1,0
40,360,212293,1,0
472,356,212554,1,8
256,152,212815,5,0
256,32,213075,1,4
472,356,213336,2,0,B|472:224,1,130,0|8
40,28,213858,2,0,B|40:160,1,130
256,386,214379,2,0,B|256:256,1,130,0|8
256,384,214900,5,0
256,32,215161,1,4
464,352,215422,1,0
464,32,215683,1,8
48,352,215943,1,0
48,32,216204,1,0
464,188,216465,1,0
48,192,216725,1,8
256,168,216986,5,0
256,100,217116,1,0
256,32,217247,1,4
256,352,217508,1,0
394,111,217768,1,8
117,272,218029,1,0
117,111,218290,1,0
394,272,218550,1,0
256,32,218811,1,8
256,352,219072,5,0
256,284,219202,1,0
256,216,219333,1,4
256,192,219463,12,0,225590
