osu file format v9

[General]
AudioFilename: When I Get Home My Wife Always Pretends to be Dead.mp3
AudioLeadIn: 0
PreviewTime: -1
Countdown: 1
SampleSet: Normal
StackLeniency: 0.7
Mode: 0
LetterboxInBreaks: 1

[Editor]
Bookmarks: 14009,26984,39959
DistanceSpacing: 0.8
BeatDivisor: 4
GridSize: 8

[Metadata]
Title:a
Artist:a
Creator:KBT
Version:Warota
Source:a
Tags:a

[Difficulty]
HPDrainRate:5
CircleSize:4
OverallDifficulty:6
ApproachRate:9
SliderMultiplier:1.4
SliderTickRate:1

[Events]
//Background and Video events
0,0,"BG.png"
//Break Periods
2,91628,104206
//Storyboard Layer 0 (Background)
//Storyboard Layer 1 (Fail)
//Storyboard Layer 2 (Pass)
//Storyboard Layer 3 (Foreground)
//Storyboard Sound Samples
//Background Colour Transformations
3,100,163,162,255

[TimingPoints]
1023,405.405405405405,4,1,1,85,1,0
39941,-100,4,1,1,90,0,1
52509,-100,4,1,1,90,0,0
78860,-100,4,2,1,90,0,1
91148,-100,4,2,1,90,0,1
91350,-100,4,2,1,85,0,1
91428,-100,4,2,1,90,0,0
104630,-100,4,2,1,85,0,0
127437,-100,4,1,0,85,0,0
127639,-100,4,2,1,85,0,0
130275,-100,4,1,1,85,0,0
130752,-100,4,1,1,90,0,1
143320,-100,4,1,1,90,0,0
156022,-100,4,2,1,85,0,0
156224,-100,4,1,1,85,0,0

[Colours]
Combo1 : 128,0,0
Combo2 : 243,12,12
Combo3 : 128,128,0

[HitObjects]
224,112,13995,2,0,B|168:168,1,70,4|8
176,224,14401,2,0,B|232:280,1,70,0|8
288,272,14806,2,0,B|344:216,1,70,0|8
336,160,15212,2,0,B|280:104,1,70,0|8
360,40,15617,6,0,B|416:96,1,70,0|8
408,296,16023,2,0,B|352:352,1,70,0|8
152,344,16428,2,0,B|96:288,1,70,0|8
104,88,16833,2,0,B|160:32,1,70,0|8
216,152,17239,5,0
296,152,17441,1,8
296,232,17644,1,0
216,232,17847,1,8
256,96,18050,5,0
352,192,18252,1,8
256,288,18455,1,0
160,192,18658,1,8
160,96,18860,5,0
352,96,19063,1,8
352,288,19266,1,0
160,288,19468,1,8
256,16,19671,5,0
80,192,19874,1,8
256,368,20077,1,0
432,192,20279,1,8
80,16,20482,5,4
432,16,20685,1,8
432,376,20887,1,0
80,368,21090,1,8
256,192,21293,5,0
256,16,21495,1,8
256,192,21698,1,0
80,192,21901,1,8
256,192,22104,5,4
432,192,22306,1,8
256,192,22509,1,0
256,368,22712,1,8
80,16,22914,5,0
432,368,23117,1,8
432,16,23320,1,0
80,368,23522,1,8
256,40,23725,5,4
104,192,23928,1,8
256,344,24131,1,0
408,192,24333,1,8
315,331,24536,5,4
395,132,24739,1,8
196,52,24941,1,0
116,251,25144,1,8
148,84,25347,5,4
148,299,25550,1,8
363,299,25752,1,4
363,84,25955,1,8
116,132,26158,5,4
196,331,26360,1,8
395,251,26563,1,12
315,52,26766,1,8
104,189,26968,5,4
253,343,27171,1,8
407,194,27374,1,0
258,40,27577,1,8
91,27,27779,5,0
91,356,27982,1,8
420,356,28185,1,0
420,27,28387,1,8
132,68,28590,5,0
132,315,28793,1,8
379,315,28995,1,0
379,68,29198,1,8
163,99,29401,5,0
163,284,29604,1,8
348,284,29806,1,0
348,99,30009,1,8
194,130,30212,5,0
194,253,30414,1,8
317,253,30617,1,0
317,130,30820,1,8
225,161,31022,5,0
225,222,31225,1,8
286,222,31428,1,0
286,161,31631,1,8
225,161,31833,5,0
225,222,32036,1,8
286,222,32239,1,0
286,161,32441,1,8
256,104,32644,5,0
168,192,32847,1,8
344,192,33050,1,0
256,272,33252,1,8
168,104,33455,5,4
344,104,33658,1,8
168,280,33860,1,0
344,280,34063,1,8
256,63,34266,5,0
127,192,34468,1,8
384,192,34671,1,0
256,308,34874,1,8
127,63,35077,5,4
384,63,35279,1,8
127,320,35482,1,0
384,320,35685,1,8
256,21,35887,5,0
85,192,36090,1,8
426,192,36293,1,0
256,347,36495,1,8
85,21,36698,5,4
426,21,36901,1,8
85,362,37104,1,0
426,362,37306,1,8
256,62,37509,5,4
126,191,37712,1,0
385,191,37914,1,0
256,309,38117,1,0
126,62,38320,5,4
385,62,38522,1,8
126,321,38725,1,4
385,321,38928,1,8
256,64,39131,5,8
256,320,39333,1,8
256,192,39536,2,0,B|256:144,2,35
93,109,39941,5,6
338,29,40144,1,2
173,354,40347,1,8
418,274,40550,1,2
184,85,40752,5,2
149,263,40955,1,2
362,120,41158,1,8
321,288,41360,1,2
77,157,41563,5,2
290,13,41766,1,8
221,370,41968,1,2
434,226,42171,1,10
151,116,42374,5,2
180,296,42577,1,10
331,87,42779,1,0
350,260,42982,1,10
76,220,43185,5,2
227,12,43387,1,8
284,371,43590,1,2
435,163,43793,1,8
134,150,43995,5,2
214,313,44198,1,10
297,70,44401,1,8
366,230,44604,1,10
92,271,44806,5,0
176,28,45009,1,2
335,355,45212,1,2
419,112,45414,1,0
127,192,45617,5,4
256,320,45820,1,8
256,63,46023,1,4
372,192,46225,1,12
127,320,46428,5,6
127,63,46631,1,8
384,320,46833,1,0
384,63,47036,1,10
135,238,47239,5,2
302,312,47441,1,10
209,71,47644,1,0
365,150,47847,1,10
182,358,48050,5,0
89,118,48252,1,10
422,265,48455,1,0
329,25,48658,1,10
165,282,48860,5,2
346,282,49063,1,10
165,101,49266,1,0
338,109,49468,1,10
255,373,49671,5,4
74,192,49874,1,10
437,192,50077,1,2
256,10,50279,1,8
72,24,50482,5,6
440,40,50685,1,10
72,88,50887,1,0
440,104,51090,1,10
72,152,51293,1,6
440,168,51495,1,10
72,216,51698,1,4
440,232,51901,1,8
72,280,52104,1,4
440,296,52306,1,8
256,192,52509,1,4
216,32,52914,5,4
296,48,53117,1,8
216,96,53320,1,0
296,112,53523,1,8
216,160,53725,1,0
296,176,53928,1,8
216,224,54131,1,0
296,240,54333,1,8
216,288,54536,1,0
296,304,54739,1,8
144,304,54941,5,0
360,272,55144,1,8
144,232,55347,1,0
360,200,55550,1,8
144,160,55752,1,0
360,128,55955,1,8
144,88,56158,1,0
360,64,56360,1,8
432,344,56563,5,0
80,336,56766,1,8
432,280,56968,1,0
80,272,57171,1,8
432,216,57374,1,0
80,208,57577,1,8
432,152,57779,1,0
80,144,57982,1,8
432,88,58185,1,0
80,80,58387,1,8
432,24,58590,1,0
80,16,58793,1,8
256,192,58995,1,0
256,360,59401,5,4
256,360,59604,1,8
208,312,59806,1,0
304,312,60009,1,8
168,256,60212,1,0
344,256,60414,1,8
128,200,60617,1,0
384,200,60820,1,8
88,144,61023,1,4
424,144,61225,1,8
48,88,61428,1,0
464,88,61631,1,8
8,32,61833,1,0
504,32,62036,1,8
80,32,62239,5,0
456,48,62441,1,8
120,88,62644,1,4
416,96,62847,1,8
160,144,63050,1,0
368,144,63252,1,8
200,192,63455,1,4
320,192,63658,1,8
240,248,63860,1,0
280,248,64063,1,8
264,304,64266,1,4
264,304,64468,1,8
376,304,64671,5,4
136,304,64874,1,8
376,304,65077,1,4
136,304,65279,1,8
24,304,65482,5,4
480,304,65685,1,8
24,192,65887,1,4
480,192,66090,1,8
24,88,66293,1,0
480,88,66495,1,8
24,248,66698,1,0
480,248,66901,1,8
24,144,67104,1,0
480,144,67306,1,8
103,328,67509,5,0
112,47,67712,1,8
400,47,67914,1,0
400,328,68117,1,8
400,328,68320,5,0
400,47,68523,1,8
112,47,68725,1,0
103,328,68928,1,8
142,293,69131,5,0
148,84,69333,1,8
363,84,69536,1,0
363,293,69739,1,8
363,293,69941,5,0
363,84,70144,1,8
148,84,70347,1,0
142,293,70550,1,8
179,260,70752,5,0
183,119,70955,1,8
328,119,71158,1,0
328,260,71360,1,8
328,260,71563,5,0
328,119,71766,1,8
183,119,71968,1,0
179,260,72171,1,8
217,226,72374,5,4
219,156,72577,1,8
292,156,72779,1,0
292,226,72982,1,8
292,226,73185,5,0
292,156,73387,1,8
219,156,73590,1,0
217,226,73793,1,8
253,242,73995,5,4
205,192,74198,1,8
256,141,74401,1,0
305,190,74604,1,8
305,190,74806,5,0
256,141,75009,1,8
205,192,75212,1,0
253,242,75414,1,8
250,296,75617,5,4
151,192,75820,1,8
256,87,76022,1,0
357,189,76225,1,8
357,189,76428,5,4
256,87,76631,1,8
151,192,76833,1,0
250,296,77036,1,8
247,352,77239,5,4
95,191,77441,1,8
256,31,77644,1,8
412,187,77847,1,8
412,187,78050,5,4
256,31,78252,1,8
95,191,78455,2,0,B|96:136,2,35
249,303,78860,5,6
144,192,79063,1,10
256,80,79266,1,0
364,188,79468,1,10
364,188,79671,5,0
256,80,79874,1,10
144,192,80077,1,2
249,303,80279,1,8
172,266,80482,5,2
177,113,80685,1,10
334,113,80887,1,0
334,266,81090,1,10
334,266,81293,5,2
334,113,81495,1,10
177,113,81698,1,0
172,266,81901,1,10
249,303,82104,5,2
144,192,82306,1,8
255,80,82509,1,2
364,188,82712,1,8
364,188,82914,5,2
255,80,83117,1,10
144,192,83320,1,0
249,303,83522,1,10
256,16,83725,5,0
256,368,83928,1,10
328,32,84131,1,2
184,352,84333,1,2
392,64,84536,1,0
120,320,84739,1,0
448,112,84941,1,8
64,272,85144,1,8
256,16,85347,5,0
256,368,85550,1,10
184,32,85753,1,2
328,352,85955,1,2
120,64,86158,1,0
392,320,86361,1,0
64,112,86563,1,8
448,272,86766,1,8
208,192,86968,5,6
304,192,87171,1,10
256,128,87374,5,0
256,256,87577,1,10
136,192,87779,5,0
376,192,87982,1,10
256,56,88185,5,0
256,320,88387,1,10
64,192,88590,5,4
448,192,88793,1,10
224,160,88995,5,2
288,224,89198,1,8
288,160,89401,5,6
224,224,89604,1,10
256,104,89806,5,0
160,192,90009,1,10
256,280,90212,1,6
344,192,90414,1,10
328,120,90617,5,12
176,272,90820,1,8
208,144,91022,1,12
304,240,91225,1,4
256,192,91428,5,4
352,192,104806,5,4
160,192,105009,1,0
352,192,105212,1,2
160,192,105414,1,0
352,192,105617,1,2
160,192,105820,1,2
256,96,106022,5,0
256,192,106225,1,2
256,288,106428,1,2
256,96,106631,1,0
256,288,106833,1,2
256,96,107036,1,0
256,288,107239,1,2
256,96,107441,1,2
256,288,107644,1,0
152,192,107847,5,2
360,192,108050,1,4
256,192,108252,5,0
256,192,108455,1,2
256,24,108658,5,0
32,192,108860,1,2
256,352,109063,1,2
480,192,109266,1,0
256,24,109468,5,2
256,352,109671,1,6
32,192,109874,1,0
480,192,110077,1,0
64,152,110279,5,2
64,280,110482,1,2
192,280,110685,1,0
192,152,110887,1,2
320,152,111090,1,0
320,280,111293,1,4
448,280,111495,1,0
448,152,111698,1,2
256,200,111901,5,0
256,40,112104,1,4
256,352,112306,1,0
256,40,112509,5,2
256,352,112712,1,0
376,80,112914,5,4
136,304,113117,1,0
416,192,113320,5,2
96,192,113522,1,2
368,312,113725,5,4
144,72,113928,1,0
256,40,114131,5,2
256,352,114333,1,2
256,40,114536,5,4
256,352,114739,1,0
208,192,114941,5,2
256,144,115144,1,2
304,192,115347,1,4
256,240,115550,1,0
166,191,115752,5,2
256,102,115955,1,2
345,191,116158,1,4
256,281,116360,1,0
177,150,116563,5,2
297,113,116766,1,2
334,233,116968,1,0
214,270,117171,1,2
166,191,117374,5,2
256,102,117577,1,2
345,192,117779,1,4
256,281,117982,1,0
177,233,118185,5,2
214,113,118387,1,0
334,150,118590,1,4
297,270,118793,1,0
166,191,118995,5,2
256,102,119198,1,2
345,192,119401,1,4
255,281,119604,1,0
97,191,119806,5,2
256,33,120009,1,0
414,191,120212,1,4
255,350,120414,1,0
113,261,120617,5,2
186,49,120820,1,2
398,122,121022,1,4
325,334,121225,1,0
151,311,121428,5,0
136,87,121631,1,2
360,72,121833,1,4
375,296,122036,1,0
214,345,122239,5,0
102,150,122441,1,2
297,38,122644,1,4
409,233,122847,1,0
297,38,123050,5,0
102,150,123252,1,2
214,345,123455,1,4
409,233,123658,1,2
349,63,123860,5,4
127,98,124063,1,2
162,320,124266,1,4
384,285,124468,1,0
174,55,124671,5,2
119,273,124874,1,0
337,328,125077,1,4
392,110,125279,1,0
233,34,125482,5,2
98,214,125685,1,0
278,349,125887,1,4
413,169,126090,1,0
291,37,126293,5,2
101,156,126495,1,0
220,346,126698,1,4
410,227,126901,1,0
349,63,127104,5,2
127,98,127306,1,0
162,320,127509,1,4
384,285,127712,1,0
255,33,127914,5,2
97,192,128117,1,2
255,350,128320,1,0
414,192,128522,1,2
255,86,128725,5,2
150,192,128928,1,2
255,297,129131,1,0
361,192,129333,1,2
255,139,129536,5,2
203,191,129739,1,0
255,244,129941,1,0
308,191,130144,1,0
256,24,130347,5,8
256,360,130550,1,8
256,192,130752,5,4
256,192,130955,1,10
256,304,131158,5,0
256,80,131360,1,10
184,280,131563,5,0
328,104,131766,1,10
144,216,131968,5,2
368,168,132171,1,10
160,136,132374,5,0
352,248,132577,1,10
200,88,132779,5,0
312,296,132982,1,10
256,80,133185,5,0
256,304,133387,1,10
256,192,133590,1,0
80,16,133793,5,10
432,16,133995,1,2
432,368,134198,1,8
80,368,134401,1,2
80,16,134604,5,10
80,368,134806,1,0
432,368,135009,1,10
432,16,135212,1,2
256,192,135414,5,10
256,192,135617,1,0
256,192,135820,1,10
256,192,136022,1,2
200,80,136428,1,12
256,80,136529,1,8
312,80,136631,1,0
408,80,136833,2,0,B|408:40,2,35
312,192,137239,5,4
256,192,137340,1,0
200,192,137441,1,10
104,192,137644,2,0,B|104:144,2,35
200,304,138050,1,2
256,304,138151,1,8
312,304,138252,1,8
408,304,138455,2,0,B|408:264,2,35
288,192,138860,5,0
224,192,139063,1,0
352,192,139266,1,0
160,192,139468,1,0
416,192,139671,1,0
96,192,139874,1,0
480,192,140077,1,0
32,192,140279,1,0
256,352,140482,5,4
256,192,140685,1,10
256,32,140887,1,2
40,352,141090,1,12
40,192,141293,1,2
40,32,141495,1,10
480,352,141698,1,4
480,200,141901,1,10
480,32,142104,1,4
256,32,142306,1,10
256,192,142509,1,6
256,344,142712,1,8
256,192,142914,1,12
256,192,143320,1,12
32,32,143725,5,4
32,192,143928,1,10
32,344,144131,1,0
256,344,144333,1,10
480,352,144536,1,0
480,192,144739,1,10
480,32,144941,1,0
256,32,145144,1,10
32,24,145347,1,2
256,192,145550,1,10
480,352,145752,1,0
480,32,145955,1,10
256,192,146158,1,0
32,360,146360,1,10
256,120,146766,5,10
184,192,146968,1,0
256,264,147171,1,10
328,192,147374,1,0
256,70,147577,5,10
377,192,147779,1,2
256,313,147982,1,8
134,192,148185,1,2
256,17,148387,5,10
81,192,148590,1,0
256,366,148793,1,10
430,192,148995,1,2
256,192,149401,5,4
256,192,149806,1,4
256,64,150212,6,0,B|344:64,1,70,4|10
256,320,150617,2,0,B|168:320,1,70,0|10
256,70,151022,5,2
135,192,151225,1,8
256,313,151428,1,2
378,192,151631,1,8
256,120,151833,5,0
328,192,152036,1,10
256,264,152239,1,0
184,192,152441,1,10
448,40,152644,6,0,B|448:112,1,70,2|8
64,344,153050,2,0,B|64:272,1,70,2|8
256,192,153360,8,0,153362
64,40,153455,2,0,B|152:40,1,70,4|2
448,344,153860,2,0,B|368:344,1,70,10|12
256,24,154266,5,2
112,352,154468,1,10
456,136,154671,1,4
72,128,154874,1,10
400,352,155077,1,4
256,24,155279,1,0
256,192,155482,12,0,156293
