osu file format v9

[General]
AudioFilename: When I Get Home My Wife Always Pretends to be Dead.mp3
AudioLeadIn: 0
PreviewTime: -1
Countdown: 1
SampleSet: Normal
StackLeniency: 0.7
Mode: 0
LetterboxInBreaks: 1

[Editor]
DistanceSpacing: 0.8
BeatDivisor: 8
GridSize: 8

[Metadata]
Title:a
Artist:a
Creator:KBT
Version:Hard
Source:a
Tags:a

[Difficulty]
HPDrainRate:5
CircleSize:4
OverallDifficulty:6
ApproachRate:7
SliderMultiplier:1.4
SliderTickRate:1

[Events]
//Background and Video events
0,0,"BG.png"
//Break Periods
//Storyboard Layer 0 (Background)
//Storyboard Layer 1 (Fail)
//Storyboard Layer 2 (Pass)
//Storyboard Layer 3 (Foreground)
//Storyboard Sound Samples
//Background Colour Transformations
3,100,163,162,255

[TimingPoints]
1023,405.460197323963,4,1,0,100,1,0

[HitObjects]
40,80,14010,6,0,B|40:168,1,70
40,248,14416,2,0,B|40:328,1,70
160,320,14821,2,0,B|160:232,1,70
160,152,15226,2,0,B|160:80,1,70
472,304,15632,6,0,B|472:224,1,70
472,136,16038,2,0,B|472:56,1,70
352,64,16443,2,0,B|352:152,1,70
352,232,16848,2,0,B|352:304,1,70
256,160,17254,6,0,B|304:160,2,35
256,240,17659,2,0,B|216:240,2,35
48,232,18065,6,0,B|48:160,1,70
464,160,18470,2,0,B|464:232,1,70
312,192,18876,5,0
256,192,19078,1,0
200,192,19281,1,0
256,64,19687,5,0
256,328,20092,1,0
288,160,20497,6,0,B|336:96,1,70
288,224,20903,2,0,B|352:272,1,70
224,224,21308,2,0,B|176:288,1,70
224,160,21714,2,0,B|160:112,1,70
256,32,22119,2,0,B|304:32,4,35
256,352,22930,2,0,B|208:352,4,35
224,80,23741,5,0
192,112,23944,1,0
160,144,24147,1,0
280,304,24552,5,0
320,272,24755,1,0
360,240,24958,1,0
304,144,25363,6,0,B|248:200,1,70
208,144,25768,2,0,B|264:200,1,70
208,240,26174,2,0,B|264:184,1,70
304,240,26579,2,0,B|248:184,1,70
120,56,26985,5,0
120,328,27390,1,0
392,328,27796,1,0
392,56,28201,1,0
256,56,28607,6,0,B|216:56,2,35
256,144,29012,2,0,B|304:144,2,35
256,232,29418,2,0,B|208:232,2,35
256,320,29823,2,0,B|304:320,2,35
120,192,30228,6,0,B|272:192,1,140
392,192,31039,2,0,B|240:192,1,140
256,328,31850,6,0,B|256:176,1,140
256,56,32661,2,0,B|256:208,1,140
256,64,33472,5,0
256,152,33878,1,0
256,240,34283,1,0
256,328,34689,1,0
64,328,35094,6,0,B|64:256,1,70
64,168,35499,2,0,B|64:96,1,70
128,32,35905,2,0,B|208:32,1,70
288,32,36310,2,0,B|368:32,1,70
448,56,36716,6,0,B|448:128,1,70
448,216,37121,2,0,B|448:288,1,70
384,352,37527,2,0,B|304:352,1,70
224,352,37932,2,0,B|144:352,1,70
256,192,38338,12,0,39554
392,144,39960,5,0
304,144,40365,1,0
216,144,40770,1,0
128,144,41176,1,0
128,232,41581,1,0
216,232,41987,1,0
304,232,42392,1,0
392,232,42798,1,0
128,144,43203,5,0
216,144,43608,1,0
304,144,44013,1,0
392,144,44419,1,0
392,232,44824,1,0
304,232,45230,1,0
216,232,45635,1,0
128,232,46041,1,0
344,280,46447,6,0,B|376:304,2,35
168,280,46852,2,0,B|144:312,2,35
168,104,47258,2,0,B|136:80,2,35
344,104,47663,2,0,B|368:72,2,35
256,192,48069,6,0,B|224:160,2,35
256,192,48474,2,0,B|224:224,2,35
256,192,48880,2,0,B|288:224,2,35
256,192,49285,2,0,B|288:160,2,35
256,56,49691,5,0
120,192,50096,1,0
256,328,50501,1,0
392,192,50907,1,0
256,192,51312,12,0,52529
312,312,52934,6,0,B|368:264,1,70
200,312,53340,2,0,B|144:264,1,70
312,216,53745,6,0,B|368:168,1,70
200,216,54151,2,0,B|144:168,1,70
304,104,54556,6,0,B|360:56,1,70
200,104,54962,2,0,B|144:56,1,70
304,104,55367,2,0,B|384:104,1,70
200,104,55772,2,0,B|120:104,1,70
304,104,56178,2,0,B|304:184,1,70
200,104,56583,2,0,B|200:184,1,70
304,104,56989,2,0,B|224:104,1,70
200,104,57394,2,0,B|272:104,1,70
304,104,57800,2,0,B|304:32,1,70
200,104,58205,2,0,B|200:32,1,70
256,192,58611,5,0
256,192,59016,1,0
360,192,59422,5,0
360,248,59624,1,0
360,304,59827,1,0
256,304,60233,5,0
200,304,60435,1,0
144,304,60638,1,0
144,192,61043,5,0
144,136,61246,1,0
144,80,61449,1,0
256,80,61854,5,0
312,80,62057,1,0
368,80,62260,1,0
368,176,62665,6,0,B|368:256,1,70
256,248,63071,2,0,B|256:168,1,70
144,176,63476,2,0,B|144:256,1,70
144,336,63882,2,0,B|216:336,1,70
256,192,64287,12,0,65504
256,48,65909,5,0
312,48,66112,1,0
368,48,66314,1,0
256,136,66720,5,0
200,136,66923,1,0
144,136,67125,1,0
256,240,67531,5,0
312,240,67734,1,0
368,240,67936,1,0
256,336,68342,5,0
200,336,68545,1,0
144,336,68747,1,0
32,120,69153,6,0,B|112:120,1,70
152,120,69558,1,0
152,264,69964,6,0,B|232:264,1,70
272,264,70369,1,0
272,120,70774,6,0,B|352:120,1,70
392,120,71180,1,0
392,264,71585,2,0,B|440:264,4,35
64,320,72396,5,0
72,264,72599,1,0
120,240,72802,1,0
256,280,73207,5,0
312,272,73410,1,0
336,224,73613,1,0
224,160,74018,5,0
176,136,74221,1,0
176,80,74424,1,0
304,48,74829,5,0
336,96,75032,1,0
392,88,75235,1,0
424,208,75640,5,0
448,264,75843,1,0
424,312,76045,1,0
320,312,76451,5,0
288,264,76654,1,0
312,208,76856,1,0
256,192,77262,12,0,78478
48,288,78884,6,0,B|48:208,1,70
48,184,79188,1,0
48,152,79289,1,0
144,72,79695,6,0,B|144:152,1,70
144,176,79999,1,0
144,216,80100,1,0
240,288,80506,6,0,B|240:208,1,70
240,184,80810,1,0
240,144,80911,1,0
336,72,81316,6,0,B|336:152,1,70
336,176,81620,1,0
336,216,81721,1,0
440,288,82127,6,0,B|440:208,1,70
440,184,82431,1,0
440,152,82532,1,0
288,32,82938,6,0,B|216:64,1,70
224,136,83344,2,0,B|304:160,1,70
288,232,83749,2,0,B|216:264,1,70
224,336,84155,2,0,B|304:360,1,70
416,352,84560,2,0,B|416:240,1,105
416,208,84966,1,0
452,57,85371,6,0,B|372:57,1,70
382,57,85777,2,0,B|300:57,1,70
312,57,86182,2,0,B|228:57,1,70
242,57,86587,2,0,B|172:57,1,70
172,57,86993,2,0,B|100:57,1,70
102,57,87398,2,0,B|100:137,1,70
100,126,87804,2,0,B|100:201,1,70
100,196,88209,2,0,B|100:265,1,70
99,266,88615,2,0,B|100:337,1,70
100,336,89020,2,0,B|180:337,1,70
170,336,89426,2,0,B|252:337,1,70
240,336,89831,2,0,B|324:337,1,70
310,336,90237,6,0,B|308:289,2,35
308,302,90642,6,0,B|308:257,2,35
308,267,91048,6,0,B|308:217,4,35
