osu file format v14

[General]
AudioFilename: Ba dum tiss.mp3
AudioLeadIn: 0
PreviewTime: -1
Countdown: 0
SampleSet: None
StackLeniency: 0.7
Mode: 3
LetterboxInBreaks: 0
SpecialStyle: 0
WidescreenStoryboard: 1

[Editor]
DistanceSpacing: 0.9
BeatDivisor: 4
GridSize: 16
TimelineZoom: 1

[Metadata]
Title:Badum Tss [VIP REMIX]
TitleUnicode:Badum Tss [VIP REMIX]
Artist:_Hibiki_
ArtistUnicode:_Hibiki_
Creator:_Hibiki_
Version:MX
Source:
Tags:
BeatmapID:772769
BeatmapSetID:350526

[Difficulty]
HPDrainRate:8
CircleSize:4
OverallDifficulty:7
ApproachRate:5
SliderMultiplier:1.4
SliderTickRate:1

[Events]
//Background and Video events
//Break Periods
//Storyboard Layer 0 (Background)
//Storyboard Layer 1 (Fail)
//Storyboard Layer 2 (Pass)
//Storyboard Layer 3 (Foreground)
//Storyboard Sound Samples

[TimingPoints]
0,437.956204379562,4,1,0,100,1,0

[HitObjects]
320,192,0,1,0,0:0:0:0:
448,192,0,1,0,0:0:0:0:
320,192,437,1,0,0:0:0:0:
448,192,437,1,0,0:0:0:0:
192,192,875,1,0,0:0:0:0:
320,192,875,1,0,0:0:0:0:
448,192,985,1,0,0:0:0:0:
64,192,1094,1,0,0:0:0:0:
320,192,1313,1,0,0:0:0:0:
192,192,1313,1,0,0:0:0:0:
448,192,1313,1,0,0:0:0:0:
192,192,1751,1,0,0:0:0:0:
64,192,1751,1,0,0:0:0:0:
64,192,2189,1,0,0:0:0:0:
192,192,2189,1,0,0:0:0:0:
192,192,2627,1,0,0:0:0:0:
448,192,2627,1,0,0:0:0:0:
64,192,2737,1,0,0:0:0:0:
320,192,2846,1,0,0:0:0:0:
64,192,2992,1,0,0:0:0:0:
192,192,2992,1,0,0:0:0:0:
448,192,3065,1,0,0:0:0:0:
320,192,3065,1,0,0:0:0:0:
320,192,3503,1,0,0:0:0:0:
64,192,3503,1,0,0:0:0:0:
320,192,3941,1,0,0:0:0:0:
64,192,3941,1,0,0:0:0:0:
64,192,4379,1,0,0:0:0:0:
448,192,4379,1,0,0:0:0:0:
64,192,4817,1,0,0:0:0:0:
448,192,4817,1,0,0:0:0:0:
192,192,4927,1,0,0:0:0:0:
320,192,5036,1,0,0:0:0:0:
448,192,5145,1,0,0:0:0:0:
192,192,5255,1,0,0:0:0:0:
64,192,5255,1,0,0:0:0:0:
320,192,5255,1,0,0:0:0:0:
320,192,5583,1,0,0:0:0:0:
448,192,5583,1,0,0:0:0:0:
192,192,5693,1,0,0:0:0:0:
64,192,5693,1,0,0:0:0:0:
320,192,6131,1,0,0:0:0:0:
192,192,6131,1,0,0:0:0:0:
64,192,6532,1,0,0:0:0:0:
448,192,6532,1,0,0:0:0:0:
192,192,6569,1,0,0:0:0:0:
320,192,6569,1,0,0:0:0:0:
320,192,7007,1,0,0:0:0:0:
448,192,7007,1,0,0:0:0:0:
448,192,7445,1,0,0:0:0:0:
320,192,7445,1,0,0:0:0:0:
192,192,7664,1,0,0:0:0:0:
64,192,7664,1,0,0:0:0:0:
320,192,7883,1,0,0:0:0:0:
64,192,7883,1,0,0:0:0:0:
320,192,8321,1,0,0:0:0:0:
64,192,8321,1,0,0:0:0:0:
192,192,8759,1,0,0:0:0:0:
448,192,8759,1,0,0:0:0:0:
192,192,9197,1,0,0:0:0:0:
448,192,9197,1,0,0:0:0:0:
64,192,9197,1,0,0:0:0:0:
192,192,9489,1,0,0:0:0:0:
320,192,9489,1,0,0:0:0:0:
448,192,9635,1,0,0:0:0:0:
64,192,9635,1,0,0:0:0:0:
192,192,9854,1,0,0:0:0:0:
320,192,9854,1,0,0:0:0:0:
448,192,10072,1,0,0:0:0:0:
64,192,10072,1,0,0:0:0:0:
320,192,10510,1,0,0:0:0:0:
448,192,10510,1,0,0:0:0:0:
320,192,10948,1,0,0:0:0:0:
448,192,10948,1,0,0:0:0:0:
64,192,11313,1,0,0:0:0:0:
448,192,11313,1,0,0:0:0:0:
192,192,11386,1,0,0:0:0:0:
320,192,11386,1,0,0:0:0:0:
448,192,11678,1,0,0:0:0:0:
64,192,11678,1,0,0:0:0:0:
320,192,11824,1,0,0:0:0:0:
192,192,11824,1,0,0:0:0:0:
192,192,12262,1,0,0:0:0:0:
64,192,12262,1,0,0:0:0:0:
64,192,12700,1,0,0:0:0:0:
192,192,12700,1,0,0:0:0:0:
192,192,13138,1,0,0:0:0:0:
448,192,13138,1,0,0:0:0:0:
192,192,13576,1,0,0:0:0:0:
448,192,13576,1,0,0:0:0:0:
448,192,13795,1,0,0:0:0:0:
64,192,13795,1,0,0:0:0:0:
192,192,13868,1,0,0:0:0:0:
448,192,13941,1,0,0:0:0:0:
320,192,14014,1,0,0:0:0:0:
64,192,14014,1,0,0:0:0:0:
192,192,14087,1,0,0:0:0:0:
448,192,14160,1,0,0:0:0:0:
320,192,14452,1,0,0:0:0:0:
64,192,14452,1,0,0:0:0:0:
448,192,14671,1,0,0:0:0:0:
192,192,14781,1,0,0:0:0:0:
64,192,14890,1,0,0:0:0:0:
448,192,14890,1,0,0:0:0:0:
320,192,14999,1,0,0:0:0:0:
192,192,15109,1,0,0:0:0:0:
64,192,15328,1,0,0:0:0:0:
448,192,15328,1,0,0:0:0:0:
320,192,15437,1,0,0:0:0:0:
192,192,15547,1,0,0:0:0:0:
448,192,15693,1,0,0:0:0:0:
192,192,15766,1,0,0:0:0:0:
64,192,15766,1,0,0:0:0:0:
448,192,16131,1,0,0:0:0:0:
192,192,16204,1,0,0:0:0:0:
64,192,16204,1,0,0:0:0:0:
320,192,16642,1,0,0:0:0:0:
192,192,16642,1,0,0:0:0:0:
448,192,16934,1,0,0:0:0:0:
64,192,16934,1,0,0:0:0:0:
192,192,17080,1,0,0:0:0:0:
320,192,17080,1,0,0:0:0:0:
64,192,17408,1,0,0:0:0:0:
192,192,17408,1,0,0:0:0:0:
320,192,17518,1,0,0:0:0:0:
448,192,17518,1,0,0:0:0:0:
448,192,17956,1,0,0:0:0:0:
320,192,17956,1,0,0:0:0:0:
320,192,18394,1,0,0:0:0:0:
64,192,18394,1,0,0:0:0:0:
192,192,18448,1,0,0:0:0:0:
448,192,18448,1,0,0:0:0:0:
320,192,18832,1,0,0:0:0:0:
64,192,18832,1,0,0:0:0:0:
192,192,19270,1,0,0:0:0:0:
448,192,19270,1,0,0:0:0:0:
320,192,19379,1,0,0:0:0:0:
64,192,19379,1,0,0:0:0:0:
192,192,19489,1,0,0:0:0:0:
448,192,19489,1,0,0:0:0:0:
192,192,19708,1,0,0:0:0:0:
448,192,19708,1,0,0:0:0:0:
448,192,20145,1,0,0:0:0:0:
64,192,20145,1,0,0:0:0:0:
320,192,20510,1,0,0:0:0:0:
192,192,20510,1,0,0:0:0:0:
448,192,20583,1,0,0:0:0:0:
64,192,20583,1,0,0:0:0:0:
320,192,20802,1,0,0:0:0:0:
192,192,20802,1,0,0:0:0:0:
448,192,21021,1,0,0:0:0:0:
320,192,21021,1,0,0:0:0:0:
448,192,21459,1,0,0:0:0:0:
320,192,21459,1,0,0:0:0:0:
320,192,21897,1,0,0:0:0:0:
192,192,21897,1,0,0:0:0:0:
192,192,22335,1,0,0:0:0:0:
320,192,22335,1,0,0:0:0:0:
64,192,22773,1,0,0:0:0:0:
192,192,22773,1,0,0:0:0:0:
192,192,23211,1,0,0:0:0:0:
64,192,23211,1,0,0:0:0:0:
320,192,23503,1,0,0:0:0:0:
64,192,23503,1,0,0:0:0:0:
448,192,23649,1,0,0:0:0:0:
192,192,23649,1,0,0:0:0:0:
64,192,23978,1,0,0:0:0:0:
448,192,24087,1,0,0:0:0:0:
192,192,24087,1,0,0:0:0:0:
320,192,24197,1,0,0:0:0:0:
64,192,24306,1,0,0:0:0:0:
448,192,24416,1,0,0:0:0:0:
64,192,24525,1,0,0:0:0:0:
320,192,24525,1,0,0:0:0:0:
192,192,24635,1,0,0:0:0:0:
448,192,24854,1,0,0:0:0:0:
64,192,24963,1,0,0:0:0:0:
320,192,24963,1,0,0:0:0:0:
192,192,25072,1,0,0:0:0:0:
320,192,25182,1,0,0:0:0:0:
448,192,25401,1,0,0:0:0:0:
64,192,25401,1,0,0:0:0:0:
448,192,25839,1,0,0:0:0:0:
64,192,25839,1,0,0:0:0:0:
192,192,25948,1,0,0:0:0:0:
320,192,26058,1,0,0:0:0:0:
64,192,26277,1,0,0:0:0:0:
192,192,26277,1,0,0:0:0:0:
448,192,26386,1,0,0:0:0:0:
320,192,26496,1,0,0:0:0:0:
64,192,26715,1,0,0:0:0:0:
192,192,26715,1,0,0:0:0:0:
192,192,27153,1,0,0:0:0:0:
320,192,27153,1,0,0:0:0:0:
320,192,27591,1,0,0:0:0:0:
192,192,27591,1,0,0:0:0:0:
448,192,28029,1,0,0:0:0:0:
320,192,28029,1,0,0:0:0:0:
320,192,28467,1,0,0:0:0:0:
448,192,28467,1,0,0:0:0:0:
192,192,28576,1,0,0:0:0:0:
64,192,28686,1,0,0:0:0:0:
448,192,28795,1,0,0:0:0:0:
192,192,28795,1,0,0:0:0:0:
64,192,28905,1,0,0:0:0:0:
320,192,28905,1,0,0:0:0:0:
64,192,29343,1,0,0:0:0:0:
320,192,29343,1,0,0:0:0:0:
448,192,29781,1,0,0:0:0:0:
192,192,29781,1,0,0:0:0:0:
320,192,29890,1,0,0:0:0:0:
64,192,29999,1,0,0:0:0:0:
320,192,30109,1,0,0:0:0:0:
448,192,30218,1,0,0:0:0:0:
64,192,30218,1,0,0:0:0:0:
320,192,30437,1,0,0:0:0:0:
192,192,30437,1,0,0:0:0:0:
64,192,30656,1,0,0:0:0:0:
448,192,30656,1,0,0:0:0:0:
64,192,31094,1,0,0:0:0:0:
448,192,31094,1,0,0:0:0:0:
320,192,31532,1,0,0:0:0:0:
448,192,31532,1,0,0:0:0:0:
192,192,31751,1,0,0:0:0:0:
64,192,31861,1,0,0:0:0:0:
320,192,31970,1,0,0:0:0:0:
448,192,31970,1,0,0:0:0:0:
192,192,32080,1,0,0:0:0:0:
64,192,32189,1,0,0:0:0:0:
192,192,32408,1,0,0:0:0:0:
320,192,32408,1,0,0:0:0:0:
448,192,32554,1,0,0:0:0:0:
64,192,32554,1,0,0:0:0:0:
320,192,32846,1,0,0:0:0:0:
192,192,32846,1,0,0:0:0:0:
320,192,33065,1,0,0:0:0:0:
448,192,33175,1,0,0:0:0:0:
192,192,33284,1,0,0:0:0:0:
64,192,33284,1,0,0:0:0:0:
320,192,33394,1,0,0:0:0:0:
448,192,33503,1,0,0:0:0:0:
64,192,33722,1,0,0:0:0:0:
192,192,33722,1,0,0:0:0:0:
192,192,34160,1,0,0:0:0:0:
448,192,34160,1,0,0:0:0:0:
192,192,34598,1,0,0:0:0:0:
448,192,34598,1,0,0:0:0:0:
320,192,34817,1,0,0:0:0:0:
64,192,34817,1,0,0:0:0:0:
320,192,35036,1,0,0:0:0:0:
64,192,35036,1,0,0:0:0:0:
320,192,35474,1,0,0:0:0:0:
64,192,35474,1,0,0:0:0:0:
64,192,35912,1,0,0:0:0:0:
448,192,35912,1,0,0:0:0:0:
64,192,36350,1,0,0:0:0:0:
448,192,36350,1,0,0:0:0:0:
192,192,36788,1,0,0:0:0:0:
64,192,36788,1,0,0:0:0:0:
320,192,37116,1,0,0:0:0:0:
448,192,37116,1,0,0:0:0:0:
192,192,37226,1,0,0:0:0:0:
64,192,37226,1,0,0:0:0:0:
320,192,37664,1,0,0:0:0:0:
192,192,37664,1,0,0:0:0:0:
64,192,37773,1,0,0:0:0:0:
192,192,38102,1,0,0:0:0:0:
320,192,38102,1,0,0:0:0:0:
320,192,38540,1,0,0:0:0:0:
448,192,38540,1,0,0:0:0:0:
192,192,38649,1,0,0:0:0:0:
64,192,38759,1,0,0:0:0:0:
192,192,38868,1,0,0:0:0:0:
448,192,38978,1,0,0:0:0:0:
320,192,38978,1,0,0:0:0:0:
192,192,39087,1,0,0:0:0:0:
320,192,39416,1,0,0:0:0:0:
64,192,39416,1,0,0:0:0:0:
448,192,39635,1,0,0:0:0:0:
192,192,39635,1,0,0:0:0:0:
320,192,39744,1,0,0:0:0:0:
64,192,39854,1,0,0:0:0:0:
192,192,39854,1,0,0:0:0:0:
320,192,39963,1,0,0:0:0:0:
448,192,40072,1,0,0:0:0:0:
192,192,40291,1,0,0:0:0:0:
448,192,40291,1,0,0:0:0:0:
320,192,40401,1,0,0:0:0:0:
64,192,40510,1,0,0:0:0:0:
320,192,40675,1,0,0:0:0:0:
192,192,40729,1,0,0:0:0:0:
448,192,40729,1,0,0:0:0:0:
64,192,40784,1,0,0:0:0:0:
320,192,41058,1,0,0:0:0:0:
448,192,41167,1,0,0:0:0:0:
64,192,41167,1,0,0:0:0:0:
448,192,41605,1,0,0:0:0:0:
64,192,41605,1,0,0:0:0:0:
320,192,41770,1,0,0:0:0:0:
192,192,41770,1,0,0:0:0:0:
448,192,42043,1,0,0:0:0:0:
320,192,42043,1,0,0:0:0:0:
192,192,42262,1,0,0:0:0:0:
64,192,42262,1,0,0:0:0:0:
448,192,42481,1,0,0:0:0:0:
320,192,42481,1,0,0:0:0:0:
448,192,42773,1,0,0:0:0:0:
64,192,42773,1,0,0:0:0:0:
320,192,42919,1,0,0:0:0:0:
192,192,42919,1,0,0:0:0:0:
192,192,43357,1,0,0:0:0:0:
320,192,43357,1,0,0:0:0:0:
64,192,43795,1,0,0:0:0:0:
192,192,43795,1,0,0:0:0:0:
192,192,44233,1,0,0:0:0:0:
64,192,44233,1,0,0:0:0:0:
320,192,44562,1,0,0:0:0:0:
64,192,44562,1,0,0:0:0:0:
448,192,44671,1,0,0:0:0:0:
192,192,44671,1,0,0:0:0:0:
320,192,44890,1,0,0:0:0:0:
64,192,44890,1,0,0:0:0:0:
448,192,45109,1,0,0:0:0:0:
192,192,45109,1,0,0:0:0:0:
320,192,45218,1,0,0:0:0:0:
64,192,45218,1,0,0:0:0:0:
64,192,45547,1,0,0:0:0:0:
320,192,45547,1,0,0:0:0:0:
192,192,45656,1,0,0:0:0:0:
448,192,45656,1,0,0:0:0:0:
64,192,45985,1,0,0:0:0:0:
320,192,45985,1,0,0:0:0:0:
448,192,46423,1,0,0:0:0:0:
64,192,46423,1,0,0:0:0:0:
192,192,46715,1,0,0:0:0:0:
320,192,46715,1,0,0:0:0:0:
448,192,46861,1,0,0:0:0:0:
64,192,46861,1,0,0:0:0:0:
64,192,47299,1,0,0:0:0:0:
192,192,47299,1,0,0:0:0:0:
64,192,47737,1,0,0:0:0:0:
192,192,47737,1,0,0:0:0:0:
320,192,47901,1,0,0:0:0:0:
448,192,47901,1,0,0:0:0:0:
192,192,48175,1,0,0:0:0:0:
320,192,48175,1,0,0:0:0:0:
320,192,48613,1,0,0:0:0:0:
192,192,48613,1,0,0:0:0:0:
448,192,49051,1,0,0:0:0:0:
320,192,49051,1,0,0:0:0:0:
320,192,49489,1,0,0:0:0:0:
448,192,49489,1,0,0:0:0:0:
448,192,50802,1,0,0:0:0:0:
320,192,50802,1,0,0:0:0:0:
64,192,50802,1,0,0:0:0:0:
192,192,50802,128,0,52992:0:0:0:0:
