osu file format v5

[General]
AudioFilename: Zwei 2 - The Sky High Great Adventure.mp3
AudioLeadIn: 0
PreviewTime: -1
Countdown: 1
SampleSet: Normal
StackLeniency: 0
Mode: 0
LetterboxInBreaks: 1

[Metadata]
Title:The Sky High Great Adventure
Artist:Zwei 2
Creator:Sakura_chan
Version:Normal
Source:
Tags:

[Difficulty]
HPDrainRate:5
CircleSize:5
OverallDifficulty:5
SliderMultiplier:1.5
SliderTickRate:1

[Events]
//Background and Video events
//Break Periods
//Storyboard Layer 0 (Background)
//Storyboard Layer 1 (Failing)
//Storyboard Layer 2 (Passing)
//Storyboard Layer 3 (Foreground)
//Storyboard Sound Samples
//Background Colour Transformations
3,100,163,162,255

[TimingPoints]
532,532.427877190621,4,1,0,100,1
14705,434.782608695652,4,1,0,100,1

[HitObjects]
96,64,3327,1,2
160,128,3726,2,2,B|256:160,2,75
256,224,6921,1,8
320,256,7453,6,2,B|352:224|320:192,2,37.5
224,192,9183,2,2,B|192:224|224:224,2,37.5
160,64,12644,1,8
192,64,12777,1,8
224,64,12910,1,8
288,64,13310,1,12
320,96,13576,1,12
352,128,13842,1,12
448,160,14705,5,0
416,224,15139,2,0,B|384:320|288:320,1,150
224,320,16009,2,0,B|128:352|64:288,1,150
32,224,16878,2,0,B|0:128|64:64,1,150
128,64,17748,2,0,B|224:64,2,75
192,128,21444,5,0
192,128,21552,1,0
192,128,21661,1,0
256,192,22096,12,4,27639
64,64,28400,5,8
64,96,28509,1,8
64,128,28618,1,8
160,64,30139,6,2,B|160:128,4,37.5
256,64,31878,5,8
256,96,31987,1,8
256,128,32096,1,8
352,64,33618,6,2,B|352:128,4,37.5
448,192,35574,5,4
352,352,37096,6,0,B|352:288,4,37.5
256,320,38835,5,0
256,320,39052,2,0,B|128:288|96:160,1,225
99,173,39922,2,0,B|128:288|256:320,1,225
256,320,40791,1,0
64,320,42313,5,8
64,288,42422,1,8
64,256,42531,1,8
160,320,44052,6,2,B|160:256,4,37.5
256,320,45791,5,8
256,288,45900,1,8
256,256,46009,1,8
352,320,47531,6,2,B|352:256,4,37.5
480,192,49487,5,4
384,192,51009,6,2,B|320:192,4,37.5
448,64,52748,5,0
384,32,52965,2,0,B|512:192|544:320|512:352|448:352|32:32,1,825
32,32,55574,1,0
64,160,56226,1,0
128,224,56444,1,4
64,320,59922,6,0,B|128:320,4,37.5
96,224,61009,1,2
64,192,61226,1,2
96,160,61444,1,2
64,128,61661,1,2
64,64,63400,2,0,B|128:64,4,37.5
128,128,64487,2,2,B|192:192|256:192|320:64,1,225
448,64,66878,6,0,B|384:64,4,37.5
448,160,67965,1,2
448,224,68183,1,2
448,288,68400,1,2
384,352,68618,1,4
384,352,68726,1,4
384,352,68835,1,4
320,256,70357,5,0
256,288,70683,2,0,B|195:318|131:254,1,112.5
128,256,71226,1,0
96,224,71552,2,0,B|32:160|96:128,1,112.5
160,96,72096,1,0
256,96,72531,1,0
352,96,72965,1,4
384,160,75139,6,0,B|352:192,3,37.5
384,160,75574,2,0,B|384:288|288:320|160:288|128:224|128:192|128:96|256:64,1,525
288,64,77204,1,0
320,64,77313,1,4
416,96,78183,5,0
448,160,78509,1,0
448,224,78835,1,0
448,256,79052,1,0
384,288,80574,6,0,B|320:288,1,37.5
320,288,80791,2,4,B|320:320|256:384|224:352|192:352|160:320|128:256|96:224,1,300
96,160,82313,6,0,B|96:96,2,37.5
192,96,83944,2,0,B|256:96,2,37.5
352,96,85139,1,0
480,96,86009,1,4
448,192,89052,6,2,B|384:192,4,37.5
448,256,91009,2,0,B|416:288|352:288,1,75
320,288,92096,5,8
256,256,92422,1,8
224,192,92748,1,8
224,160,92965,1,8
224,96,94487,6,2,B|160:96,2,37.5
64,96,95574,1,4
64,192,96226,2,2,B|64:256,2,37.5
64,288,99052,5,8
128,288,99378,1,8
192,288,99705,1,8
224,288,99922,1,12
