osu file format v5

[General]
AudioFilename: Zwei 2 - The Sky High Great Adventure.mp3
AudioLeadIn: 0
PreviewTime: -1
Countdown: 1
SampleSet: Normal
StackLeniency: 0
Mode: 0
LetterboxInBreaks: 1

[Metadata]
Title:The Sky High Great Adventure
Artist:Zwei 2
Creator:Sakura_chan
Version:Insane Non-Stop
Source:
Tags:

[Difficulty]
HPDrainRate:6
CircleSize:5
OverallDifficulty:6
SliderMultiplier:1.5
SliderTickRate:1

[Events]
//Background and Video events
//Break Periods
//Storyboard Layer 0 (Background)
//Storyboard Layer 1 (Failing)
//Storyboard Layer 2 (Passing)
//Storyboard Layer 3 (Foreground)
//Storyboard Sound Samples
//Background Colour Transformations
3,100,163,162,255

[TimingPoints]
532,532.427877190621,4,1,0,100,1
14705,434.782608695652,4,1,0,100,1

[HitObjects]
96,64,3327,1,0
128,64,3726,1,0
160,64,3992,1,0
192,64,4258,1,0
320,64,5723,1,0
320,64,5856,1,0
320,64,5989,1,0
416,160,6788,1,0
416,256,7453,5,0
416,256,7586,1,0
416,256,7719,1,0
256,320,9183,1,0
256,320,9317,1,0
256,320,9450,1,0
128,288,10248,1,0
64,192,11180,1,0
192,128,12644,1,0
192,128,12777,1,0
192,128,12910,1,0
288,128,13310,1,0
320,128,13576,1,0
352,128,13842,1,4
448,160,14705,5,0
448,224,15139,1,0
384,224,15574,1,0
384,288,16009,1,0
320,288,16444,1,0
256,288,16878,1,0
256,224,17313,1,0
224,224,17639,1,0
192,224,17965,1,0
160,224,18183,1,0
64,128,19704,1,0
64,128,19813,1,0
64,128,19922,1,0
160,192,20791,1,0
275,161,21444,5,0
275,161,21552,1,0
275,161,21661,1,0
352,64,22531,1,0
288,64,22965,1,0
224,64,23400,1,0
224,128,23835,1,0
160,128,24270,1,0
160,192,24704,1,0
96,192,25139,1,0
96,96,26878,5,2
96,96,26987,1,2
96,96,27204,1,2
96,96,27313,1,2
96,96,27639,1,4
192,96,28400,5,0
192,96,28509,1,0
192,96,28618,1,0
288,128,29270,1,8
352,128,29704,1,8
416,160,30139,5,0
416,160,30248,1,0
416,160,30357,1,0
416,160,30465,1,0
416,160,30574,1,4
448,224,31009,5,8
448,288,31444,1,8
384,288,31878,1,0
384,288,31987,1,0
384,288,32096,1,0
320,256,32531,5,8
256,224,32965,1,8
192,192,33400,1,8
128,192,33618,1,0
128,192,33726,1,0
128,192,33835,1,0
128,192,33944,1,0
128,192,34052,1,4
64,192,34270,5,10
128,128,34704,1,10
192,96,35139,1,10
256,96,35574,1,0
320,96,36009,5,8
384,96,36444,1,8
384,160,36878,1,8
352,192,37096,1,0
352,192,37204,1,0
352,192,37313,1,0
352,192,37422,1,0
352,192,37531,1,4
288,224,37965,5,8
224,224,38400,1,8
160,224,38835,1,0
160,256,39052,1,0
160,320,39704,1,0
192,320,39922,1,0
288,320,40574,1,0
320,320,40791,1,0
384,320,41226,5,4
448,320,41661,1,4
448,256,42096,1,4
384,224,42313,5,0
384,224,42422,1,0
384,224,42531,1,0
320,224,42965,1,8
256,224,43400,1,8
192,224,43835,1,8
128,192,44052,1,0
128,192,44161,1,0
128,192,44270,1,0
128,192,44378,1,0
128,192,44487,1,4
128,128,44922,5,8
192,96,45357,1,8
256,128,45791,1,0
256,128,45900,1,0
256,128,46009,1,0
256,192,46444,1,8
256,256,46878,1,8
256,320,47313,1,8
192,320,47531,5,0
192,320,47639,1,0
192,320,47748,1,0
192,320,47857,1,0
192,320,47965,1,4
128,288,48400,1,8
128,224,48835,1,8
128,160,49270,5,0
160,160,49487,1,0
224,160,49922,1,8
288,160,50357,1,8
352,160,50791,1,8
416,128,51009,1,0
416,128,51118,1,0
416,128,51226,1,0
416,128,51335,1,0
416,128,51444,1,4
416,64,51878,1,8
352,64,52313,1,8
288,64,52748,5,0
288,96,52965,1,0
224,64,53400,1,2
160,64,53835,1,2
96,64,54270,1,2
64,128,54704,1,2
41,194,55139,1,2
96,256,55357,1,0
96,288,55574,1,0
192,288,56226,1,0
224,288,56444,1,4
320,288,56878,5,8
384,288,57313,1,8
448,224,57748,1,8
480,192,57965,1,8
448,160,58183,1,8
480,128,58400,1,8
384,64,59052,1,12
384,64,59161,1,12
288,64,59378,1,12
288,64,59487,1,12
224,96,59922,5,0
224,96,60031,1,0
224,96,60139,1,0
224,96,60248,1,0
224,96,60357,1,0
160,64,61009,1,0
128,96,61226,1,0
160,128,61444,1,0
128,160,61661,1,0
64,160,61987,5,8
32,192,62096,1,8
64,256,62422,1,8
96,288,62531,1,8
192,288,62965,1,8
256,256,63400,1,0
256,256,63509,1,0
256,256,63618,1,0
256,256,63726,1,0
256,256,63835,1,4
352,224,64487,1,0
416,192,64922,1,0
416,224,65139,1,0
416,320,65574,5,2
416,352,65683,1,2
352,320,65900,1,2
352,352,66009,1,2
256,288,66444,1,8
192,256,66878,1,0
192,256,66987,1,0
192,256,67096,1,0
192,256,67204,1,0
192,256,67313,1,4
128,256,67965,1,0
96,256,68183,1,0
64,256,68400,1,0
32,192,68618,1,4
32,192,68726,1,4
32,192,68835,1,4
96,128,69270,5,8
96,128,69378,1,8
96,128,69596,1,8
96,128,69813,1,8
96,128,69922,1,8
96,64,70357,5,0
160,64,70683,1,0
224,64,71009,1,0
256,64,71226,1,0
320,64,71552,1,0
384,64,71878,1,0
416,64,72096,1,0
416,128,72531,1,0
416,192,72965,1,4
384,256,73400,5,2
384,256,73509,1,2
384,256,73618,1,2
320,256,73835,1,2
320,256,73944,1,2
320,256,74052,1,2
224,256,74487,1,2
224,256,74596,1,2
224,256,74705,1,6
160,320,75139,5,0
160,320,75248,1,0
160,320,75357,1,0
160,320,75465,1,0
160,320,75574,1,0
96,320,76009,1,8
32,288,76444,1,8
64,224,76987,1,0
64,224,77096,1,0
64,224,77205,1,4
128,192,77639,5,2
128,192,77748,1,2
192,192,78183,1,0
256,192,78509,1,0
320,192,78835,1,0
352,192,79052,1,0
416,224,79378,5,2
416,224,79487,1,2
384,288,79813,1,2
384,288,79922,1,2
320,288,80248,1,8
256,256,80574,5,0
256,256,80683,1,0
256,256,80791,1,0
192,224,81226,1,0
128,192,81661,1,4
96,128,82313,5,0
96,128,82422,1,0
96,128,82531,1,0
96,64,82857,1,2
128,64,82965,1,2
192,64,83400,1,8
256,64,83835,1,8
320,64,84052,1,0
320,64,84161,1,0
320,64,84270,1,0
384,64,84705,1,8
448,96,85139,1,8
448,160,85574,1,8
448,224,86009,1,12
448,288,86335,5,2
448,288,86444,1,2
384,288,86770,1,2
384,288,86878,1,2
320,288,87205,1,2
320,288,87313,1,2
224,224,87639,1,2
224,224,87748,1,2
224,224,87857,1,2
224,224,87965,1,2
224,224,88074,1,2
224,224,88183,1,2
224,224,88291,1,2
224,224,88400,1,2
224,224,88509,1,2
224,224,88618,1,6
160,288,89052,5,0
160,288,89161,1,0
160,288,89270,1,0
160,288,89378,1,0
160,288,89487,1,0
96,288,89922,1,8
96,224,90357,1,8
96,160,90791,1,8
96,96,91009,1,0
96,96,91118,1,0
96,96,91226,1,4
160,64,91661,1,2
160,64,91770,1,2
224,64,92096,5,0
256,64,92422,1,0
288,64,92748,1,0
320,64,92965,1,0
384,64,93400,1,2
384,64,93509,1,2
384,64,93618,1,2
448,64,93835,1,2
448,64,93944,1,2
448,64,94052,1,2
448,128,94487,5,0
448,128,94596,1,0
448,128,94705,1,0
448,192,95139,1,8
448,256,95574,1,12
416,320,96226,1,0
416,320,96335,1,0
416,320,96444,1,0
352,320,96770,5,2
352,320,96878,1,2
288,320,97205,1,2
288,320,97313,1,2
224,320,97639,1,2
224,320,97748,1,2
160,320,98074,1,2
160,320,98183,1,2
96,320,98509,1,2
96,320,98618,1,2
96,256,99052,5,0
96,192,99378,1,0
96,128,99705,1,0
96,96,99922,1,4
160,64,100357,5,0
224,128,100791,1,0
160,192,101226,1,0
96,256,101661,1,0
32,192,102096,1,0
96,128,102531,1,0
32,64,102965,1,0
128,128,103400,5,0
128,128,103509,1,0
128,128,103618,1,0
128,128,103726,1,0
128,128,103835,1,0
224,160,104270,1,8
224,160,104378,1,8
224,160,104596,1,8
224,160,104705,1,8
320,192,105139,1,8
320,192,105248,1,8
320,192,105465,1,8
320,192,105574,1,8
384,224,106009,1,2
384,288,106444,1,2
320,288,106878,5,8
320,288,106987,1,8
320,288,107205,1,8
320,288,107313,1,8
256,256,107748,1,8
256,256,107857,1,8
256,256,107965,1,8
256,256,108074,1,8
256,256,108183,1,8
192,224,108618,1,10
192,224,108726,1,10
192,224,108944,1,10
192,224,109052,1,10
160,160,109487,1,10
160,160,109596,1,10
160,160,109813,1,10
160,160,109922,1,10
256,160,110357,5,4
