osu file format v14

[General]
AudioFilename: Sakura Moonlight.mp3
AudioLeadIn: 0
PreviewTime: 85651
Countdown: 0
SampleSet: Soft
StackLeniency: 0.7
Mode: 3
LetterboxInBreaks: 0
SpecialStyle: 0
WidescreenStoryboard: 0

[Editor]
DistanceSpacing: 0.8
BeatDivisor: 4
GridSize: 8
TimelineZoom: 1

[Metadata]
Title:Gekkaou Tengoku
TitleUnicode:月下桜天国
Artist:Zuxin with Utsuro
ArtistUnicode:Zuxin with Utsuro
Creator:Mashiro-Fang
Version:MX
Source:Dynamix
Tags:xiaox biemote
BeatmapID:829263
BeatmapSetID:378762

[Difficulty]
HPDrainRate:8
CircleSize:4
OverallDifficulty:8
ApproachRate:5
SliderMultiplier:1.4
SliderTickRate:1

[Events]
//Background and Video events
0,0,"bg.png",0,0
//Break Periods
//Storyboard Layer 0 (Background)
//Storyboard Layer 1 (Fail)
//Storyboard Layer 2 (Pass)
//Storyboard Layer 3 (Foreground)
//Storyboard Sound Samples

[TimingPoints]
2173,434.782608695652,4,2,0,0,1,0

[HitObjects]
192,192,2173,5,0,0:0:0:0:
448,192,2173,1,0,0:0:0:0:
320,192,2390,1,0,0:0:0:0:
64,192,2607,1,0,0:0:0:0:
192,192,2825,1,0,0:0:0:0:
448,192,3042,1,0,0:0:0:0:
192,192,3259,1,0,0:0:0:0:
320,192,3477,1,0,0:0:0:0:
64,192,3694,1,0,0:0:0:0:
448,192,3912,1,0,0:0:0:0:
192,192,4129,1,0,0:0:0:0:
64,192,4346,1,0,0:0:0:0:
320,192,4564,1,0,0:0:0:0:
192,192,4781,1,0,0:0:0:0:
64,192,4999,1,0,0:0:0:0:
448,192,5216,1,0,0:0:0:0:
320,192,5433,1,0,0:0:0:0:
448,192,5651,1,0,0:0:0:0:
192,192,5868,1,0,0:0:0:0:
64,192,6086,1,0,0:0:0:0:
320,192,6303,1,0,0:0:0:0:
448,192,6520,1,0,0:0:0:0:
192,192,6738,1,0,0:0:0:0:
448,192,6955,1,0,0:0:0:0:
192,192,7172,1,0,0:0:0:0:
320,192,7390,1,0,0:0:0:0:
192,192,7607,1,0,0:0:0:0:
64,192,7825,1,0,0:0:0:0:
448,192,8042,1,0,0:0:0:0:
320,192,8259,1,0,0:0:0:0:
64,192,8477,1,0,0:0:0:0:
192,192,8694,1,0,0:0:0:0:
448,192,8912,1,0,0:0:0:0:
64,192,9129,1,0,0:0:0:0:
320,192,9129,1,0,0:0:0:0:
192,192,9346,1,0,0:0:0:0:
64,192,9564,1,0,0:0:0:0:
192,192,9781,1,0,0:0:0:0:
320,192,9890,1,0,0:0:0:0:
448,192,9999,1,0,0:0:0:0:
64,192,10216,1,0,0:0:0:0:
320,192,10433,1,0,0:0:0:0:
64,192,10651,1,0,0:0:0:0:
448,192,10868,1,0,0:0:0:0:
192,192,11086,1,0,0:0:0:0:
64,192,11303,1,0,0:0:0:0:
192,192,11520,1,0,0:0:0:0:
320,192,11629,1,0,0:0:0:0:
448,192,11738,1,0,0:0:0:0:
320,192,11955,1,0,0:0:0:0:
448,192,12172,1,0,0:0:0:0:
320,192,12390,1,0,0:0:0:0:
64,192,12607,1,0,0:0:0:0:
192,192,12825,1,0,0:0:0:0:
448,192,13042,1,0,0:0:0:0:
320,192,13259,1,0,0:0:0:0:
192,192,13368,1,0,0:0:0:0:
64,192,13477,1,0,0:0:0:0:
320,192,13694,1,0,0:0:0:0:
64,192,13912,1,0,0:0:0:0:
448,192,13912,128,0,16086:0:0:0:0:
192,192,14129,1,0,0:0:0:0:
320,192,14346,1,0,0:0:0:0:
64,192,14564,1,0,0:0:0:0:
192,192,14781,1,0,0:0:0:0:
320,192,14999,1,0,0:0:0:0:
192,192,15216,1,0,0:0:0:0:
64,192,15433,1,0,0:0:0:0:
192,192,15651,1,0,0:0:0:0:
320,192,15868,1,0,0:0:0:0:
64,192,16086,1,0,0:0:0:0:
192,192,16086,1,0,0:0:0:0:
320,192,16303,1,0,0:0:0:0:
64,192,16520,1,0,0:0:0:0:
192,192,16738,1,0,0:0:0:0:
448,192,16846,1,0,0:0:0:0:
320,192,16955,1,0,0:0:0:0:
192,192,17172,1,0,0:0:0:0:
64,192,17390,1,0,0:0:0:0:
448,192,17607,1,0,0:0:0:0:
320,192,17825,1,0,0:0:0:0:
64,192,17825,1,0,0:0:0:0:
192,192,18042,1,0,0:0:0:0:
64,192,18259,1,0,0:0:0:0:
320,192,18477,1,0,0:0:0:0:
192,192,18586,1,0,0:0:0:0:
448,192,18694,1,0,0:0:0:0:
320,192,18912,1,0,0:0:0:0:
64,192,19129,1,0,0:0:0:0:
192,192,19346,1,0,0:0:0:0:
64,192,19564,1,0,0:0:0:0:
448,192,19564,1,0,0:0:0:0:
320,192,19781,1,0,0:0:0:0:
192,192,19999,1,0,0:0:0:0:
64,192,20216,1,0,0:0:0:0:
320,192,20325,1,0,0:0:0:0:
192,192,20433,1,0,0:0:0:0:
64,192,20651,1,0,0:0:0:0:
192,192,20868,1,0,0:0:0:0:
448,192,21086,1,0,0:0:0:0:
320,192,21303,1,0,0:0:0:0:
64,192,21303,1,0,0:0:0:0:
192,192,21520,1,0,0:0:0:0:
64,192,21738,1,0,0:0:0:0:
192,192,21955,1,0,0:0:0:0:
320,192,22064,1,0,0:0:0:0:
448,192,22172,1,0,0:0:0:0:
192,192,22172,1,0,0:0:0:0:
320,192,22390,1,0,0:0:0:0:
192,192,22607,1,0,0:0:0:0:
320,192,22607,1,0,0:0:0:0:
192,192,22825,1,0,0:0:0:0:
64,192,23042,1,0,0:0:0:0:
320,192,23042,1,0,0:0:0:0:
192,192,23259,1,0,0:0:0:0:
192,192,23477,1,0,0:0:0:0:
192,192,23586,1,0,0:0:0:0:
192,192,23803,1,0,0:0:0:0:
192,192,23912,1,0,0:0:0:0:
448,192,23912,1,0,0:0:0:0:
192,192,24129,1,0,0:0:0:0:
320,192,24129,1,0,0:0:0:0:
192,192,24346,1,0,0:0:0:0:
64,192,24346,1,0,0:0:0:0:
192,192,24564,1,0,0:0:0:0:
448,192,24564,1,0,0:0:0:0:
64,192,24781,1,0,0:0:0:0:
448,192,24781,1,0,0:0:0:0:
320,192,24999,1,0,0:0:0:0:
320,192,25216,1,0,0:0:0:0:
320,192,25325,1,0,0:0:0:0:
320,192,25542,1,0,0:0:0:0:
320,192,25651,1,0,0:0:0:0:
448,192,25651,1,0,0:0:0:0:
320,192,25868,1,0,0:0:0:0:
192,192,25868,1,0,0:0:0:0:
320,192,26086,1,0,0:0:0:0:
64,192,26086,1,0,0:0:0:0:
320,192,26303,1,0,0:0:0:0:
448,192,26303,1,0,0:0:0:0:
192,192,26520,1,0,0:0:0:0:
448,192,26520,1,0,0:0:0:0:
64,192,26738,1,0,0:0:0:0:
64,192,26955,1,0,0:0:0:0:
64,192,27064,1,0,0:0:0:0:
64,192,27281,1,0,0:0:0:0:
192,192,27390,1,0,0:0:0:0:
320,192,27390,1,0,0:0:0:0:
448,192,27607,1,0,0:0:0:0:
192,192,27607,1,0,0:0:0:0:
448,192,27825,1,0,0:0:0:0:
64,192,27825,1,0,0:0:0:0:
448,192,27933,1,0,0:0:0:0:
320,192,28042,1,0,0:0:0:0:
448,192,28151,1,0,0:0:0:0:
192,192,28259,1,0,0:0:0:0:
64,192,28259,1,0,0:0:0:0:
320,192,28368,1,0,0:0:0:0:
320,192,28477,1,0,0:0:0:0:
192,192,28694,1,0,0:0:0:0:
64,192,28694,1,0,0:0:0:0:
448,192,28803,1,0,0:0:0:0:
320,192,28912,1,0,0:0:0:0:
64,192,29020,1,0,0:0:0:0:
192,192,29129,1,0,0:0:0:0:
448,192,29129,1,0,0:0:0:0:
320,192,29238,1,0,0:0:0:0:
192,192,29346,1,0,0:0:0:0:
64,192,29564,1,0,0:0:0:0:
320,192,29564,1,0,0:0:0:0:
192,192,29781,1,0,0:0:0:0:
64,192,29999,1,0,0:0:0:0:
192,192,29999,1,0,0:0:0:0:
448,192,29999,128,0,31303:0:0:0:0:
320,192,30216,1,0,0:0:0:0:
192,192,30433,1,0,0:0:0:0:
64,192,30651,1,0,0:0:0:0:
320,192,30868,1,0,0:0:0:0:
192,192,31086,1,0,0:0:0:0:
64,192,31303,1,0,0:0:0:0:
192,192,31303,1,0,0:0:0:0:
320,192,31520,1,0,0:0:0:0:
448,192,31520,1,0,0:0:0:0:
192,192,31738,128,0,33042:0:0:0:0:
64,192,31738,1,0,0:0:0:0:
320,192,31955,1,0,0:0:0:0:
448,192,32172,1,0,0:0:0:0:
64,192,32390,1,0,0:0:0:0:
448,192,32607,1,0,0:0:0:0:
320,192,32825,1,0,0:0:0:0:
64,192,33042,1,0,0:0:0:0:
448,192,33259,1,0,0:0:0:0:
192,192,33259,1,0,0:0:0:0:
320,192,33477,1,0,0:0:0:0:
64,192,33477,1,0,0:0:0:0:
448,192,33477,1,0,0:0:0:0:
192,192,33694,1,0,0:0:0:0:
320,192,33912,1,0,0:0:0:0:
448,192,33912,1,0,0:0:0:0:
192,192,34129,1,0,0:0:0:0:
64,192,34346,1,0,0:0:0:0:
320,192,34346,1,0,0:0:0:0:
64,192,34564,1,0,0:0:0:0:
320,192,34564,1,0,0:0:0:0:
64,192,34781,1,0,0:0:0:0:
320,192,34781,1,0,0:0:0:0:
192,192,34999,1,0,0:0:0:0:
448,192,34999,1,0,0:0:0:0:
320,192,35216,1,0,0:0:0:0:
192,192,35216,1,0,0:0:0:0:
320,192,35433,1,0,0:0:0:0:
192,192,35651,1,0,0:0:0:0:
64,192,35651,1,0,0:0:0:0:
320,192,35868,1,0,0:0:0:0:
192,192,36086,1,0,0:0:0:0:
448,192,36086,1,0,0:0:0:0:
64,192,36303,1,0,0:0:0:0:
64,192,36520,1,0,0:0:0:0:
448,192,36520,1,0,0:0:0:0:
192,192,36738,1,0,0:0:0:0:
320,192,36738,1,0,0:0:0:0:
448,192,36955,128,0,38259:0:0:0:0:
64,192,36955,1,0,0:0:0:0:
192,192,36955,1,0,0:0:0:0:
320,192,37172,1,0,0:0:0:0:
64,192,37390,1,0,0:0:0:0:
320,192,37607,1,0,0:0:0:0:
192,192,37825,1,0,0:0:0:0:
320,192,38042,1,0,0:0:0:0:
192,192,38259,1,0,0:0:0:0:
64,192,38259,1,0,0:0:0:0:
192,192,38477,1,0,0:0:0:0:
448,192,38477,1,0,0:0:0:0:
192,192,38694,128,0,39999:0:0:0:0:
64,192,38694,1,0,0:0:0:0:
320,192,38912,1,0,0:0:0:0:
448,192,39129,1,0,0:0:0:0:
64,192,39346,1,0,0:0:0:0:
448,192,39564,1,0,0:0:0:0:
320,192,39781,1,0,0:0:0:0:
64,192,39999,1,0,0:0:0:0:
448,192,39999,1,0,0:0:0:0:
192,192,40216,1,0,0:0:0:0:
320,192,40216,1,0,0:0:0:0:
64,192,40433,1,0,0:0:0:0:
320,192,40433,1,0,0:0:0:0:
448,192,40433,1,0,0:0:0:0:
192,192,40651,1,0,0:0:0:0:
320,192,40868,1,0,0:0:0:0:
64,192,40868,1,0,0:0:0:0:
448,192,41086,1,0,0:0:0:0:
192,192,41303,1,0,0:0:0:0:
64,192,41303,1,0,0:0:0:0:
64,192,41520,1,0,0:0:0:0:
192,192,41520,1,0,0:0:0:0:
64,192,41738,1,0,0:0:0:0:
192,192,41738,1,0,0:0:0:0:
320,192,41955,1,0,0:0:0:0:
448,192,41955,1,0,0:0:0:0:
64,192,42172,1,0,0:0:0:0:
320,192,42172,1,0,0:0:0:0:
192,192,42390,1,0,0:0:0:0:
64,192,42607,1,0,0:0:0:0:
448,192,42607,1,0,0:0:0:0:
192,192,42825,1,0,0:0:0:0:
320,192,43042,1,0,0:0:0:0:
448,192,43042,1,0,0:0:0:0:
320,192,43259,1,0,0:0:0:0:
192,192,43368,1,0,0:0:0:0:
64,192,43477,1,0,0:0:0:0:
448,192,43477,1,0,0:0:0:0:
192,192,43694,1,0,0:0:0:0:
320,192,43694,1,0,0:0:0:0:
320,192,43912,1,0,0:0:0:0:
448,192,43912,1,0,0:0:0:0:
64,192,43912,128,0,44564:0:0:0:0:
192,192,44129,1,0,0:0:0:0:
448,192,44346,1,0,0:0:0:0:
192,192,44564,1,0,0:0:0:0:
320,192,44672,1,0,0:0:0:0:
448,192,44781,1,0,0:0:0:0:
192,192,44781,1,0,0:0:0:0:
320,192,44999,1,0,0:0:0:0:
64,192,44999,1,0,0:0:0:0:
192,192,45216,128,0,45651:0:0:0:0:
64,192,45216,1,0,0:0:0:0:
448,192,45433,1,0,0:0:0:0:
448,192,45651,128,0,46738:0:0:0:0:
320,192,45651,1,0,0:0:0:0:
64,192,45651,1,0,0:0:0:0:
192,192,45868,1,0,0:0:0:0:
320,192,46086,1,0,0:0:0:0:
64,192,46303,1,0,0:0:0:0:
192,192,46412,1,0,0:0:0:0:
320,192,46520,1,0,0:0:0:0:
192,192,46738,1,0,0:0:0:0:
64,192,46955,1,0,0:0:0:0:
320,192,46955,1,0,0:0:0:0:
64,192,47172,1,0,0:0:0:0:
448,192,47172,1,0,0:0:0:0:
192,192,47390,1,0,0:0:0:0:
64,192,47390,128,0,48151:0:0:0:0:
448,192,47390,1,0,0:0:0:0:
320,192,47607,1,0,0:0:0:0:
448,192,47825,1,0,0:0:0:0:
192,192,48042,1,0,0:0:0:0:
448,192,48151,1,0,0:0:0:0:
192,192,48259,128,0,48694:0:0:0:0:
320,192,48259,1,0,0:0:0:0:
320,192,48477,1,0,0:0:0:0:
448,192,48694,128,0,49129:0:0:0:0:
320,192,48694,1,0,0:0:0:0:
192,192,48912,1,0,0:0:0:0:
64,192,49129,128,0,49999:0:0:0:0:
320,192,49129,1,0,0:0:0:0:
192,192,49129,1,0,0:0:0:0:
320,192,49346,1,0,0:0:0:0:
448,192,49564,1,0,0:0:0:0:
320,192,49781,1,0,0:0:0:0:
192,192,49890,1,0,0:0:0:0:
448,192,49999,1,0,0:0:0:0:
320,192,49999,128,0,50433:0:0:0:0:
192,192,50216,1,0,0:0:0:0:
64,192,50433,1,0,0:0:0:0:
448,192,50433,1,0,0:0:0:0:
192,192,50651,1,0,0:0:0:0:
320,192,50651,1,0,0:0:0:0:
64,192,50868,128,0,51738:0:0:0:0:
320,192,50868,1,0,0:0:0:0:
448,192,50868,1,0,0:0:0:0:
192,192,51086,1,0,0:0:0:0:
448,192,51303,1,0,0:0:0:0:
320,192,51520,1,0,0:0:0:0:
448,192,51629,1,0,0:0:0:0:
192,192,51738,128,0,51955:0:0:0:0:
320,192,51738,1,0,0:0:0:0:
320,192,51955,128,0,52172:0:0:0:0:
448,192,52172,128,0,52607:0:0:0:0:
64,192,52172,1,0,0:0:0:0:
192,192,52390,1,0,0:0:0:0:
192,192,52607,128,0,53694:0:0:0:0:
64,192,52607,1,0,0:0:0:0:
320,192,52607,1,0,0:0:0:0:
320,192,52825,1,0,0:0:0:0:
448,192,53042,1,0,0:0:0:0:
320,192,53259,1,0,0:0:0:0:
448,192,53368,1,0,0:0:0:0:
64,192,53477,1,0,0:0:0:0:
320,192,53694,1,0,0:0:0:0:
64,192,53912,128,0,54129:0:0:0:0:
448,192,53912,1,0,0:0:0:0:
448,192,54129,128,0,54346:0:0:0:0:
320,192,54346,128,0,55216:0:0:0:0:
64,192,54346,1,0,0:0:0:0:
192,192,54346,1,0,0:0:0:0:
192,192,54564,1,0,0:0:0:0:
448,192,54781,1,0,0:0:0:0:
64,192,54999,1,0,0:0:0:0:
448,192,55107,1,0,0:0:0:0:
64,192,55216,128,0,55651:0:0:0:0:
192,192,55216,1,0,0:0:0:0:
192,192,55433,1,0,0:0:0:0:
448,192,55651,128,0,56086:0:0:0:0:
192,192,55651,1,0,0:0:0:0:
320,192,55868,1,0,0:0:0:0:
192,192,56086,128,0,57390:0:0:0:0:
64,192,56086,1,0,0:0:0:0:
320,192,56086,1,0,0:0:0:0:
448,192,56303,1,0,0:0:0:0:
320,192,56520,1,0,0:0:0:0:
64,192,56738,5,0,0:0:0:0:
448,192,56846,1,0,0:0:0:0:
320,192,56955,1,0,0:0:0:0:
448,192,57172,1,0,0:0:0:0:
64,192,57281,1,0,0:0:0:0:
320,192,57390,1,0,0:0:0:0:
192,192,57607,1,0,0:0:0:0:
320,192,57607,1,0,0:0:0:0:
64,192,57825,1,0,0:0:0:0:
448,192,57825,1,0,0:0:0:0:
320,192,58477,1,0,0:0:0:0:
320,192,58586,1,0,0:0:0:0:
320,192,58694,1,0,0:0:0:0:
320,192,58912,1,0,0:0:0:0:
320,192,59129,1,0,0:0:0:0:
320,192,59346,1,0,0:0:0:0:
64,192,59564,1,0,0:0:0:0:
448,192,60216,1,0,0:0:0:0:
448,192,60325,1,0,0:0:0:0:
448,192,60433,1,0,0:0:0:0:
448,192,60651,1,0,0:0:0:0:
448,192,60868,1,0,0:0:0:0:
448,192,61086,1,0,0:0:0:0:
192,192,61303,1,0,0:0:0:0:
64,192,61955,1,0,0:0:0:0:
64,192,62064,1,0,0:0:0:0:
64,192,62172,1,0,0:0:0:0:
64,192,62390,1,0,0:0:0:0:
64,192,62607,1,0,0:0:0:0:
64,192,62825,1,0,0:0:0:0:
448,192,63042,1,0,0:0:0:0:
192,192,63694,1,0,0:0:0:0:
192,192,63803,1,0,0:0:0:0:
320,192,63912,1,0,0:0:0:0:
320,192,64129,1,0,0:0:0:0:
64,192,64346,1,0,0:0:0:0:
64,192,64564,1,0,0:0:0:0:
192,192,64781,1,0,0:0:0:0:
448,192,64781,1,0,0:0:0:0:
320,192,65433,1,0,0:0:0:0:
320,192,65542,1,0,0:0:0:0:
320,192,65651,1,0,0:0:0:0:
320,192,65868,1,0,0:0:0:0:
320,192,66086,1,0,0:0:0:0:
320,192,66303,1,0,0:0:0:0:
64,192,66520,1,0,0:0:0:0:
448,192,67172,1,0,0:0:0:0:
448,192,67281,1,0,0:0:0:0:
448,192,67390,1,0,0:0:0:0:
448,192,67607,1,0,0:0:0:0:
448,192,67825,1,0,0:0:0:0:
448,192,68042,1,0,0:0:0:0:
192,192,68259,1,0,0:0:0:0:
64,192,68912,1,0,0:0:0:0:
64,192,69020,1,0,0:0:0:0:
64,192,69129,1,0,0:0:0:0:
64,192,69346,1,0,0:0:0:0:
64,192,69564,1,0,0:0:0:0:
64,192,69781,1,0,0:0:0:0:
320,192,69999,1,0,0:0:0:0:
192,192,70651,5,0,0:0:0:0:
192,192,70759,1,0,0:0:0:0:
448,192,70868,1,0,0:0:0:0:
448,192,71086,1,0,0:0:0:0:
64,192,71303,1,0,0:0:0:0:
64,192,71520,1,0,0:0:0:0:
192,192,71738,5,0,0:0:0:0:
448,192,71738,1,0,0:0:0:0:
320,192,71955,1,0,0:0:0:0:
64,192,72172,1,0,0:0:0:0:
192,192,72390,1,0,0:0:0:0:
448,192,72499,1,0,0:0:0:0:
64,192,72607,1,0,0:0:0:0:
192,192,72825,1,0,0:0:0:0:
192,192,73042,1,0,0:0:0:0:
448,192,73259,1,0,0:0:0:0:
448,192,73477,1,0,0:0:0:0:
64,192,73694,1,0,0:0:0:0:
320,192,73912,1,0,0:0:0:0:
192,192,74129,1,0,0:0:0:0:
64,192,74238,1,0,0:0:0:0:
448,192,74346,1,0,0:0:0:0:
192,192,74564,1,0,0:0:0:0:
192,192,74781,1,0,0:0:0:0:
320,192,74999,1,0,0:0:0:0:
320,192,75216,1,0,0:0:0:0:
448,192,75433,1,0,0:0:0:0:
192,192,75542,1,0,0:0:0:0:
64,192,75651,1,0,0:0:0:0:
192,192,75868,1,0,0:0:0:0:
448,192,75977,1,0,0:0:0:0:
320,192,76086,1,0,0:0:0:0:
64,192,76303,1,0,0:0:0:0:
64,192,76520,1,0,0:0:0:0:
320,192,76738,1,0,0:0:0:0:
320,192,76955,1,0,0:0:0:0:
448,192,77172,1,0,0:0:0:0:
64,192,77281,1,0,0:0:0:0:
192,192,77390,1,0,0:0:0:0:
320,192,77607,5,0,0:0:0:0:
448,192,77716,1,0,0:0:0:0:
192,192,77825,1,0,0:0:0:0:
192,192,78042,1,0,0:0:0:0:
64,192,78259,1,0,0:0:0:0:
64,192,78477,1,0,0:0:0:0:
192,192,78694,5,0,0:0:0:0:
448,192,78694,1,0,0:0:0:0:
320,192,78912,1,0,0:0:0:0:
320,192,79129,1,0,0:0:0:0:
320,192,79238,1,0,0:0:0:0:
320,192,79455,1,0,0:0:0:0:
320,192,79564,1,0,0:0:0:0:
320,192,79781,1,0,0:0:0:0:
64,192,79781,1,0,0:0:0:0:
320,192,79999,1,0,0:0:0:0:
64,192,79999,1,0,0:0:0:0:
320,192,80216,1,0,0:0:0:0:
192,192,80216,1,0,0:0:0:0:
448,192,80433,1,0,0:0:0:0:
192,192,80433,1,0,0:0:0:0:
64,192,80651,1,0,0:0:0:0:
64,192,80868,1,0,0:0:0:0:
320,192,80868,1,0,0:0:0:0:
64,192,80977,1,0,0:0:0:0:
192,192,81086,1,0,0:0:0:0:
64,192,81194,1,0,0:0:0:0:
64,192,81303,1,0,0:0:0:0:
64,192,81520,1,0,0:0:0:0:
320,192,81520,1,0,0:0:0:0:
64,192,81738,1,0,0:0:0:0:
320,192,81738,1,0,0:0:0:0:
64,192,81955,1,0,0:0:0:0:
448,192,81955,1,0,0:0:0:0:
320,192,82172,1,0,0:0:0:0:
192,192,82172,1,0,0:0:0:0:
448,192,82390,1,0,0:0:0:0:
448,192,82607,1,0,0:0:0:0:
64,192,82607,1,0,0:0:0:0:
448,192,82716,1,0,0:0:0:0:
448,192,82933,1,0,0:0:0:0:
64,192,83042,1,0,0:0:0:0:
320,192,83042,1,0,0:0:0:0:
192,192,83259,1,0,0:0:0:0:
320,192,83259,1,0,0:0:0:0:
192,192,83477,1,0,0:0:0:0:
320,192,83477,1,0,0:0:0:0:
192,192,83586,1,0,0:0:0:0:
448,192,83694,1,0,0:0:0:0:
192,192,83803,1,0,0:0:0:0:
448,192,83912,1,0,0:0:0:0:
320,192,83912,1,0,0:0:0:0:
192,192,84020,1,0,0:0:0:0:
192,192,84129,1,0,0:0:0:0:
64,192,84346,1,0,0:0:0:0:
192,192,84346,1,0,0:0:0:0:
320,192,84455,5,0,0:0:0:0:
320,192,84564,1,0,0:0:0:0:
320,192,84781,1,0,0:0:0:0:
448,192,84781,1,0,0:0:0:0:
192,192,84890,1,0,0:0:0:0:
192,192,84999,1,0,0:0:0:0:
64,192,85216,1,0,0:0:0:0:
448,192,85216,1,0,0:0:0:0:
320,192,85433,1,0,0:0:0:0:
192,192,85651,5,0,0:0:0:0:
64,192,85651,1,0,0:0:0:0:
448,192,85651,1,0,0:0:0:0:
192,192,85868,1,0,0:0:0:0:
320,192,85868,1,0,0:0:0:0:
64,192,86086,1,0,0:0:0:0:
320,192,86086,1,0,0:0:0:0:
64,192,86303,1,0,0:0:0:0:
448,192,86303,1,0,0:0:0:0:
320,192,86520,1,0,0:0:0:0:
192,192,86738,1,0,0:0:0:0:
64,192,86955,1,0,0:0:0:0:
320,192,87172,1,0,0:0:0:0:
192,192,87390,1,0,0:0:0:0:
448,192,87390,1,0,0:0:0:0:
64,192,87607,1,0,0:0:0:0:
320,192,87607,1,0,0:0:0:0:
192,192,87825,1,0,0:0:0:0:
320,192,87825,1,0,0:0:0:0:
192,192,88042,1,0,0:0:0:0:
448,192,88042,1,0,0:0:0:0:
64,192,88259,1,0,0:0:0:0:
320,192,88259,1,0,0:0:0:0:
192,192,88477,1,0,0:0:0:0:
320,192,88694,1,0,0:0:0:0:
192,192,88912,1,0,0:0:0:0:
320,192,89129,1,0,0:0:0:0:
448,192,89129,1,0,0:0:0:0:
64,192,89129,1,0,0:0:0:0:
64,192,89346,1,0,0:0:0:0:
192,192,89346,1,0,0:0:0:0:
320,192,89564,1,0,0:0:0:0:
448,192,89564,1,0,0:0:0:0:
192,192,89781,1,0,0:0:0:0:
192,192,89999,1,0,0:0:0:0:
448,192,89999,1,0,0:0:0:0:
64,192,90216,1,0,0:0:0:0:
320,192,90216,1,0,0:0:0:0:
192,192,90433,1,0,0:0:0:0:
448,192,90433,1,0,0:0:0:0:
320,192,90651,1,0,0:0:0:0:
64,192,90868,1,0,0:0:0:0:
192,192,90868,1,0,0:0:0:0:
64,192,91086,1,0,0:0:0:0:
448,192,91086,1,0,0:0:0:0:
192,192,91303,1,0,0:0:0:0:
448,192,91303,1,0,0:0:0:0:
64,192,91520,1,0,0:0:0:0:
320,192,91520,1,0,0:0:0:0:
192,192,91738,1,0,0:0:0:0:
320,192,91738,1,0,0:0:0:0:
64,192,91955,1,0,0:0:0:0:
320,192,92172,1,0,0:0:0:0:
192,192,92390,1,0,0:0:0:0:
448,192,92390,1,0,0:0:0:0:
192,192,92607,1,0,0:0:0:0:
448,192,92607,1,0,0:0:0:0:
64,192,92607,1,0,0:0:0:0:
64,192,92825,1,0,0:0:0:0:
320,192,92825,1,0,0:0:0:0:
192,192,93042,1,0,0:0:0:0:
320,192,93042,1,0,0:0:0:0:
192,192,93259,1,0,0:0:0:0:
448,192,93259,1,0,0:0:0:0:
320,192,93477,1,0,0:0:0:0:
64,192,93694,1,0,0:0:0:0:
192,192,93912,1,0,0:0:0:0:
320,192,94129,1,0,0:0:0:0:
64,192,94346,1,0,0:0:0:0:
448,192,94346,1,0,0:0:0:0:
192,192,94564,1,0,0:0:0:0:
320,192,94564,1,0,0:0:0:0:
64,192,94781,1,0,0:0:0:0:
320,192,94781,1,0,0:0:0:0:
192,192,94999,1,0,0:0:0:0:
448,192,94999,1,0,0:0:0:0:
64,192,95216,1,0,0:0:0:0:
448,192,95216,1,0,0:0:0:0:
320,192,95433,1,0,0:0:0:0:
192,192,95651,1,0,0:0:0:0:
320,192,95868,1,0,0:0:0:0:
448,192,96086,1,0,0:0:0:0:
64,192,96086,1,0,0:0:0:0:
192,192,96086,1,0,0:0:0:0:
64,192,96303,1,0,0:0:0:0:
320,192,96303,1,0,0:0:0:0:
192,192,96520,1,0,0:0:0:0:
448,192,96520,1,0,0:0:0:0:
64,192,96738,1,0,0:0:0:0:
320,192,96955,1,0,0:0:0:0:
448,192,96955,1,0,0:0:0:0:
64,192,97172,1,0,0:0:0:0:
192,192,97172,1,0,0:0:0:0:
320,192,97390,1,0,0:0:0:0:
448,192,97390,1,0,0:0:0:0:
192,192,97607,1,0,0:0:0:0:
64,192,97825,1,0,0:0:0:0:
448,192,97825,1,0,0:0:0:0:
64,192,98042,1,0,0:0:0:0:
320,192,98042,1,0,0:0:0:0:
192,192,98259,1,0,0:0:0:0:
320,192,98259,1,0,0:0:0:0:
64,192,98477,1,0,0:0:0:0:
448,192,98477,1,0,0:0:0:0:
192,192,98694,1,0,0:0:0:0:
448,192,98694,1,0,0:0:0:0:
320,192,98912,1,0,0:0:0:0:
448,192,99020,1,0,0:0:0:0:
64,192,99129,1,0,0:0:0:0:
320,192,99129,1,0,0:0:0:0:
192,192,99346,1,0,0:0:0:0:
320,192,99346,1,0,0:0:0:0:
192,192,99564,1,0,0:0:0:0:
448,192,99564,1,0,0:0:0:0:
64,192,99564,1,0,0:0:0:0:
320,192,99781,1,0,0:0:0:0:
64,192,99999,1,0,0:0:0:0:
192,192,99999,1,0,0:0:0:0:
448,192,100216,1,0,0:0:0:0:
64,192,100433,1,0,0:0:0:0:
320,192,100433,128,0,100651:0:0:0:0:
192,192,100651,128,0,100868:0:0:0:0:
448,192,100868,1,0,0:0:0:0:
64,192,100868,128,0,101086:0:0:0:0:
448,192,101086,128,0,101303:0:0:0:0:
192,192,101303,128,0,101738:0:0:0:0:
320,192,101303,1,0,0:0:0:0:
64,192,101303,1,0,0:0:0:0:
320,192,101520,1,0,0:0:0:0:
64,192,101738,1,0,0:0:0:0:
448,192,101738,1,0,0:0:0:0:
320,192,101955,1,0,0:0:0:0:
448,192,102172,128,0,102390:0:0:0:0:
64,192,102172,1,0,0:0:0:0:
320,192,102390,128,0,102607:0:0:0:0:
64,192,102607,128,0,102825:0:0:0:0:
192,192,102607,1,0,0:0:0:0:
448,192,102825,128,0,103042:0:0:0:0:
192,192,103042,128,0,103477:0:0:0:0:
64,192,103042,1,0,0:0:0:0:
320,192,103042,1,0,0:0:0:0:
448,192,103259,1,0,0:0:0:0:
64,192,103477,1,0,0:0:0:0:
320,192,103477,1,0,0:0:0:0:
448,192,103694,1,0,0:0:0:0:
320,192,103912,128,0,104129:0:0:0:0:
192,192,103912,1,0,0:0:0:0:
192,192,104129,128,0,104346:0:0:0:0:
64,192,104346,128,0,104564:0:0:0:0:
448,192,104346,1,0,0:0:0:0:
448,192,104564,128,0,104781:0:0:0:0:
192,192,104781,128,0,105216:0:0:0:0:
64,192,104781,1,0,0:0:0:0:
320,192,104781,1,0,0:0:0:0:
448,192,104999,1,0,0:0:0:0:
320,192,105216,128,0,105433:0:0:0:0:
448,192,105216,1,0,0:0:0:0:
64,192,105433,128,0,105651:0:0:0:0:
448,192,105651,128,0,106086:0:0:0:0:
192,192,105651,1,0,0:0:0:0:
320,192,105868,1,0,0:0:0:0:
192,192,106086,128,0,106520:0:0:0:0:
64,192,106086,1,0,0:0:0:0:
320,192,106303,1,0,0:0:0:0:
64,192,106520,1,0,0:0:0:0:
320,192,106520,1,0,0:0:0:0:
448,192,106520,1,0,0:0:0:0:
192,192,106738,1,0,0:0:0:0:
448,192,106738,1,0,0:0:0:0:
64,192,106955,1,0,0:0:0:0:
320,192,106955,1,0,0:0:0:0:
448,192,107172,1,0,0:0:0:0:
64,192,107172,1,0,0:0:0:0:
320,192,107390,128,0,107607:0:0:0:0:
192,192,107390,1,0,0:0:0:0:
192,192,107607,128,0,107825:0:0:0:0:
64,192,107825,128,0,108042:0:0:0:0:
448,192,107825,1,0,0:0:0:0:
448,192,108042,128,0,108259:0:0:0:0:
192,192,108259,128,0,108694:0:0:0:0:
64,192,108259,1,0,0:0:0:0:
320,192,108259,1,0,0:0:0:0:
320,192,108477,1,0,0:0:0:0:
64,192,108694,1,0,0:0:0:0:
448,192,108694,1,0,0:0:0:0:
192,192,108912,1,0,0:0:0:0:
448,192,108912,1,0,0:0:0:0:
320,192,109129,1,0,0:0:0:0:
64,192,109129,1,0,0:0:0:0:
192,192,109129,128,0,109346:0:0:0:0:
64,192,109346,128,0,109564:0:0:0:0:
320,192,109564,128,0,109781:0:0:0:0:
192,192,109564,1,0,0:0:0:0:
448,192,109781,128,0,109999:0:0:0:0:
192,192,109999,128,0,110433:0:0:0:0:
64,192,109999,1,0,0:0:0:0:
320,192,109999,1,0,0:0:0:0:
64,192,110216,1,0,0:0:0:0:
448,192,110433,1,0,0:0:0:0:
320,192,110433,1,0,0:0:0:0:
64,192,110651,1,0,0:0:0:0:
448,192,110868,128,0,111086:0:0:0:0:
192,192,110868,1,0,0:0:0:0:
320,192,110868,1,0,0:0:0:0:
192,192,111086,128,0,111303:0:0:0:0:
64,192,111086,1,0,0:0:0:0:
64,192,111303,128,0,111520:0:0:0:0:
448,192,111303,1,0,0:0:0:0:
320,192,111520,128,0,111738:0:0:0:0:
192,192,111738,128,0,112172:0:0:0:0:
64,192,111738,1,0,0:0:0:0:
448,192,111738,1,0,0:0:0:0:
320,192,111955,1,0,0:0:0:0:
320,192,112172,128,0,112390:0:0:0:0:
64,192,112172,1,0,0:0:0:0:
448,192,112390,128,0,112607:0:0:0:0:
64,192,112390,1,0,0:0:0:0:
192,192,112499,1,0,0:0:0:0:
64,192,112607,128,0,113042:0:0:0:0:
320,192,112607,1,0,0:0:0:0:
448,192,112825,1,0,0:0:0:0:
320,192,112933,1,0,0:0:0:0:
448,192,113042,128,0,113477:0:0:0:0:
192,192,113042,1,0,0:0:0:0:
320,192,113259,1,0,0:0:0:0:
320,192,113477,128,0,113912:0:0:0:0:
64,192,113477,1,0,0:0:0:0:
192,192,113477,1,0,0:0:0:0:
192,192,114346,1,0,0:0:0:0:
448,192,114346,1,0,0:0:0:0:
320,192,114564,1,0,0:0:0:0:
192,192,114564,1,0,0:0:0:0:
64,192,114781,1,0,0:0:0:0:
320,192,114781,1,0,0:0:0:0:
192,192,114999,1,0,0:0:0:0:
448,192,114999,1,0,0:0:0:0:
64,192,115216,1,0,0:0:0:0:
320,192,115216,128,0,115651:0:0:0:0:
320,192,115868,1,0,0:0:0:0:
64,192,116086,1,0,0:0:0:0:
448,192,116086,1,0,0:0:0:0:
192,192,116303,1,0,0:0:0:0:
448,192,116303,1,0,0:0:0:0:
64,192,116520,1,0,0:0:0:0:
320,192,116520,1,0,0:0:0:0:
448,192,116738,1,0,0:0:0:0:
64,192,116738,1,0,0:0:0:0:
192,192,116955,128,0,117390:0:0:0:0:
320,192,116955,1,0,0:0:0:0:
448,192,117172,1,0,0:0:0:0:
64,192,117390,1,0,0:0:0:0:
192,192,117607,1,0,0:0:0:0:
320,192,117825,1,0,0:0:0:0:
448,192,117825,1,0,0:0:0:0:
64,192,118042,1,0,0:0:0:0:
448,192,118042,1,0,0:0:0:0:
192,192,118259,1,0,0:0:0:0:
320,192,118259,1,0,0:0:0:0:
448,192,118477,1,0,0:0:0:0:
64,192,118477,1,0,0:0:0:0:
320,192,118694,1,0,0:0:0:0:
192,192,118694,128,0,119129:0:0:0:0:
320,192,118912,1,0,0:0:0:0:
64,192,119129,1,0,0:0:0:0:
448,192,119129,1,0,0:0:0:0:
192,192,119346,1,0,0:0:0:0:
320,192,119346,1,0,0:0:0:0:
448,192,119564,128,0,119999:0:0:0:0:
64,192,119564,1,0,0:0:0:0:
192,192,119781,1,0,0:0:0:0:
320,192,119999,128,0,120433:0:0:0:0:
64,192,119999,1,0,0:0:0:0:
192,192,120216,1,0,0:0:0:0:
192,192,120433,128,0,120868:0:0:0:0:
448,192,120433,1,0,0:0:0:0:
64,192,120433,1,0,0:0:0:0:
448,192,120651,1,0,0:0:0:0:
320,192,120868,1,0,0:0:0:0:
192,192,121086,1,0,0:0:0:0:
64,192,121303,1,0,0:0:0:0:
448,192,121303,1,0,0:0:0:0:
192,192,121520,1,0,0:0:0:0:
320,192,121520,1,0,0:0:0:0:
64,192,121738,1,0,0:0:0:0:
320,192,121738,1,0,0:0:0:0:
192,192,121955,1,0,0:0:0:0:
448,192,121955,1,0,0:0:0:0:
64,192,122172,1,0,0:0:0:0:
320,192,122172,128,0,122607:0:0:0:0:
448,192,122390,1,0,0:0:0:0:
64,192,122607,1,0,0:0:0:0:
320,192,122825,1,0,0:0:0:0:
192,192,123042,1,0,0:0:0:0:
448,192,123042,1,0,0:0:0:0:
64,192,123259,1,0,0:0:0:0:
320,192,123259,1,0,0:0:0:0:
64,192,123477,1,0,0:0:0:0:
192,192,123477,1,0,0:0:0:0:
320,192,123694,1,0,0:0:0:0:
448,192,123694,1,0,0:0:0:0:
64,192,123912,128,0,124346:0:0:0:0:
320,192,123912,1,0,0:0:0:0:
448,192,124129,1,0,0:0:0:0:
192,192,124346,1,0,0:0:0:0:
320,192,124564,1,0,0:0:0:0:
64,192,124781,1,0,0:0:0:0:
448,192,124781,1,0,0:0:0:0:
64,192,124999,1,0,0:0:0:0:
320,192,124999,1,0,0:0:0:0:
192,192,125216,1,0,0:0:0:0:
320,192,125216,1,0,0:0:0:0:
64,192,125433,1,0,0:0:0:0:
448,192,125433,1,0,0:0:0:0:
192,192,125651,128,0,126086:0:0:0:0:
320,192,125651,1,0,0:0:0:0:
448,192,125868,1,0,0:0:0:0:
64,192,126086,1,0,0:0:0:0:
320,192,126086,1,0,0:0:0:0:
192,192,126303,1,0,0:0:0:0:
320,192,126303,1,0,0:0:0:0:
448,192,126520,128,0,126955:0:0:0:0:
320,192,127009,128,0,127390:0:0:0:0:
192,192,127281,1,0,0:0:0:0:
64,192,127499,1,0,0:0:0:0:
448,192,127607,1,0,0:0:0:0:
320,192,127662,1,0,0:0:0:0:
192,192,127716,128,0,129999:0:0:0:0:
