osu file format v5

[General]
AudioFilename: 018.Track18.mp3
AudioLeadIn: 0
PreviewTime: -1
Countdown: 1
SampleSet: Normal
StackLeniency: 0.7
Mode: 0

[Metadata]
Title:Track18
Artist:Zun
Creator:jimtheone
Version:Easy

[Difficulty]
HPDrainRate:3
CircleSize:5
OverallDifficulty:5
SliderMultiplier:1.4
SliderTickRate:1

[Events]
//Background and Video events
//Break Periods
2,44833,58277
//Storyboard Layer 0 (Background)
//Storyboard Layer 1 (Failing)
//Storyboard Layer 2 (Passing)
//Storyboard Layer 3 (Foreground)
//Storyboard Sound Samples
//Background Colour Transformations
3,100,163,162,255

[TimingPoints]
14944,463.893613731251,4,1,0,100

[Colours]
Combo1 : 255,150,0
Combo2 : 5,240,5
Combo3 : 5,5,240
Combo4 : 240,5,5

[HitObjects]
96,96,14944,5,0
384,96,15871,5,0
96,288,16799,5,0
384,288,17727,5,0
96,96,18655,5,0
352,96,19273,5,0
384,96,19582,1,0
384,288,20510,5,0
128,288,21129,5,0
96,288,21438,1,0
96,96,22366,5,0
384,96,23294,5,0
384,288,24221,5,0
96,288,25149,5,0
96,96,26077,5,0
352,96,26773,5,0
384,96,27005,1,0
96,288,27933,5,0
352,288,28628,5,0
384,288,28860,1,0
384,64,29788,6,4,B|160:64|128:64,1,210
64,64,31180,1,4
64,128,31644,2,4,B|64:352,1,210
128,352,33035,1,4
192,352,33499,2,4,B|416:352,1,210
480,352,34891,1,4
480,288,35355,2,0,B|480:64,1,210
416,64,36746,1,0
320,64,37210,6,0,B|96:64,1,210
64,64,38602,1,0
64,128,39066,2,0,B|64:352,1,210
128,352,40458,1,0
192,352,40922,2,0,B|416:352,1,210
480,352,42313,1,0
480,288,42777,2,0,B|480:64,1,210
448,64,43705,5,0
416,64,43937,1,0
384,64,44169,1,0
352,64,44401,1,0
288,64,44633,1,0
96,64,59477,5,0
96,192,59941,1,0
96,224,60173,1,0
96,256,60405,1,0
416,64,61333,5,0
416,192,61797,1,0
416,224,62029,1,0
416,256,62261,1,0
96,64,63188,5,0
96,224,63884,1,0
96,256,64116,1,0
384,64,65044,5,0
384,224,65740,1,0
384,256,65972,1,0
32,64,66900,6,0,B|448:64|480:64,1,420
32,288,68755,6,0,B|480:288,1,420
384,64,70611,5,0
384,256,71191,1,0
384,288,71423,1,0
96,64,72350,5,0
96,256,73046,1,0
96,288,73278,1,0
480,64,74206,6,0,B|32:64,1,420
64,160,76061,6,0,B|512:160,1,420
480,256,77917,6,0,B|32:256,1,420
64,352,79773,6,0,B|512:352,1,420
480,64,81628,6,0,B|32:64,1,420
64,160,83484,6,0,B|512:160,1,420
480,256,85339,6,0,B|32:256,1,420
64,352,87195,6,0,B|512:352,1,420
