osu file format v12

[General]
AudioFilename: No.1127.mp3
AudioLeadIn: 1000
PreviewTime: 26886
Countdown: 0
SampleSet: None
StackLeniency: 0.7
Mode: 3
LetterboxInBreaks: 0
SpecialStyle: 0
WidescreenStoryboard: 1

[Editor]
DistanceSpacing: 0.8
BeatDivisor: 2
GridSize: 8
TimelineZoom: 1

[Metadata]
Title:No.1127
TitleUnicode:No.1127
Artist:Zou Tian Heng
ArtistUnicode:邹天恒
Creator:OniJAM
Version:Normal Lv.6
Source:Rhythm Master
Tags:
BeatmapID:392719
BeatmapSetID:160779

[Difficulty]
HPDrainRate:7
CircleSize:4
OverallDifficulty:7
ApproachRate:5
SliderMultiplier:1.4
SliderTickRate:1

[Events]
//Background and Video events
0,0,"Background.jpg",0,0
//Break Periods
//Storyboard Layer 0 (Background)
//Storyboard Layer 1 (Fail)
//Storyboard Layer 2 (Pass)
//Storyboard Layer 3 (Foreground)
//Storyboard Sound Samples
//Background Colour Transformations
3,100,163,162,255

[TimingPoints]
-10,258.620689655172,4,3,1,40,1,0
2058,-100,4,3,1,50,0,0
10334,-100,4,3,1,60,0,0
26886,-100,4,3,1,55,0,1
43438,-100,4,3,1,40,0,0
47576,-100,4,3,1,55,0,0
49645,-100,4,3,1,65,0,0
57921,-100,4,3,1,60,0,0
61024,-100,4,3,1,55,0,0
62058,-100,4,3,1,50,0,0
63093,-100,4,3,1,55,0,0
64127,-100,4,3,1,60,0,0
72403,-100,4,3,1,55,0,0
74472,-100,4,3,1,50,0,0
77576,-100,4,3,1,55,0,0
80679,-100,4,3,1,60,0,0
88955,-100,4,3,1,65,0,1
105507,-100,4,3,1,65,0,0
109645,-100,4,3,1,60,0,0
111714,-100,4,3,1,65,0,0
119989,-100,4,3,1,60,0,0

[HitObjects]
64,192,1800,5,0,0:0:0:0:
192,192,1929,1,0,0:0:0:0:
448,192,2058,5,0,0:0:0:0:
320,192,2058,128,4,3093:0:2:0:0:
448,192,3093,128,4,4127:0:2:0:0:
192,192,3610,128,0,4127:1:0:0:0:
64,192,4127,128,4,5679:0:2:0:0:
320,192,5679,1,0,0:0:0:0:
192,192,5679,128,4,6196:0:2:0:0:
448,192,6196,1,0,0:0:0:0:
320,192,6196,128,4,7231:0:2:0:0:
448,192,7231,128,4,8265:0:2:0:0:
64,192,7231,1,0,0:0:0:0:
64,192,7748,128,0,8265:1:0:0:0:
320,192,8265,1,4,0:2:0:0:
192,192,8265,1,0,0:0:0:0:
448,192,8524,1,0,1:0:0:0:
64,192,8783,1,0,1:0:0:0:
448,192,9041,1,0,0:0:0:0:
320,192,9171,1,0,1:0:0:0:
192,192,9429,1,0,1:0:0:0:
64,192,9558,1,0,1:0:0:0:
448,192,9817,1,0,1:0:0:0:
320,192,9946,1,0,0:0:0:0:
192,192,10076,1,0,0:0:0:0:
64,192,10076,1,4,0:2:0:0:
320,192,10334,1,0,0:0:0:0:
448,192,10334,1,4,0:2:0:0:
192,192,10593,1,0,1:0:0:0:
448,192,10852,1,8,0:0:0:0:
320,192,10852,1,0,0:0:0:0:
192,192,11110,1,0,1:0:0:0:
320,192,11369,1,0,0:0:0:0:
448,192,11369,1,8,0:0:0:0:
192,192,11627,1,0,1:0:0:0:
64,192,11627,1,8,0:0:0:0:
320,192,11886,128,0,12403:0:0:0:0:
448,192,11886,1,8,0:0:0:0:
448,192,12403,1,8,0:0:0:0:
64,192,12403,1,0,0:0:0:0:
192,192,12662,1,0,1:0:0:0:
320,192,12921,1,0,0:0:0:0:
64,192,12921,1,8,0:0:0:0:
192,192,13179,1,0,1:0:0:0:
320,192,13438,1,0,0:0:0:0:
448,192,13438,1,8,0:0:0:0:
320,192,13696,1,0,0:0:0:0:
192,192,13696,1,0,1:0:0:0:
192,192,13955,128,0,14472:0:0:0:0:
64,192,13955,1,8,0:0:0:0:
64,192,14472,1,8,0:0:0:0:
320,192,14472,1,0,0:0:0:0:
448,192,14731,1,0,1:0:0:0:
64,192,14989,1,8,0:0:0:0:
192,192,14989,1,0,0:0:0:0:
320,192,15248,1,0,1:0:0:0:
192,192,15507,1,0,0:0:0:0:
64,192,15507,1,8,0:0:0:0:
448,192,15765,1,0,1:0:0:0:
320,192,15765,1,0,0:0:0:0:
64,192,16024,128,8,16541:0:0:0:0:
192,192,16024,1,0,0:0:0:0:
448,192,16541,1,8,0:0:0:0:
320,192,16541,1,0,0:0:0:0:
192,192,16800,1,0,1:0:0:0:
320,192,17058,1,0,0:0:0:0:
448,192,17058,1,8,0:0:0:0:
64,192,17317,1,0,1:0:0:0:
192,192,17576,1,8,0:0:0:0:
320,192,17576,1,0,0:0:0:0:
448,192,17834,1,8,0:0:0:0:
64,192,17834,1,0,1:0:0:0:
320,192,18093,128,0,18610:0:0:0:0:
192,192,18093,1,8,0:0:0:0:
64,192,18610,1,0,0:0:0:0:
448,192,18610,1,4,0:2:0:0:
192,192,18869,1,0,1:0:0:0:
320,192,19127,1,0,0:0:0:0:
448,192,19127,1,8,0:0:0:0:
64,192,19386,1,0,1:0:0:0:
192,192,19645,1,8,0:0:0:0:
320,192,19645,1,0,0:0:0:0:
448,192,19903,1,0,1:0:0:0:
320,192,19903,1,0,0:0:0:0:
64,192,20162,1,8,0:0:0:0:
192,192,20162,128,0,20679:0:0:0:0:
320,192,20679,1,0,0:0:0:0:
448,192,20679,1,8,0:0:0:0:
64,192,20938,1,0,1:0:0:0:
192,192,21196,1,0,0:0:0:0:
448,192,21196,1,8,0:0:0:0:
320,192,21455,1,0,1:0:0:0:
448,192,21714,1,8,0:0:0:0:
192,192,21714,1,0,0:0:0:0:
64,192,21972,1,8,0:0:0:0:
320,192,21972,1,0,1:0:0:0:
192,192,22231,1,0,0:0:0:0:
448,192,22231,128,8,22748:0:0:0:0:
64,192,22748,1,4,0:2:0:0:
320,192,22748,1,0,0:0:0:0:
192,192,23007,1,0,1:0:0:0:
64,192,23265,1,8,0:0:0:0:
320,192,23265,1,0,0:0:0:0:
192,192,23524,1,0,1:0:0:0:
320,192,23783,1,0,0:0:0:0:
448,192,23783,1,8,0:0:0:0:
64,192,24041,1,0,1:0:0:0:
320,192,24300,1,0,0:0:0:0:
448,192,24300,1,8,0:0:0:0:
64,192,24558,1,0,1:0:0:0:
192,192,24817,1,0,0:0:0:0:
320,192,24817,1,4,0:2:0:0:
448,192,25076,1,0,1:0:0:0:
192,192,25334,1,0,0:0:0:0:
320,192,25334,1,4,0:2:0:0:
64,192,25593,1,0,1:0:0:0:
320,192,25852,1,0,0:0:0:0:
448,192,25852,1,4,0:2:0:0:
192,192,26110,1,0,0:0:0:0:
64,192,26110,1,4,0:2:0:0:
320,192,26369,1,0,0:0:0:0:
448,192,26369,1,4,0:2:0:0:
64,192,26886,1,0,1:0:0:0:
192,192,26886,1,0,0:0:0:0:
64,192,27145,1,0,0:0:0:0:
448,192,27403,1,0,1:0:0:0:
320,192,27403,1,0,0:0:0:0:
448,192,27662,1,0,0:0:0:0:
192,192,27921,1,0,1:0:0:0:
64,192,27921,1,0,0:0:0:0:
192,192,28179,1,0,0:0:0:0:
320,192,28438,1,0,1:0:0:0:
448,192,28438,1,0,0:0:0:0:
320,192,28696,1,0,0:0:0:0:
64,192,28955,1,4,1:2:0:0:
192,192,28955,1,0,0:0:0:0:
64,192,29214,1,0,0:0:0:0:
448,192,29472,1,0,1:0:0:0:
320,192,29472,1,0,0:0:0:0:
448,192,29731,1,0,0:0:0:0:
192,192,29989,1,0,1:0:0:0:
64,192,29989,1,0,0:0:0:0:
192,192,30248,1,0,0:0:0:0:
320,192,30507,128,0,31024:1:0:0:0:
448,192,30507,1,0,0:0:0:0:
448,192,31024,1,4,1:2:0:0:
448,192,31283,1,0,0:0:0:0:
64,192,31541,1,0,1:0:0:0:
192,192,31541,1,0,0:0:0:0:
64,192,31800,1,0,0:0:0:0:
320,192,32058,1,0,1:0:0:0:
448,192,32058,1,0,0:0:0:0:
320,192,32317,1,0,0:0:0:0:
192,192,32576,1,0,1:0:0:0:
64,192,32576,1,0,0:0:0:0:
192,192,32834,1,0,0:0:0:0:
320,192,33093,1,0,0:0:0:0:
448,192,33093,1,4,1:2:0:0:
448,192,33352,1,0,0:0:0:0:
64,192,33610,1,0,1:0:0:0:
192,192,33610,1,0,0:0:0:0:
64,192,33869,1,0,0:0:0:0:
320,192,34127,1,0,0:0:0:0:
192,192,34127,1,0,1:0:0:0:
448,192,34386,1,0,0:0:0:0:
320,192,34645,1,0,1:0:0:0:
192,192,34645,1,0,0:0:0:0:
64,192,34903,1,0,0:0:0:0:
192,192,35162,1,4,1:2:0:0:
320,192,35162,1,0,0:0:0:0:
192,192,35421,1,0,0:0:0:0:
320,192,35679,1,0,0:0:0:0:
448,192,35679,1,0,1:0:0:0:
448,192,35938,1,0,0:0:0:0:
192,192,36196,1,0,0:0:0:0:
320,192,36196,1,0,1:0:0:0:
320,192,36455,1,0,0:0:0:0:
192,192,36714,1,0,0:0:0:0:
64,192,36714,1,0,1:0:0:0:
64,192,36972,1,0,0:0:0:0:
192,192,37231,1,4,1:2:0:0:
320,192,37231,1,0,0:0:0:0:
192,192,37489,1,0,0:0:0:0:
320,192,37748,1,0,0:0:0:0:
448,192,37748,1,0,1:0:0:0:
448,192,38007,1,0,0:0:0:0:
320,192,38265,1,0,1:0:0:0:
192,192,38265,1,0,0:0:0:0:
320,192,38524,1,0,0:0:0:0:
64,192,38783,1,0,1:0:0:0:
192,192,38783,1,0,0:0:0:0:
64,192,39041,1,0,0:0:0:0:
320,192,39300,1,0,0:0:0:0:
448,192,39300,1,4,1:2:0:0:
448,192,39558,1,0,0:0:0:0:
320,192,39817,1,0,1:0:0:0:
192,192,39817,1,0,0:0:0:0:
320,192,40076,1,0,0:0:0:0:
64,192,40334,1,0,0:0:0:0:
192,192,40334,1,0,1:0:0:0:
192,192,40593,1,0,0:0:0:0:
320,192,40852,1,0,0:0:0:0:
448,192,40852,1,0,1:0:0:0:
448,192,41110,1,0,0:0:0:0:
64,192,41369,1,4,1:2:0:0:
192,192,41369,1,0,0:0:0:0:
64,192,41627,1,0,0:0:0:0:
192,192,41886,1,0,1:0:0:0:
320,192,41886,1,0,0:0:0:0:
192,192,42145,1,0,0:0:0:0:
320,192,42403,1,0,1:0:0:0:
448,192,42403,1,0,0:0:0:0:
320,192,42662,1,0,0:0:0:0:
64,192,42921,1,0,1:0:0:0:
192,192,42921,1,0,0:0:0:0:
64,192,43179,1,0,0:0:0:0:
448,192,43438,128,8,47576:0:0:0:0:
64,192,47576,1,4,0:2:0:0:
192,192,47576,1,0,0:0:0:0:
320,192,47834,1,0,1:0:0:0:
448,192,48093,1,0,0:0:0:0:
320,192,48352,1,0,1:0:0:0:
192,192,48610,1,0,0:0:0:0:
64,192,48869,1,0,1:0:0:0:
192,192,49127,1,0,0:0:0:0:
64,192,49386,1,0,1:0:0:0:
192,192,49645,1,4,0:2:0:0:
320,192,49645,1,0,0:0:0:0:
448,192,49903,1,0,1:0:0:0:
192,192,50162,1,0,0:0:0:0:
320,192,50162,1,8,0:0:0:0:
64,192,50421,1,0,1:0:0:0:
320,192,50679,1,0,0:0:0:0:
448,192,50679,1,8,0:0:0:0:
192,192,50938,1,0,0:0:0:0:
64,192,50938,1,0,1:0:0:0:
320,192,51196,1,0,0:0:0:0:
448,192,51196,1,8,0:0:0:0:
192,192,51455,1,0,0:0:0:0:
64,192,51455,1,0,1:0:0:0:
320,192,51714,1,0,0:0:0:0:
448,192,51714,1,4,0:2:0:0:
64,192,51972,1,0,1:0:0:0:
192,192,52231,1,0,0:0:0:0:
448,192,52231,1,8,0:0:0:0:
320,192,52489,1,0,1:0:0:0:
64,192,52748,1,0,0:0:0:0:
448,192,52748,1,8,0:0:0:0:
192,192,53007,1,0,1:0:0:0:
320,192,53007,1,0,0:0:0:0:
64,192,53265,1,0,0:0:0:0:
448,192,53265,1,8,0:0:0:0:
192,192,53524,1,0,1:0:0:0:
320,192,53524,1,0,0:0:0:0:
64,192,53783,1,0,0:0:0:0:
448,192,53783,1,4,2:0:0:0:
192,192,54041,1,0,1:0:0:0:
320,192,54300,1,0,0:0:0:0:
448,192,54300,1,8,0:0:0:0:
192,192,54558,1,0,1:0:0:0:
320,192,54817,1,0,0:0:0:0:
64,192,54817,1,8,0:0:0:0:
192,192,55076,1,0,0:0:0:0:
448,192,55076,1,0,1:0:0:0:
64,192,55334,1,8,0:0:0:0:
320,192,55334,1,0,0:0:0:0:
192,192,55593,1,0,0:0:0:0:
448,192,55593,1,0,1:0:0:0:
64,192,55852,1,4,0:2:0:0:
320,192,55852,1,0,0:0:0:0:
448,192,56110,1,0,1:0:0:0:
192,192,56369,1,0,0:0:0:0:
320,192,56369,1,8,0:0:0:0:
64,192,56627,1,0,1:0:0:0:
192,192,56886,1,0,0:0:0:0:
320,192,56886,1,8,0:0:0:0:
448,192,57145,1,0,1:0:0:0:
64,192,57403,1,0,0:0:0:0:
192,192,57533,1,0,1:0:0:0:
320,192,57662,1,0,1:0:0:0:
64,192,57921,1,0,0:0:0:0:
448,192,57921,128,4,59989:0:2:0:0:
320,192,58179,1,0,1:0:0:0:
192,192,58438,1,0,0:0:0:0:
64,192,58438,1,8,0:0:0:0:
320,192,58696,1,0,1:0:0:0:
192,192,58955,1,0,0:0:0:0:
64,192,58955,1,8,0:0:0:0:
320,192,59214,1,0,1:0:0:0:
64,192,59472,1,8,0:0:0:0:
192,192,59472,1,0,0:0:0:0:
320,192,59731,1,0,1:0:0:0:
64,192,59989,128,4,61024:0:2:0:0:
192,192,59989,1,0,1:0:0:0:
320,192,60248,1,0,1:0:0:0:
448,192,60507,1,8,0:0:0:0:
192,192,60507,1,0,1:0:0:0:
320,192,60765,1,0,1:0:0:0:
448,192,61024,1,2,0:0:0:0:
192,192,61024,128,4,61541:0:2:0:0:
320,192,61541,128,4,62058:0:2:0:0:
448,192,61541,1,2,0:0:0:0:
448,192,62058,1,4,0:2:0:0:
192,192,62058,1,0,0:0:0:0:
64,192,62317,1,4,0:2:0:0:
320,192,62317,1,0,0:0:0:0:
192,192,62576,1,0,0:0:0:0:
448,192,62576,1,4,0:2:0:0:
64,192,62834,1,4,0:2:0:0:
320,192,62834,1,0,0:0:0:0:
192,192,63093,128,0,63610:0:0:0:0:
448,192,63093,128,4,63610:0:2:0:0:
320,192,63869,1,0,0:0:0:0:
192,192,63998,1,0,0:0:0:0:
64,192,64127,1,0,0:0:0:0:
448,192,64127,1,8,0:0:0:0:
320,192,64386,1,0,1:0:0:0:
192,192,64645,1,0,0:0:0:0:
64,192,64645,1,8,0:0:0:0:
448,192,64903,1,0,1:0:0:0:
192,192,65162,1,0,0:0:0:0:
320,192,65162,1,8,0:0:0:0:
64,192,65421,1,0,0:0:0:0:
448,192,65421,1,0,1:0:0:0:
192,192,65679,1,0,0:0:0:0:
320,192,65679,128,8,66196:0:0:0:0:
448,192,66196,1,8,0:0:0:0:
64,192,66196,1,0,0:0:0:0:
192,192,66455,1,0,1:0:0:0:
320,192,66714,1,0,0:0:0:0:
448,192,66714,1,8,0:0:0:0:
64,192,66972,1,0,1:0:0:0:
192,192,67231,1,8,0:0:0:0:
320,192,67231,1,0,0:0:0:0:
64,192,67489,1,0,0:0:0:0:
448,192,67489,1,0,1:0:0:0:
320,192,67748,1,0,0:0:0:0:
192,192,67748,128,8,68265:0:0:0:0:
64,192,68265,1,0,0:0:0:0:
448,192,68265,1,8,0:0:0:0:
320,192,68524,1,0,1:0:0:0:
192,192,68783,1,0,0:0:0:0:
448,192,68783,1,8,0:0:0:0:
320,192,69041,1,0,1:0:0:0:
64,192,69300,1,0,0:0:0:0:
192,192,69300,1,8,0:0:0:0:
448,192,69558,1,0,1:0:0:0:
320,192,69558,1,0,0:0:0:0:
192,192,69817,128,0,70334:0:0:0:0:
64,192,69817,1,8,0:0:0:0:
448,192,70334,1,0,0:0:0:0:
320,192,70334,1,8,0:0:0:0:
64,192,70593,1,0,1:0:0:0:
448,192,70852,1,8,0:0:0:0:
192,192,70852,1,0,0:0:0:0:
320,192,71110,1,0,1:0:0:0:
192,192,71369,1,0,0:0:0:0:
448,192,71369,1,8,0:0:0:0:
320,192,71627,1,0,0:0:0:0:
64,192,71627,1,0,1:0:0:0:
448,192,71886,1,0,0:0:0:0:
192,192,71886,128,4,72403:0:2:0:0:
64,192,72403,1,0,0:0:0:0:
320,192,72403,128,4,72921:0:2:0:0:
448,192,72921,1,0,0:0:0:0:
192,192,72921,128,4,73438:0:2:0:0:
320,192,73438,1,0,0:0:0:0:
448,192,73438,128,4,73955:0:2:0:0:
192,192,73955,1,0,0:0:0:0:
64,192,73955,128,4,74472:0:2:0:0:
320,192,74472,1,0,0:0:0:0:
192,192,74472,128,4,75507:0:2:0:0:
64,192,75507,1,0,0:0:0:0:
448,192,75507,128,4,76541:0:2:0:0:
192,192,76541,1,0,0:0:0:0:
320,192,76541,128,4,77576:0:2:0:0:
448,192,77576,1,0,0:0:0:0:
64,192,77576,128,4,78610:0:2:0:0:
448,192,78610,1,0,0:0:0:0:
320,192,78610,128,4,79127:0:2:0:0:
64,192,79127,1,0,0:0:0:0:
448,192,79127,128,4,79645:0:2:0:0:
192,192,79645,1,0,0:0:0:0:
320,192,79645,1,4,0:2:0:0:
64,192,79903,1,0,0:0:0:0:
448,192,79903,1,4,0:2:0:0:
192,192,80162,1,0,0:0:0:0:
320,192,80162,1,4,0:2:0:0:
64,192,80679,1,0,0:0:0:0:
448,192,80679,1,4,0:2:0:0:
192,192,80938,1,0,1:0:0:0:
320,192,81196,1,0,0:0:0:0:
448,192,81196,1,8,0:0:0:0:
192,192,81455,1,0,1:0:0:0:
64,192,81714,1,0,0:0:0:0:
448,192,81714,1,8,0:0:0:0:
192,192,81972,1,0,1:0:0:0:
320,192,81972,1,0,0:0:0:0:
64,192,82231,1,0,0:0:0:0:
448,192,82231,128,8,82748:0:0:0:0:
64,192,82748,1,8,0:0:0:0:
192,192,82748,1,0,0:0:0:0:
320,192,83007,1,0,1:0:0:0:
192,192,83265,1,0,0:0:0:0:
448,192,83265,1,8,0:0:0:0:
320,192,83524,1,0,1:0:0:0:
192,192,83783,1,0,0:0:0:0:
64,192,83783,1,8,0:0:0:0:
320,192,84041,1,0,0:0:0:0:
448,192,84041,1,0,1:0:0:0:
192,192,84300,1,0,0:0:0:0:
64,192,84300,128,8,84817:0:0:0:0:
320,192,84817,1,0,0:0:0:0:
448,192,84817,1,8,0:0:0:0:
192,192,85076,1,0,1:0:0:0:
320,192,85334,1,0,0:0:0:0:
448,192,85334,1,8,0:0:0:0:
64,192,85593,1,0,1:0:0:0:
192,192,85852,1,0,0:0:0:0:
320,192,85852,1,8,0:0:0:0:
448,192,86110,1,0,1:0:0:0:
192,192,86369,1,8,0:0:0:0:
320,192,86369,1,0,0:0:0:0:
448,192,86627,1,0,1:0:0:0:
192,192,86886,1,0,0:0:0:0:
64,192,86886,1,8,0:0:0:0:
320,192,87145,1,0,1:0:0:0:
192,192,87403,1,0,0:0:0:0:
64,192,87403,1,8,0:0:0:0:
448,192,87662,1,0,1:0:0:0:
64,192,87921,1,8,0:0:0:0:
192,192,87921,1,0,0:0:0:0:
320,192,88179,1,0,0:0:0:0:
448,192,88179,1,0,1:0:0:0:
192,192,88438,1,0,0:0:0:0:
64,192,88438,1,4,0:2:0:0:
320,192,88955,1,0,0:0:0:0:
448,192,88955,1,0,1:0:0:0:
448,192,89214,1,0,1:0:0:0:
192,192,89472,1,0,0:0:0:0:
64,192,89472,1,0,1:0:0:0:
64,192,89731,1,0,1:0:0:0:
320,192,89989,1,0,1:0:0:0:
448,192,89989,1,0,0:0:0:0:
320,192,90248,1,0,1:0:0:0:
192,192,90507,1,0,1:0:0:0:
64,192,90507,1,0,0:0:0:0:
192,192,90765,1,0,1:0:0:0:
320,192,91024,1,0,0:0:0:0:
448,192,91024,1,0,1:0:0:0:
448,192,91283,1,0,1:0:0:0:
192,192,91541,1,0,0:0:0:0:
64,192,91541,1,0,1:0:0:0:
64,192,91800,1,0,1:0:0:0:
320,192,92058,1,0,1:0:0:0:
448,192,92058,1,0,0:0:0:0:
320,192,92317,1,0,1:0:0:0:
64,192,92576,1,0,0:0:0:0:
192,192,92576,128,0,93093:1:0:0:0:
64,192,93093,1,0,1:0:0:0:
64,192,93352,1,0,1:0:0:0:
320,192,93610,1,0,0:0:0:0:
448,192,93610,1,0,1:0:0:0:
448,192,93869,1,0,1:0:0:0:
192,192,94127,1,0,1:0:0:0:
64,192,94127,1,0,0:0:0:0:
192,192,94386,1,0,1:0:0:0:
320,192,94645,1,0,1:0:0:0:
448,192,94645,1,0,0:0:0:0:
320,192,94903,1,0,1:0:0:0:
192,192,95162,1,0,0:0:0:0:
64,192,95162,1,0,1:0:0:0:
64,192,95421,1,0,1:0:0:0:
320,192,95679,1,0,0:0:0:0:
448,192,95679,1,0,1:0:0:0:
448,192,95938,1,0,1:0:0:0:
320,192,96196,1,0,0:0:0:0:
192,192,96196,1,0,1:0:0:0:
64,192,96455,1,0,1:0:0:0:
192,192,96714,1,0,0:0:0:0:
320,192,96714,1,0,1:0:0:0:
448,192,96972,1,0,1:0:0:0:
192,192,97231,1,0,0:0:0:0:
320,192,97231,1,0,1:0:0:0:
320,192,97489,1,0,1:0:0:0:
64,192,97748,1,0,1:0:0:0:
192,192,97748,1,0,0:0:0:0:
64,192,98007,1,0,1:0:0:0:
192,192,98265,1,0,1:0:0:0:
320,192,98265,1,0,0:0:0:0:
192,192,98524,1,0,1:0:0:0:
320,192,98783,1,0,0:0:0:0:
448,192,98783,1,0,1:0:0:0:
448,192,99041,1,0,1:0:0:0:
320,192,99300,1,0,1:0:0:0:
192,192,99300,1,0,0:0:0:0:
320,192,99558,1,0,1:0:0:0:
192,192,99817,1,0,0:0:0:0:
64,192,99817,1,0,1:0:0:0:
64,192,100076,1,0,1:0:0:0:
192,192,100334,1,0,1:0:0:0:
320,192,100334,1,0,0:0:0:0:
192,192,100593,1,0,1:0:0:0:
320,192,100852,1,0,0:0:0:0:
448,192,100852,1,0,1:0:0:0:
448,192,101110,1,0,1:0:0:0:
192,192,101369,1,0,0:0:0:0:
64,192,101369,1,0,1:0:0:0:
64,192,101627,1,0,1:0:0:0:
192,192,101886,1,0,1:0:0:0:
320,192,101886,1,0,0:0:0:0:
192,192,102145,1,0,1:0:0:0:
320,192,102403,1,0,1:0:0:0:
448,192,102403,1,0,0:0:0:0:
320,192,102662,1,0,1:0:0:0:
64,192,102921,1,0,1:0:0:0:
192,192,102921,1,0,0:0:0:0:
64,192,103179,1,0,1:0:0:0:
448,192,103438,1,0,1:0:0:0:
320,192,103438,1,0,0:0:0:0:
448,192,103696,1,0,1:0:0:0:
320,192,103955,1,0,1:0:0:0:
192,192,103955,1,0,0:0:0:0:
320,192,104214,1,0,1:0:0:0:
192,192,104472,1,0,1:0:0:0:
64,192,104472,1,0,0:0:0:0:
192,192,104731,1,0,1:0:0:0:
448,192,104989,1,0,1:0:0:0:
320,192,104989,1,0,0:0:0:0:
448,192,105248,1,0,1:0:0:0:
64,192,105507,128,4,107576:0:2:0:0:
192,192,105507,128,0,107576:0:0:0:0:
448,192,107576,128,4,108610:0:2:0:0:
320,192,107576,128,0,108610:0:0:0:0:
64,192,108610,1,0,0:0:0:0:
192,192,108610,128,4,109127:0:2:0:0:
64,192,109127,128,4,109645:0:2:0:0:
320,192,109127,1,0,0:0:0:0:
320,192,109645,1,4,0:2:0:0:
192,192,109645,1,0,0:0:0:0:
448,192,109903,1,0,1:0:0:0:
320,192,110162,1,0,0:0:0:0:
192,192,110421,1,0,1:0:0:0:
64,192,110679,1,0,0:0:0:0:
192,192,110938,1,0,1:0:0:0:
320,192,111196,1,0,0:0:0:0:
448,192,111455,1,0,1:0:0:0:
192,192,111714,1,0,0:0:0:0:
320,192,111714,1,4,0:2:0:0:
64,192,111972,1,0,1:0:0:0:
320,192,112231,1,0,0:0:0:0:
192,192,112231,1,8,0:0:0:0:
448,192,112489,1,0,1:0:0:0:
64,192,112748,1,8,0:0:0:0:
192,192,112748,1,0,0:0:0:0:
448,192,113007,1,0,1:0:0:0:
320,192,113007,1,0,0:0:0:0:
192,192,113265,1,0,0:0:0:0:
64,192,113265,1,8,0:0:0:0:
448,192,113524,1,0,1:0:0:0:
320,192,113524,1,0,0:0:0:0:
64,192,113783,1,4,0:2:0:0:
192,192,113783,1,0,0:0:0:0:
448,192,114041,1,0,1:0:0:0:
64,192,114300,1,8,0:0:0:0:
320,192,114300,1,0,0:0:0:0:
192,192,114558,1,0,1:0:0:0:
64,192,114817,1,8,0:0:0:0:
448,192,114817,1,0,0:0:0:0:
192,192,115076,1,0,0:0:0:0:
320,192,115076,1,0,1:0:0:0:
64,192,115334,1,8,0:0:0:0:
448,192,115334,1,0,0:0:0:0:
192,192,115593,1,0,0:0:0:0:
320,192,115593,1,0,1:0:0:0:
448,192,115852,1,0,0:0:0:0:
64,192,115852,1,4,0:2:0:0:
320,192,116110,1,0,1:0:0:0:
192,192,116369,1,0,0:0:0:0:
64,192,116369,1,8,0:0:0:0:
320,192,116627,1,0,1:0:0:0:
448,192,116886,1,8,0:0:0:0:
192,192,116886,1,0,0:0:0:0:
64,192,117145,1,0,1:0:0:0:
320,192,117145,1,0,0:0:0:0:
192,192,117403,1,0,0:0:0:0:
448,192,117403,1,8,0:0:0:0:
320,192,117662,1,0,0:0:0:0:
64,192,117662,1,0,1:0:0:0:
192,192,117921,1,0,0:0:0:0:
448,192,117921,1,4,0:2:0:0:
64,192,118179,1,0,1:0:0:0:
192,192,118438,1,8,0:0:0:0:
320,192,118438,1,0,0:0:0:0:
448,192,118696,1,0,1:0:0:0:
320,192,118955,1,8,0:0:0:0:
192,192,118955,1,0,0:0:0:0:
64,192,119214,1,0,1:0:0:0:
448,192,119472,1,0,0:0:0:0:
320,192,119602,1,0,1:0:0:0:
192,192,119731,1,0,1:0:0:0:
448,192,119989,1,0,0:0:0:0:
64,192,119989,128,4,122058:0:2:0:0:
192,192,120248,1,0,1:0:0:0:
320,192,120507,1,0,0:0:0:0:
448,192,120507,1,8,0:0:0:0:
192,192,120765,1,0,1:0:0:0:
320,192,121024,1,0,0:0:0:0:
448,192,121024,1,8,0:0:0:0:
192,192,121283,1,0,1:0:0:0:
320,192,121541,1,0,0:0:0:0:
448,192,121541,1,8,0:0:0:0:
192,192,121800,1,0,1:0:0:0:
320,192,122058,1,8,0:0:0:0:
448,192,122058,128,0,123093:0:0:0:0:
192,192,122317,1,0,1:0:0:0:
64,192,122576,1,8,0:0:0:0:
320,192,122576,1,0,0:0:0:0:
192,192,122834,1,0,1:0:0:0:
320,192,123093,128,8,124127:0:0:0:0:
64,192,123093,1,0,0:0:0:0:
192,192,123352,1,0,1:0:0:0:
64,192,123610,1,0,0:0:0:0:
448,192,123610,1,8,0:0:0:0:
192,192,123869,1,0,1:0:0:0:
64,192,124127,1,0,0:0:0:0:
448,192,124127,1,4,0:2:0:0:
192,192,124903,1,0,0:0:0:0:
320,192,124903,1,8,0:0:0:0:
64,192,125162,128,0,126196:0:0:0:0:
448,192,125162,128,4,126196:0:2:0:0:
192,192,126196,1,4,0:2:0:0:
320,192,126196,1,0,0:0:0:0:
320,192,126714,1,4,0:2:0:0:
448,192,126714,1,0,0:0:0:0:
192,192,127231,1,4,0:2:0:0:
64,192,127231,1,0,0:0:0:0:
320,192,127489,1,4,0:2:0:0:
448,192,127489,1,0,0:0:0:0:
192,192,127748,1,4,0:2:0:0:
64,192,127748,1,0,0:0:0:0:
320,192,128265,128,0,138610:0:2:0:0:
448,192,128265,128,4,138610:0:2:0:0:
64,192,138610,128,4,139127:0:2:0:0:
192,192,138610,128,0,139127:0:2:0:0:
