osu file format v12

[General]
AudioFilename: No.1127.mp3
AudioLeadIn: 1000
PreviewTime: 26886
Countdown: 0
SampleSet: None
StackLeniency: 0.7
Mode: 3
LetterboxInBreaks: 0
SpecialStyle: 0
WidescreenStoryboard: 1

[Editor]
DistanceSpacing: 0.8
BeatDivisor: 4
GridSize: 8
TimelineZoom: 1

[Metadata]
Title:No.1127
TitleUnicode:No.1127
Artist:Zou Tian Heng
ArtistUnicode:邹天恒
Creator:OniJAM
Version:Hard Lv.10
Source:Rhythm Master
Tags:
BeatmapID:392718
BeatmapSetID:160779

[Difficulty]
HPDrainRate:8
CircleSize:4
OverallDifficulty:8
ApproachRate:5
SliderMultiplier:1.4
SliderTickRate:1

[Events]
//Background and Video events
0,0,"Background.jpg",0,0
//Break Periods
//Storyboard Layer 0 (Background)
//Storyboard Layer 1 (Fail)
//Storyboard Layer 2 (Pass)
//Storyboard Layer 3 (Foreground)
//Storyboard Sound Samples
//Background Colour Transformations
3,100,163,162,255

[TimingPoints]
-10,258.620689655172,4,3,1,40,1,0
2058,-100,4,3,1,50,0,0
10334,-100,4,3,1,60,0,0
26886,-100,4,3,1,55,0,1
43438,-100,4,3,1,40,0,0
47576,-100,4,3,1,55,0,0
49645,-100,4,3,1,65,0,0
57921,-100,4,3,1,60,0,0
61024,-100,4,3,1,55,0,0
62058,-100,4,3,1,50,0,0
63093,-100,4,3,1,55,0,0
64127,-100,4,3,1,60,0,0
72403,-100,4,3,1,55,0,0
74472,-100,4,3,1,50,0,0
77576,-100,4,3,1,55,0,0
80679,-100,4,3,1,60,0,0
88955,-100,4,3,1,65,0,1
105507,-100,4,3,1,65,0,0
109645,-100,4,3,1,60,0,0
111714,-100,4,3,1,65,0,0
119989,-100,4,3,1,60,0,0

[HitObjects]
320,192,1800,5,0,0:0:0:0:
448,192,1800,1,0,0:0:0:0:
192,192,1929,1,0,0:0:0:0:
64,192,1929,1,0,0:0:0:0:
448,192,2058,1,0,0:0:0:0:
320,192,2058,128,4,3093:0:2:0:0:
448,192,2317,1,0,0:0:0:0:
192,192,2576,1,0,0:0:0:0:
64,192,2705,1,0,0:0:0:0:
192,192,2834,1,0,0:0:0:0:
64,192,2964,1,0,0:0:0:0:
448,192,3093,128,4,4127:0:2:0:0:
192,192,3093,1,8,0:0:0:0:
320,192,3352,1,0,0:0:0:0:
192,192,3610,128,8,4127:0:0:0:0:
64,192,3610,1,0,1:0:0:0:
320,192,3739,1,0,1:0:0:0:
64,192,3869,1,0,1:0:0:0:
320,192,3998,1,0,1:0:0:0:
64,192,4127,128,4,5679:0:2:0:0:
320,192,4257,1,0,0:0:0:0:
448,192,4386,1,0,0:0:0:0:
320,192,4515,1,0,0:0:0:0:
192,192,4645,1,0,0:0:0:0:
320,192,4774,1,0,0:0:0:0:
448,192,4903,1,0,0:0:0:0:
320,192,5033,1,0,0:0:0:0:
192,192,5162,1,0,0:0:0:0:
320,192,5291,1,0,0:0:0:0:
448,192,5421,1,0,0:0:0:0:
320,192,5550,1,0,0:0:0:0:
192,192,5679,128,4,6196:0:2:0:0:
448,192,5679,1,0,0:0:0:0:
320,192,6196,128,4,7231:0:2:0:0:
448,192,6196,1,0,0:0:0:0:
64,192,6326,1,0,0:0:0:0:
192,192,6455,1,0,0:0:0:0:
448,192,6584,1,0,0:0:0:0:
64,192,6714,1,0,0:0:0:0:
192,192,6843,1,0,0:0:0:0:
448,192,6972,1,0,0:0:0:0:
64,192,7102,1,0,0:0:0:0:
448,192,7231,128,4,8265:0:2:0:0:
192,192,7231,1,0,0:0:0:0:
64,192,7489,1,0,0:0:0:0:
192,192,7619,1,0,0:0:0:0:
320,192,7748,128,0,8265:1:0:0:0:
192,192,7877,1,0,0:0:0:0:
64,192,8007,1,0,0:0:0:0:
64,192,8265,1,4,0:2:0:0:
192,192,8265,1,0,0:0:0:0:
320,192,8395,1,0,0:0:0:0:
448,192,8524,1,0,1:0:0:0:
64,192,8653,1,8,0:0:0:0:
192,192,8653,1,0,0:0:0:0:
320,192,8783,1,0,1:0:0:0:
448,192,8912,1,0,0:0:0:0:
64,192,9041,1,8,0:0:0:0:
192,192,9041,1,0,0:0:0:0:
320,192,9171,1,0,1:0:0:0:
448,192,9300,1,8,0:0:0:0:
192,192,9300,1,0,0:0:0:0:
320,192,9429,1,0,1:0:0:0:
192,192,9558,1,0,1:0:0:0:
448,192,9558,1,8,0:0:0:0:
64,192,9688,1,0,0:0:0:0:
192,192,9817,128,8,10076:0:0:0:0:
448,192,9817,1,0,1:0:0:0:
448,192,9946,1,0,1:0:0:0:
320,192,10076,1,4,0:2:0:0:
64,192,10076,128,0,10334:0:0:0:0:
448,192,10140,1,0,0:0:0:0:
320,192,10205,1,0,0:0:0:0:
448,192,10270,1,0,0:0:0:0:
320,192,10334,1,0,0:0:0:0:
192,192,10334,1,4,0:2:0:0:
448,192,10464,1,0,0:0:0:0:
320,192,10593,1,0,1:0:0:0:
64,192,10722,1,0,0:0:0:0:
320,192,10852,1,0,0:0:0:0:
448,192,10852,1,8,0:0:0:0:
192,192,10981,1,0,0:0:0:0:
448,192,11110,1,0,1:0:0:0:
192,192,11239,1,0,0:0:0:0:
320,192,11369,1,0,0:0:0:0:
448,192,11369,1,8,0:0:0:0:
192,192,11433,1,0,0:0:0:0:
64,192,11498,1,0,0:0:0:0:
320,192,11627,1,0,1:0:0:0:
448,192,11627,1,8,0:0:0:0:
64,192,11757,1,0,0:0:0:0:
320,192,11886,128,0,12145:0:0:0:0:
448,192,11886,1,8,0:0:0:0:
192,192,12145,1,0,1:0:0:0:
192,192,12403,1,0,0:0:0:0:
320,192,12403,1,8,0:0:0:0:
448,192,12533,1,0,0:0:0:0:
320,192,12662,1,0,1:0:0:0:
192,192,12791,1,0,0:0:0:0:
64,192,12921,1,0,0:0:0:0:
448,192,12921,1,8,0:0:0:0:
320,192,13050,1,0,0:0:0:0:
192,192,13179,1,0,1:0:0:0:
64,192,13308,1,0,0:0:0:0:
448,192,13438,1,8,0:0:0:0:
192,192,13438,1,0,0:0:0:0:
320,192,13567,1,0,0:0:0:0:
448,192,13696,1,8,0:0:0:0:
192,192,13696,1,0,1:0:0:0:
320,192,13826,1,0,0:0:0:0:
64,192,13955,128,8,14214:0:0:0:0:
448,192,13955,1,0,0:0:0:0:
320,192,14084,1,0,1:0:0:0:
192,192,14214,1,0,1:0:0:0:
64,192,14472,1,0,0:0:0:0:
448,192,14472,1,8,0:0:0:0:
192,192,14602,1,0,0:0:0:0:
320,192,14731,1,0,1:0:0:0:
64,192,14860,1,0,0:0:0:0:
192,192,14989,1,0,0:0:0:0:
320,192,14989,1,8,0:0:0:0:
448,192,15119,1,0,0:0:0:0:
320,192,15248,1,0,1:0:0:0:
192,192,15377,1,0,0:0:0:0:
320,192,15507,1,0,0:0:0:0:
448,192,15507,1,8,0:0:0:0:
192,192,15636,1,0,0:0:0:0:
64,192,15765,1,0,1:0:0:0:
192,192,15895,1,0,0:0:0:0:
448,192,16024,128,8,16283:0:0:0:0:
320,192,16024,1,0,0:0:0:0:
64,192,16283,1,0,1:0:0:0:
64,192,16541,1,8,0:0:0:0:
192,192,16541,1,0,0:0:0:0:
320,192,16671,1,0,0:0:0:0:
448,192,16800,1,0,1:0:0:0:
64,192,16929,1,8,0:0:0:0:
192,192,16929,1,0,0:0:0:0:
320,192,17058,1,0,0:0:0:0:
448,192,17188,1,0,0:0:0:0:
64,192,17317,1,8,0:0:0:0:
192,192,17317,1,0,1:0:0:0:
320,192,17446,1,0,0:0:0:0:
192,192,17576,1,0,0:0:0:0:
64,192,17576,1,8,0:0:0:0:
448,192,17705,1,0,0:0:0:0:
320,192,17834,1,0,1:0:0:0:
64,192,17834,1,8,0:0:0:0:
192,192,17964,1,0,0:0:0:0:
64,192,18093,128,8,18352:0:0:0:0:
320,192,18093,128,0,18352:0:0:0:0:
448,192,18222,1,0,1:0:0:0:
448,192,18352,1,0,1:0:0:0:
192,192,18416,1,0,0:0:0:0:
64,192,18481,1,0,0:0:0:0:
192,192,18546,1,0,0:0:0:0:
448,192,18610,1,4,0:2:0:0:
320,192,18610,1,0,0:0:0:0:
64,192,18739,1,0,0:0:0:0:
192,192,18869,1,0,1:0:0:0:
320,192,18998,1,0,0:0:0:0:
448,192,19127,1,0,0:0:0:0:
64,192,19127,1,8,0:0:0:0:
192,192,19257,1,0,0:0:0:0:
320,192,19386,1,0,1:0:0:0:
448,192,19515,1,0,0:0:0:0:
192,192,19645,1,0,0:0:0:0:
64,192,19645,1,8,0:0:0:0:
320,192,19709,1,0,0:0:0:0:
448,192,19774,1,0,0:0:0:0:
320,192,19903,1,0,1:0:0:0:
192,192,19903,1,8,0:0:0:0:
64,192,20033,1,0,0:0:0:0:
448,192,20162,128,8,20421:0:0:0:0:
192,192,20162,1,0,0:0:0:0:
320,192,20291,1,0,1:0:0:0:
320,192,20421,1,0,1:0:0:0:
64,192,20679,1,0,0:0:0:0:
448,192,20679,1,8,0:0:0:0:
192,192,20808,1,0,0:0:0:0:
320,192,20938,1,0,1:0:0:0:
448,192,21067,1,0,0:0:0:0:
320,192,21196,1,0,0:0:0:0:
192,192,21196,1,8,0:0:0:0:
64,192,21326,1,0,0:0:0:0:
320,192,21455,1,0,1:0:0:0:
448,192,21584,1,0,0:0:0:0:
192,192,21714,1,0,0:0:0:0:
64,192,21714,1,8,0:0:0:0:
448,192,21843,1,0,0:0:0:0:
192,192,21972,1,8,0:0:0:0:
320,192,21972,1,0,1:0:0:0:
64,192,22102,1,0,0:0:0:0:
320,192,22231,128,8,22489:0:0:0:0:
448,192,22231,1,0,1:0:0:0:
192,192,22489,1,0,1:0:0:0:
192,192,22748,1,0,0:0:0:0:
320,192,22748,1,4,0:2:0:0:
64,192,22877,1,0,0:0:0:0:
192,192,23007,1,0,1:0:0:0:
320,192,23136,1,0,0:0:0:0:
64,192,23265,1,8,0:0:0:0:
192,192,23265,1,0,0:0:0:0:
320,192,23395,1,0,0:0:0:0:
448,192,23524,1,0,1:0:0:0:
64,192,23653,1,0,0:0:0:0:
192,192,23783,1,0,0:0:0:0:
320,192,23783,1,8,0:0:0:0:
448,192,23912,1,0,0:0:0:0:
320,192,24041,1,0,1:0:0:0:
192,192,24171,1,0,0:0:0:0:
448,192,24300,1,8,0:0:0:0:
320,192,24300,1,0,0:0:0:0:
192,192,24429,1,0,0:0:0:0:
64,192,24558,1,0,1:0:0:0:
192,192,24688,1,0,0:0:0:0:
320,192,24817,1,0,0:0:0:0:
448,192,24817,1,4,0:2:0:0:
192,192,24946,1,0,0:0:0:0:
320,192,25076,1,0,1:0:0:0:
192,192,25205,1,0,0:0:0:0:
64,192,25334,1,4,0:2:0:0:
320,192,25334,1,0,0:0:0:0:
448,192,25464,1,0,0:0:0:0:
320,192,25593,1,0,1:0:0:0:
448,192,25722,5,0,0:0:0:0:
192,192,25852,128,0,26110:1:0:0:0:
320,192,25852,128,4,26110:0:2:0:0:
448,192,26110,128,4,26369:0:2:0:0:
64,192,26110,128,0,26369:1:0:0:0:
192,192,26369,128,0,26627:1:0:0:0:
320,192,26369,128,4,26627:0:2:0:0:
64,192,26627,1,0,0:0:0:0:
448,192,26692,1,0,0:0:0:0:
192,192,26757,1,0,0:0:0:0:
320,192,26821,1,0,0:0:0:0:
64,192,26886,5,4,1:2:0:0:
448,192,26886,1,0,0:0:0:0:
64,192,27015,1,0,0:0:0:0:
448,192,27145,1,0,0:0:0:0:
448,192,27274,1,0,0:0:0:0:
192,192,27403,1,0,1:0:0:0:
192,192,27533,1,0,0:0:0:0:
320,192,27662,1,0,0:0:0:0:
320,192,27791,1,0,0:0:0:0:
64,192,27921,1,0,1:0:0:0:
64,192,28050,1,0,0:0:0:0:
448,192,28179,1,0,0:0:0:0:
448,192,28308,1,0,0:0:0:0:
192,192,28438,1,0,1:0:0:0:
192,192,28567,1,0,0:0:0:0:
320,192,28696,1,0,0:0:0:0:
320,192,28826,1,0,0:0:0:0:
64,192,28955,1,4,1:2:0:0:
64,192,29084,1,0,0:0:0:0:
448,192,29214,1,0,0:0:0:0:
448,192,29343,1,0,0:0:0:0:
192,192,29472,1,0,1:0:0:0:
192,192,29602,1,0,0:0:0:0:
320,192,29731,1,0,0:0:0:0:
320,192,29860,1,0,0:0:0:0:
64,192,29989,1,0,1:0:0:0:
320,192,30119,1,0,0:0:0:0:
64,192,30248,1,0,0:0:0:0:
448,192,30377,1,0,0:0:0:0:
320,192,30507,128,0,30765:1:0:0:0:
192,192,30765,1,0,0:0:0:0:
64,192,31024,1,4,1:2:0:0:
320,192,31024,1,0,0:0:0:0:
64,192,31153,1,0,0:0:0:0:
448,192,31283,1,0,0:0:0:0:
448,192,31412,1,0,0:0:0:0:
192,192,31541,1,0,1:0:0:0:
192,192,31671,1,0,0:0:0:0:
320,192,31800,1,0,0:0:0:0:
320,192,31929,1,0,0:0:0:0:
64,192,32058,1,0,1:0:0:0:
64,192,32188,1,0,0:0:0:0:
448,192,32317,1,0,0:0:0:0:
448,192,32446,1,0,0:0:0:0:
192,192,32576,1,0,1:0:0:0:
192,192,32705,1,0,0:0:0:0:
320,192,32834,1,0,0:0:0:0:
320,192,32964,1,0,0:0:0:0:
64,192,33093,1,4,1:2:0:0:
64,192,33222,1,0,0:0:0:0:
448,192,33352,1,0,0:0:0:0:
448,192,33481,1,0,0:0:0:0:
192,192,33610,1,0,1:0:0:0:
192,192,33739,1,0,0:0:0:0:
320,192,33869,1,0,0:0:0:0:
320,192,33998,1,0,0:0:0:0:
64,192,34127,1,0,1:0:0:0:
192,192,34257,1,0,0:0:0:0:
64,192,34386,1,0,0:0:0:0:
448,192,34515,1,0,0:0:0:0:
320,192,34645,1,0,0:0:0:0:
448,192,34774,1,0,1:0:0:0:
192,192,34903,1,0,1:0:0:0:
320,192,35033,1,0,0:0:0:0:
448,192,35162,1,4,1:2:0:0:
192,192,35162,1,0,0:0:0:0:
448,192,35291,1,0,0:0:0:0:
64,192,35421,1,0,0:0:0:0:
64,192,35550,1,0,0:0:0:0:
320,192,35679,1,0,1:0:0:0:
320,192,35808,1,0,0:0:0:0:
192,192,35938,1,0,0:0:0:0:
192,192,36067,1,0,0:0:0:0:
448,192,36196,1,0,1:0:0:0:
448,192,36326,1,0,0:0:0:0:
64,192,36455,1,0,0:0:0:0:
64,192,36584,1,0,0:0:0:0:
320,192,36714,1,0,1:0:0:0:
320,192,36843,1,0,0:0:0:0:
192,192,36972,1,0,0:0:0:0:
192,192,37102,1,0,0:0:0:0:
448,192,37231,1,4,1:2:0:0:
448,192,37360,1,0,0:0:0:0:
64,192,37489,1,0,0:0:0:0:
64,192,37619,1,0,0:0:0:0:
320,192,37748,1,0,1:0:0:0:
320,192,37877,1,0,0:0:0:0:
192,192,38007,1,0,0:0:0:0:
192,192,38136,1,0,0:0:0:0:
448,192,38265,1,0,1:0:0:0:
320,192,38395,1,0,0:0:0:0:
448,192,38524,1,0,0:0:0:0:
320,192,38653,1,0,0:0:0:0:
192,192,38783,1,0,1:0:0:0:
320,192,38912,1,0,0:0:0:0:
192,192,39041,1,0,0:0:0:0:
320,192,39171,1,0,0:0:0:0:
448,192,39300,1,4,1:2:0:0:
192,192,39300,1,0,0:0:0:0:
448,192,39429,1,0,0:0:0:0:
64,192,39558,1,0,0:0:0:0:
64,192,39688,1,0,0:0:0:0:
320,192,39817,1,0,1:0:0:0:
320,192,39946,1,0,0:0:0:0:
192,192,40076,1,0,0:0:0:0:
192,192,40205,1,0,0:0:0:0:
448,192,40334,1,0,1:0:0:0:
448,192,40464,1,0,0:0:0:0:
64,192,40593,1,0,0:0:0:0:
64,192,40722,1,0,0:0:0:0:
320,192,40852,1,0,1:0:0:0:
320,192,40981,1,0,0:0:0:0:
192,192,41110,1,0,0:0:0:0:
192,192,41239,1,0,0:0:0:0:
448,192,41369,1,4,1:2:0:0:
448,192,41498,1,0,0:0:0:0:
64,192,41627,1,0,0:0:0:0:
64,192,41757,1,0,0:0:0:0:
320,192,41886,1,0,1:0:0:0:
320,192,42015,1,0,0:0:0:0:
192,192,42145,1,0,0:0:0:0:
192,192,42274,1,0,0:0:0:0:
448,192,42403,1,0,1:0:0:0:
448,192,42533,1,0,0:0:0:0:
320,192,42662,1,0,0:0:0:0:
192,192,42791,1,0,0:0:0:0:
64,192,42921,1,0,1:0:0:0:
320,192,43050,1,0,0:0:0:0:
192,192,43179,1,0,0:0:0:0:
192,192,43308,1,0,0:0:0:0:
448,192,43438,128,8,47317:0:0:0:0:
64,192,43438,1,0,0:0:0:0:
192,192,43696,1,0,0:0:0:0:
320,192,43955,1,0,0:0:0:0:
64,192,44084,1,0,0:0:0:0:
320,192,44214,1,0,0:0:0:0:
64,192,44343,1,0,0:0:0:0:
64,192,44602,1,0,0:0:0:0:
192,192,44731,1,0,0:0:0:0:
320,192,44989,1,0,0:0:0:0:
64,192,45119,1,0,0:0:0:0:
320,192,45248,1,0,0:0:0:0:
64,192,45377,1,0,0:0:0:0:
64,192,45636,1,0,0:0:0:0:
192,192,45765,1,0,0:0:0:0:
320,192,46024,1,0,0:0:0:0:
64,192,46153,1,0,0:0:0:0:
320,192,46283,1,0,0:0:0:0:
64,192,46412,1,0,0:0:0:0:
64,192,46671,1,0,0:0:0:0:
64,192,46929,1,0,0:0:0:0:
320,192,47058,1,0,0:0:0:0:
192,192,47317,128,0,47576:0:0:0:0:
64,192,47576,1,0,0:0:0:0:
448,192,47576,1,4,0:2:0:0:
320,192,47705,1,0,0:0:0:0:
192,192,47834,1,0,1:0:0:0:
320,192,47964,1,0,0:0:0:0:
64,192,48093,1,0,0:0:0:0:
448,192,48222,1,0,0:0:0:0:
64,192,48352,1,0,1:0:0:0:
448,192,48481,1,0,0:0:0:0:
192,192,48610,1,0,0:0:0:0:
320,192,48739,1,0,0:0:0:0:
192,192,48869,1,0,1:0:0:0:
320,192,48998,1,0,0:0:0:0:
448,192,49127,1,0,0:0:0:0:
64,192,49257,1,0,1:0:0:0:
448,192,49386,1,0,1:0:0:0:
64,192,49515,1,0,0:0:0:0:
320,192,49645,1,0,0:0:0:0:
448,192,49645,1,4,0:2:0:0:
192,192,49774,1,0,0:0:0:0:
64,192,49903,1,0,1:0:0:0:
192,192,50033,1,0,0:0:0:0:
320,192,50162,1,0,0:0:0:0:
448,192,50162,1,8,0:0:0:0:
192,192,50291,1,0,0:0:0:0:
64,192,50421,1,0,1:0:0:0:
192,192,50550,1,0,0:0:0:0:
64,192,50679,1,8,0:0:0:0:
448,192,50679,128,0,51714:0:0:0:0:
64,192,50808,1,0,0:0:0:0:
192,192,50938,1,0,1:0:0:0:
320,192,50938,1,8,0:0:0:0:
320,192,51067,1,0,0:0:0:0:
192,192,51196,1,0,0:0:0:0:
64,192,51196,1,8,0:0:0:0:
64,192,51326,1,0,1:0:0:0:
320,192,51455,1,8,0:0:0:0:
192,192,51455,1,0,1:0:0:0:
320,192,51584,1,0,0:0:0:0:
64,192,51714,1,0,0:0:0:0:
192,192,51714,1,4,0:2:0:0:
192,192,51843,1,0,0:0:0:0:
320,192,51972,1,0,1:0:0:0:
448,192,52102,1,0,0:0:0:0:
192,192,52231,1,0,0:0:0:0:
320,192,52231,1,8,0:0:0:0:
64,192,52360,1,0,0:0:0:0:
192,192,52489,1,0,1:0:0:0:
320,192,52619,1,0,0:0:0:0:
448,192,52748,1,8,0:0:0:0:
64,192,52748,128,0,53783:0:0:0:0:
448,192,52877,1,0,0:0:0:0:
192,192,53007,1,8,0:0:0:0:
320,192,53007,1,0,1:0:0:0:
192,192,53136,1,0,0:0:0:0:
320,192,53265,1,0,0:0:0:0:
448,192,53265,1,8,0:0:0:0:
448,192,53395,1,0,1:0:0:0:
192,192,53524,1,8,0:0:0:0:
320,192,53524,1,0,1:0:0:0:
192,192,53653,1,0,0:0:0:0:
448,192,53783,1,0,0:0:0:0:
320,192,53783,1,4,0:2:0:0:
320,192,53912,1,0,0:0:0:0:
192,192,54041,1,0,1:0:0:0:
64,192,54171,1,0,0:0:0:0:
320,192,54300,1,0,0:0:0:0:
192,192,54300,1,8,0:0:0:0:
448,192,54429,1,0,0:0:0:0:
320,192,54558,1,0,1:0:0:0:
192,192,54688,1,0,0:0:0:0:
320,192,54817,128,0,55852:0:0:0:0:
64,192,54817,1,8,0:0:0:0:
64,192,54946,1,0,0:0:0:0:
448,192,55076,1,8,0:0:0:0:
192,192,55076,1,0,1:0:0:0:
448,192,55205,1,0,0:0:0:0:
64,192,55334,1,8,0:0:0:0:
192,192,55334,1,0,0:0:0:0:
64,192,55464,1,0,1:0:0:0:
192,192,55593,1,0,1:0:0:0:
448,192,55593,1,8,0:0:0:0:
448,192,55722,1,0,0:0:0:0:
192,192,55852,1,0,0:0:0:0:
64,192,55852,1,4,0:2:0:0:
320,192,55981,1,0,0:0:0:0:
448,192,56110,1,0,1:0:0:0:
320,192,56239,1,0,0:0:0:0:
192,192,56369,1,0,0:0:0:0:
64,192,56369,1,8,0:0:0:0:
320,192,56498,1,0,0:0:0:0:
448,192,56627,1,0,1:0:0:0:
320,192,56757,1,0,0:0:0:0:
64,192,56886,1,8,0:0:0:0:
192,192,56886,128,0,57921:0:0:0:0:
320,192,57015,1,0,0:0:0:0:
448,192,57145,1,0,1:0:0:0:
320,192,57274,1,0,0:0:0:0:
64,192,57403,1,8,0:0:0:0:
320,192,57533,1,8,0:0:0:0:
448,192,57533,1,0,1:0:0:0:
448,192,57662,1,0,1:0:0:0:
320,192,57662,1,8,0:0:0:0:
64,192,57791,1,0,0:0:0:0:
320,192,57921,1,0,0:0:0:0:
448,192,57921,128,4,58955:0:2:0:0:
64,192,58050,1,0,0:0:0:0:
320,192,58179,1,0,1:0:0:0:
192,192,58308,1,0,0:0:0:0:
64,192,58438,1,0,0:0:0:0:
192,192,58567,1,0,0:0:0:0:
320,192,58696,1,0,1:0:0:0:
192,192,58826,1,0,0:0:0:0:
64,192,58826,1,8,0:0:0:0:
320,192,58955,128,0,59989:0:0:0:0:
64,192,59084,1,8,0:0:0:0:
192,192,59084,1,0,0:0:0:0:
448,192,59214,1,0,1:0:0:0:
64,192,59343,1,0,0:0:0:0:
192,192,59472,1,0,0:0:0:0:
448,192,59602,1,0,0:0:0:0:
64,192,59731,128,0,59989:1:0:0:0:
192,192,59989,1,0,0:0:0:0:
448,192,59989,128,4,61024:0:2:0:0:
320,192,60119,1,0,1:0:0:0:
64,192,60248,1,0,1:0:0:0:
192,192,60377,1,0,1:0:0:0:
320,192,60507,1,0,1:0:0:0:
192,192,60636,1,0,1:0:0:0:
64,192,60765,1,0,1:0:0:0:
192,192,60895,1,0,1:0:0:0:
64,192,61024,128,4,61541:0:2:0:0:
320,192,61024,1,0,1:0:0:0:
192,192,61153,1,2,0:0:0:0:
448,192,61283,1,2,0:0:0:0:
192,192,61412,1,2,0:0:0:0:
320,192,61541,128,4,62058:0:2:0:0:
448,192,61541,1,0,0:0:0:0:
448,192,61671,1,2,0:0:0:0:
64,192,61800,1,2,0:0:0:0:
64,192,61929,1,2,0:0:0:0:
192,192,62058,128,4,62317:0:2:0:0:
448,192,62058,1,0,0:0:0:0:
448,192,62317,1,0,0:0:0:0:
64,192,62317,128,4,62576:0:2:0:0:
448,192,62576,1,0,0:0:0:0:
192,192,62576,128,4,62834:0:2:0:0:
320,192,62834,128,4,63093:0:2:0:0:
448,192,62834,1,0,0:0:0:0:
448,192,63093,128,4,63869:0:2:0:0:
64,192,63093,1,0,0:0:0:0:
192,192,63158,1,0,0:0:0:0:
320,192,63222,1,0,0:0:0:0:
192,192,63287,1,0,0:0:0:0:
64,192,63352,1,0,0:0:0:0:
192,192,63416,1,0,0:0:0:0:
320,192,63481,1,0,0:0:0:0:
192,192,63546,1,0,0:0:0:0:
64,192,63610,1,0,0:0:0:0:
192,192,63869,1,0,0:0:0:0:
320,192,63998,1,0,0:0:0:0:
448,192,64127,1,4,0:2:0:0:
64,192,64127,1,0,0:0:0:0:
192,192,64386,1,0,1:0:0:0:
448,192,64645,1,0,0:0:0:0:
64,192,64645,1,8,0:0:0:0:
320,192,64774,1,0,0:0:0:0:
192,192,64903,1,0,1:0:0:0:
64,192,65033,1,0,0:0:0:0:
192,192,65162,1,0,0:0:0:0:
320,192,65162,1,8,0:0:0:0:
64,192,65421,1,8,0:0:0:0:
192,192,65421,1,0,1:0:0:0:
448,192,65679,1,0,0:0:0:0:
320,192,65679,128,8,65938:0:0:0:0:
192,192,65938,1,0,1:0:0:0:
64,192,66196,1,0,0:0:0:0:
448,192,66196,1,8,0:0:0:0:
192,192,66326,1,0,0:0:0:0:
320,192,66455,1,0,1:0:0:0:
448,192,66584,1,0,0:0:0:0:
448,192,66714,1,0,0:0:0:0:
64,192,66714,1,8,0:0:0:0:
320,192,66843,1,0,0:0:0:0:
192,192,66972,1,0,1:0:0:0:
64,192,67102,1,0,0:0:0:0:
448,192,67231,1,0,0:0:0:0:
64,192,67231,1,8,0:0:0:0:
320,192,67360,1,0,0:0:0:0:
192,192,67489,1,0,1:0:0:0:
64,192,67619,1,0,0:0:0:0:
320,192,67748,128,8,68007:0:0:0:0:
192,192,67748,1,0,0:0:0:0:
448,192,67877,1,0,1:0:0:0:
448,192,68007,1,0,1:0:0:0:
192,192,68265,1,8,0:0:0:0:
320,192,68265,1,0,0:0:0:0:
448,192,68395,1,0,0:0:0:0:
320,192,68524,1,0,1:0:0:0:
64,192,68653,1,0,0:0:0:0:
192,192,68783,1,0,0:0:0:0:
320,192,68783,1,8,0:0:0:0:
448,192,68912,1,0,0:0:0:0:
320,192,69041,1,0,1:0:0:0:
192,192,69041,1,8,0:0:0:0:
64,192,69171,1,0,0:0:0:0:
192,192,69300,1,0,0:0:0:0:
320,192,69300,1,8,0:0:0:0:
448,192,69429,1,0,0:0:0:0:
320,192,69558,1,0,1:0:0:0:
64,192,69688,1,0,0:0:0:0:
320,192,69817,128,8,70076:0:0:0:0:
192,192,69817,1,0,0:0:0:0:
448,192,70076,1,0,1:0:0:0:
64,192,70334,1,8,0:0:0:0:
192,192,70334,1,0,0:0:0:0:
320,192,70464,1,0,0:0:0:0:
448,192,70593,1,0,1:0:0:0:
448,192,70722,1,8,0:0:0:0:
320,192,70722,1,0,0:0:0:0:
192,192,70852,1,0,0:0:0:0:
64,192,70981,1,0,0:0:0:0:
64,192,71110,1,8,0:0:0:0:
192,192,71110,1,0,1:0:0:0:
320,192,71239,1,0,0:0:0:0:
448,192,71369,1,8,0:0:0:0:
192,192,71369,1,0,0:0:0:0:
64,192,71498,1,0,0:0:0:0:
320,192,71627,1,0,1:0:0:0:
448,192,71627,1,8,0:0:0:0:
192,192,71757,1,0,0:0:0:0:
64,192,71886,128,8,72145:0:0:0:0:
448,192,71886,128,4,72145:0:2:0:0:
192,192,72145,1,0,0:0:0:0:
320,192,72209,1,0,0:0:0:0:
64,192,72274,1,0,0:0:0:0:
192,192,72339,1,0,0:0:0:0:
448,192,72403,1,4,0:2:0:0:
320,192,72403,1,0,1:0:0:0:
448,192,72533,1,0,1:0:0:0:
320,192,72662,1,0,1:0:0:0:
320,192,72791,1,0,1:0:0:0:
64,192,72921,1,0,1:0:0:0:
192,192,72921,1,4,0:2:0:0:
64,192,73050,1,0,1:0:0:0:
192,192,73179,1,0,1:0:0:0:
192,192,73308,1,0,1:0:0:0:
448,192,73438,1,0,0:0:0:0:
64,192,73438,1,4,0:2:0:0:
320,192,73502,1,0,0:0:0:0:
192,192,73567,1,0,0:0:0:0:
64,192,73696,1,0,0:0:0:0:
192,192,73826,1,0,0:0:0:0:
320,192,73955,128,0,74214:0:0:0:0:
448,192,73955,1,4,0:2:0:0:
64,192,74214,1,0,0:0:0:0:
192,192,74472,1,0,0:0:0:0:
64,192,74472,1,4,0:2:0:0:
320,192,74602,1,0,0:0:0:0:
192,192,74731,1,0,0:0:0:0:
320,192,74860,1,0,0:0:0:0:
448,192,74989,1,0,0:0:0:0:
320,192,75119,1,0,0:0:0:0:
448,192,75248,1,0,0:0:0:0:
320,192,75377,1,0,0:0:0:0:
64,192,75507,1,4,0:2:0:0:
192,192,75507,1,0,0:0:0:0:
448,192,75636,1,0,0:0:0:0:
320,192,75765,1,0,0:0:0:0:
192,192,75895,1,0,0:0:0:0:
64,192,76024,128,0,76283:0:0:0:0:
192,192,76283,1,0,0:0:0:0:
320,192,76283,1,8,0:0:0:0:
320,192,76541,1,0,0:0:0:0:
448,192,76541,1,4,0:2:0:0:
192,192,76671,1,0,0:0:0:0:
64,192,76800,1,0,0:0:0:0:
192,192,76929,1,0,0:0:0:0:
320,192,77058,1,0,0:0:0:0:
192,192,77188,1,0,0:0:0:0:
320,192,77317,1,0,0:0:0:0:
448,192,77446,1,0,0:0:0:0:
192,192,77576,1,0,0:0:0:0:
64,192,77576,128,4,78610:0:2:0:0:
320,192,77834,1,0,0:0:0:0:
448,192,77964,1,0,0:0:0:0:
192,192,78093,1,0,0:0:0:0:
320,192,78222,1,0,0:0:0:0:
192,192,78352,1,0,0:0:0:0:
320,192,78481,1,0,0:0:0:0:
192,192,78610,1,0,0:0:0:0:
448,192,78610,128,4,79127:0:2:0:0:
320,192,78739,1,0,0:0:0:0:
64,192,78869,1,0,0:0:0:0:
320,192,78998,1,0,0:0:0:0:
64,192,79127,128,4,79645:0:2:0:0:
192,192,79127,1,0,0:0:0:0:
320,192,79257,1,0,0:0:0:0:
448,192,79386,1,0,0:0:0:0:
320,192,79515,1,0,0:0:0:0:
448,192,79645,128,4,79903:0:2:0:0:
192,192,79645,1,0,0:0:0:0:
64,192,79903,1,0,0:0:0:0:
192,192,79903,128,4,80162:0:2:0:0:
320,192,80162,128,4,80679:0:2:0:0:
448,192,80162,1,0,0:0:0:0:
448,192,80421,1,0,0:0:0:0:
192,192,80485,1,0,0:0:0:0:
64,192,80550,1,0,0:0:0:0:
192,192,80614,1,0,0:0:0:0:
448,192,80679,1,0,0:0:0:0:
64,192,80679,1,4,1:2:0:0:
448,192,80808,1,0,0:0:0:0:
320,192,80938,1,0,1:0:0:0:
192,192,81067,1,0,0:0:0:0:
64,192,81196,1,8,0:0:0:0:
320,192,81196,1,0,0:0:0:0:
448,192,81326,1,0,0:0:0:0:
320,192,81455,1,0,1:0:0:0:
192,192,81584,1,0,0:0:0:0:
64,192,81714,1,8,0:0:0:0:
448,192,81714,1,0,0:0:0:0:
320,192,81778,1,0,0:0:0:0:
192,192,81843,1,0,0:0:0:0:
64,192,81972,1,8,0:0:0:0:
320,192,81972,1,0,1:0:0:0:
448,192,82102,1,0,0:0:0:0:
192,192,82231,128,8,82489:0:0:0:0:
64,192,82231,1,0,0:0:0:0:
448,192,82489,1,0,1:0:0:0:
320,192,82748,1,0,0:0:0:0:
448,192,82748,1,8,0:0:0:0:
192,192,82877,1,0,0:0:0:0:
64,192,83007,1,0,1:0:0:0:
192,192,83136,1,0,0:0:0:0:
448,192,83265,1,8,0:0:0:0:
64,192,83265,1,0,0:0:0:0:
320,192,83395,1,0,0:0:0:0:
192,192,83524,1,0,1:0:0:0:
64,192,83653,1,0,0:0:0:0:
448,192,83783,1,8,0:0:0:0:
320,192,83783,1,0,0:0:0:0:
64,192,83912,1,8,0:0:0:0:
192,192,83912,1,0,1:0:0:0:
320,192,84041,1,0,0:0:0:0:
192,192,84171,1,0,0:0:0:0:
64,192,84300,128,0,84558:0:0:0:0:
320,192,84300,1,0,1:0:0:0:
448,192,84429,1,0,1:0:0:0:
448,192,84558,1,0,1:0:0:0:
64,192,84817,1,0,0:0:0:0:
448,192,84817,1,8,0:0:0:0:
192,192,84946,1,0,0:0:0:0:
64,192,85076,1,0,1:0:0:0:
192,192,85205,1,0,0:0:0:0:
64,192,85334,1,8,0:0:0:0:
320,192,85334,1,0,0:0:0:0:
448,192,85464,1,0,0:0:0:0:
320,192,85593,1,0,1:0:0:0:
448,192,85722,1,0,0:0:0:0:
192,192,85852,1,8,0:0:0:0:
320,192,85852,1,0,0:0:0:0:
64,192,85981,1,0,0:0:0:0:
192,192,86110,1,0,1:0:0:0:
64,192,86239,1,0,0:0:0:0:
192,192,86369,1,0,0:0:0:0:
320,192,86369,1,8,0:0:0:0:
448,192,86498,1,0,0:0:0:0:
320,192,86627,1,0,1:0:0:0:
448,192,86757,1,0,0:0:0:0:
320,192,86886,1,0,0:0:0:0:
192,192,86886,1,8,0:0:0:0:
64,192,87015,1,0,0:0:0:0:
192,192,87145,1,0,1:0:0:0:
320,192,87145,1,8,0:0:0:0:
448,192,87274,1,0,0:0:0:0:
64,192,87403,1,8,0:0:0:0:
320,192,87403,1,0,1:0:0:0:
320,192,87533,1,0,1:0:0:0:
64,192,87533,1,8,0:0:0:0:
192,192,87662,1,0,0:0:0:0:
320,192,87791,1,0,0:0:0:0:
64,192,87921,128,8,88179:0:0:0:0:
448,192,87921,128,0,88179:1:0:0:0:
192,192,88179,128,8,88438:0:0:0:0:
320,192,88179,128,0,88438:1:0:0:0:
64,192,88438,128,8,88696:0:0:0:0:
448,192,88438,128,4,88696:1:2:0:0:
320,192,88696,1,0,0:0:0:0:
192,192,88761,1,0,0:0:0:0:
64,192,88826,1,0,0:0:0:0:
320,192,88890,1,0,0:0:0:0:
448,192,88955,1,4,1:2:0:0:
192,192,88955,1,0,0:0:0:0:
448,192,89084,1,0,0:0:0:0:
64,192,89214,1,0,1:0:0:0:
64,192,89343,1,0,0:0:0:0:
320,192,89472,1,0,1:0:0:0:
320,192,89602,1,0,0:0:0:0:
192,192,89731,1,0,1:0:0:0:
192,192,89860,1,0,0:0:0:0:
448,192,89989,1,0,1:0:0:0:
448,192,90119,1,0,0:0:0:0:
64,192,90248,1,0,1:0:0:0:
64,192,90377,1,0,0:0:0:0:
320,192,90507,1,0,1:0:0:0:
320,192,90636,1,0,0:0:0:0:
192,192,90765,1,0,1:0:0:0:
192,192,90895,1,0,0:0:0:0:
448,192,91024,1,0,1:0:0:0:
448,192,91153,1,0,0:0:0:0:
64,192,91283,1,0,1:0:0:0:
64,192,91412,1,0,0:0:0:0:
320,192,91541,1,0,1:0:0:0:
320,192,91671,1,0,0:0:0:0:
192,192,91800,1,0,1:0:0:0:
192,192,91929,1,0,0:0:0:0:
448,192,92058,1,0,1:0:0:0:
320,192,92188,1,0,0:0:0:0:
448,192,92317,1,0,1:0:0:0:
64,192,92446,1,0,0:0:0:0:
192,192,92576,128,0,92834:1:0:0:0:
320,192,92834,1,0,1:0:0:0:
448,192,93093,1,0,1:0:0:0:
192,192,93093,1,0,0:0:0:0:
448,192,93222,1,0,0:0:0:0:
64,192,93352,1,0,1:0:0:0:
64,192,93481,1,0,0:0:0:0:
320,192,93610,1,0,1:0:0:0:
320,192,93739,1,0,0:0:0:0:
192,192,93869,1,0,1:0:0:0:
192,192,93998,1,0,0:0:0:0:
448,192,94127,1,0,1:0:0:0:
448,192,94257,1,0,0:0:0:0:
64,192,94386,1,0,1:0:0:0:
64,192,94515,1,0,0:0:0:0:
320,192,94645,1,0,1:0:0:0:
320,192,94774,1,0,0:0:0:0:
192,192,94903,1,0,1:0:0:0:
192,192,95033,1,0,0:0:0:0:
448,192,95162,1,0,1:0:0:0:
448,192,95291,1,0,0:0:0:0:
64,192,95421,1,0,1:0:0:0:
64,192,95550,1,0,0:0:0:0:
320,192,95679,1,0,1:0:0:0:
320,192,95808,1,0,0:0:0:0:
192,192,95938,1,0,1:0:0:0:
192,192,96067,1,0,0:0:0:0:
448,192,96196,1,0,1:0:0:0:
320,192,96326,1,0,1:0:0:0:
448,192,96455,1,0,0:0:0:0:
64,192,96584,1,0,0:0:0:0:
192,192,96714,1,0,1:0:0:0:
64,192,96843,1,0,0:0:0:0:
320,192,96972,1,0,1:0:0:0:
192,192,97102,1,0,0:0:0:0:
64,192,97231,1,4,1:2:0:0:
320,192,97231,1,0,0:0:0:0:
64,192,97360,1,0,0:0:0:0:
448,192,97489,1,0,1:0:0:0:
448,192,97619,1,0,0:0:0:0:
192,192,97748,1,0,1:0:0:0:
192,192,97877,1,0,0:0:0:0:
320,192,98007,1,0,1:0:0:0:
320,192,98136,1,0,0:0:0:0:
64,192,98265,1,0,1:0:0:0:
64,192,98395,1,0,0:0:0:0:
448,192,98524,1,0,1:0:0:0:
448,192,98653,1,0,0:0:0:0:
192,192,98783,1,0,1:0:0:0:
192,192,98912,1,0,0:0:0:0:
320,192,99041,1,0,1:0:0:0:
320,192,99171,1,0,0:0:0:0:
64,192,99300,1,0,1:0:0:0:
64,192,99429,1,0,0:0:0:0:
448,192,99558,1,0,1:0:0:0:
448,192,99688,1,0,0:0:0:0:
192,192,99817,1,0,1:0:0:0:
192,192,99946,1,0,0:0:0:0:
320,192,100076,1,0,1:0:0:0:
320,192,100205,1,0,0:0:0:0:
64,192,100334,1,0,1:0:0:0:
192,192,100464,1,0,0:0:0:0:
64,192,100593,1,0,1:0:0:0:
192,192,100722,1,0,0:0:0:0:
320,192,100852,1,0,1:0:0:0:
192,192,100981,1,0,1:0:0:0:
320,192,101110,1,0,1:0:0:0:
192,192,101239,1,0,0:0:0:0:
64,192,101369,1,0,1:0:0:0:
320,192,101369,1,0,0:0:0:0:
64,192,101498,1,0,0:0:0:0:
448,192,101627,1,0,1:0:0:0:
448,192,101757,1,0,0:0:0:0:
192,192,101886,1,0,1:0:0:0:
192,192,102015,1,0,0:0:0:0:
320,192,102145,1,0,1:0:0:0:
320,192,102274,1,0,0:0:0:0:
64,192,102403,1,0,1:0:0:0:
64,192,102533,1,0,0:0:0:0:
448,192,102662,1,0,1:0:0:0:
448,192,102791,1,0,0:0:0:0:
192,192,102921,1,0,1:0:0:0:
192,192,103050,1,0,0:0:0:0:
320,192,103179,1,0,1:0:0:0:
320,192,103308,1,0,0:0:0:0:
64,192,103438,1,0,1:0:0:0:
64,192,103567,1,0,0:0:0:0:
448,192,103696,1,0,1:0:0:0:
448,192,103826,1,0,0:0:0:0:
192,192,103955,1,0,1:0:0:0:
192,192,104084,1,0,0:0:0:0:
320,192,104214,1,0,1:0:0:0:
320,192,104343,1,0,0:0:0:0:
64,192,104472,1,0,1:0:0:0:
64,192,104602,1,0,1:0:0:0:
192,192,104731,1,0,0:0:0:0:
320,192,104860,1,0,0:0:0:0:
448,192,104989,1,0,1:0:0:0:
192,192,105119,1,0,0:0:0:0:
320,192,105248,1,0,1:0:0:0:
320,192,105377,1,0,0:0:0:0:
64,192,105507,128,4,107576:0:2:0:0:
448,192,105507,1,0,0:0:0:0:
320,192,105765,1,0,0:0:0:0:
192,192,106024,1,0,0:0:0:0:
320,192,106153,1,0,0:0:0:0:
448,192,106283,1,0,0:0:0:0:
320,192,106412,1,0,0:0:0:0:
192,192,106541,1,0,0:0:0:0:
448,192,106541,1,8,0:0:0:0:
320,192,106800,1,0,0:0:0:0:
448,192,107058,1,0,0:0:0:0:
320,192,107188,1,0,0:0:0:0:
192,192,107317,1,0,0:0:0:0:
320,192,107446,1,0,0:0:0:0:
192,192,107576,1,0,0:0:0:0:
448,192,107576,128,4,108610:0:2:0:0:
192,192,107834,1,0,0:0:0:0:
320,192,108093,1,0,0:0:0:0:
192,192,108222,1,0,0:0:0:0:
64,192,108352,1,0,0:0:0:0:
192,192,108481,1,0,0:0:0:0:
320,192,108610,1,4,0:2:0:0:
64,192,108610,1,0,0:0:0:0:
192,192,108675,1,0,0:0:0:0:
320,192,108739,1,0,0:0:0:0:
448,192,108804,1,0,0:0:0:0:
320,192,108869,1,0,0:0:0:0:
192,192,108933,1,0,0:0:0:0:
64,192,108998,1,0,0:0:0:0:
192,192,109127,1,4,0:2:0:0:
448,192,109127,1,0,0:0:0:0:
320,192,109192,1,0,0:0:0:0:
192,192,109257,1,0,0:0:0:0:
64,192,109321,1,0,0:0:0:0:
192,192,109386,1,0,0:0:0:0:
320,192,109451,1,0,0:0:0:0:
448,192,109515,1,0,0:0:0:0:
320,192,109645,1,4,0:2:0:0:
192,192,109645,1,0,0:0:0:0:
448,192,109774,1,0,0:0:0:0:
64,192,109903,1,0,1:0:0:0:
448,192,110033,1,0,0:0:0:0:
320,192,110162,1,0,0:0:0:0:
192,192,110291,1,0,0:0:0:0:
320,192,110421,1,0,1:0:0:0:
192,192,110550,1,0,0:0:0:0:
448,192,110679,1,0,0:0:0:0:
64,192,110808,1,0,0:0:0:0:
448,192,110938,1,0,1:0:0:0:
64,192,111067,1,0,0:0:0:0:
192,192,111196,1,0,0:0:0:0:
320,192,111326,1,0,0:0:0:0:
192,192,111455,1,0,1:0:0:0:
320,192,111584,1,0,0:0:0:0:
192,192,111714,1,0,0:0:0:0:
64,192,111714,1,4,0:2:0:0:
320,192,111843,1,0,0:0:0:0:
448,192,111972,1,0,1:0:0:0:
320,192,112102,1,0,0:0:0:0:
64,192,112231,1,8,0:0:0:0:
192,192,112231,1,0,0:0:0:0:
320,192,112360,1,0,0:0:0:0:
448,192,112489,1,0,1:0:0:0:
320,192,112619,1,0,0:0:0:0:
64,192,112748,128,0,113783:0:0:0:0:
448,192,112748,1,8,0:0:0:0:
448,192,112877,1,0,0:0:0:0:
320,192,113007,1,0,1:0:0:0:
192,192,113007,1,8,0:0:0:0:
192,192,113136,1,0,0:0:0:0:
320,192,113265,1,0,0:0:0:0:
448,192,113265,1,8,0:0:0:0:
448,192,113395,1,0,1:0:0:0:
320,192,113524,1,0,1:0:0:0:
192,192,113524,1,8,0:0:0:0:
192,192,113653,1,0,0:0:0:0:
448,192,113783,1,4,0:2:0:0:
320,192,113783,1,0,0:0:0:0:
320,192,113912,1,0,0:0:0:0:
192,192,114041,1,0,1:0:0:0:
64,192,114171,1,0,0:0:0:0:
192,192,114300,1,8,0:0:0:0:
320,192,114300,1,0,0:0:0:0:
448,192,114429,1,0,0:0:0:0:
320,192,114558,1,0,1:0:0:0:
192,192,114688,1,0,0:0:0:0:
64,192,114817,1,8,0:0:0:0:
448,192,114817,128,0,115852:0:0:0:0:
64,192,114946,1,0,0:0:0:0:
320,192,115076,1,8,0:0:0:0:
192,192,115076,1,0,1:0:0:0:
320,192,115205,1,0,0:0:0:0:
64,192,115334,1,8,0:0:0:0:
192,192,115334,1,0,0:0:0:0:
64,192,115464,1,0,1:0:0:0:
320,192,115593,1,8,0:0:0:0:
192,192,115593,1,0,1:0:0:0:
320,192,115722,1,0,0:0:0:0:
64,192,115852,1,4,0:2:0:0:
192,192,115852,1,0,0:0:0:0:
192,192,115981,1,0,0:0:0:0:
320,192,116110,1,0,1:0:0:0:
448,192,116239,1,0,0:0:0:0:
320,192,116369,1,8,0:0:0:0:
192,192,116369,1,0,0:0:0:0:
64,192,116498,1,0,0:0:0:0:
192,192,116627,1,0,1:0:0:0:
320,192,116757,1,0,0:0:0:0:
192,192,116886,128,0,117921:0:0:0:0:
448,192,116886,1,8,0:0:0:0:
448,192,117015,1,0,0:0:0:0:
320,192,117145,1,0,1:0:0:0:
64,192,117145,1,8,0:0:0:0:
64,192,117274,1,0,0:0:0:0:
320,192,117403,1,0,0:0:0:0:
448,192,117403,1,8,0:0:0:0:
448,192,117533,1,0,1:0:0:0:
64,192,117662,1,8,0:0:0:0:
320,192,117662,1,0,1:0:0:0:
64,192,117791,1,0,0:0:0:0:
320,192,117921,1,0,0:0:0:0:
448,192,117921,1,4,0:2:0:0:
192,192,118050,1,0,0:0:0:0:
64,192,118179,1,0,1:0:0:0:
192,192,118308,1,0,0:0:0:0:
320,192,118438,1,0,0:0:0:0:
448,192,118438,1,8,0:0:0:0:
192,192,118567,1,0,0:0:0:0:
64,192,118696,1,0,1:0:0:0:
192,192,118826,1,0,0:0:0:0:
448,192,118955,1,8,0:0:0:0:
320,192,118955,128,0,119989:0:0:0:0:
192,192,119084,1,0,0:0:0:0:
64,192,119214,1,0,1:0:0:0:
192,192,119343,1,0,0:0:0:0:
448,192,119472,128,0,119989:0:0:0:0:
192,192,119602,1,0,0:0:0:0:
64,192,119731,1,0,0:0:0:0:
192,192,119860,1,0,0:0:0:0:
192,192,119989,1,0,0:0:0:0:
64,192,119989,128,8,121024:0:0:0:0:
320,192,120119,1,0,0:0:0:0:
448,192,120248,1,0,1:0:0:0:
320,192,120377,1,0,0:0:0:0:
192,192,120507,1,0,0:0:0:0:
320,192,120636,1,0,0:0:0:0:
192,192,120765,1,0,1:0:0:0:
448,192,120895,1,8,0:0:0:0:
320,192,120895,1,0,0:0:0:0:
192,192,121024,128,0,122058:0:0:0:0:
320,192,121153,1,8,0:0:0:0:
448,192,121153,1,0,0:0:0:0:
64,192,121283,1,0,1:0:0:0:
448,192,121412,1,0,0:0:0:0:
320,192,121541,1,0,0:0:0:0:
448,192,121671,1,0,0:0:0:0:
320,192,121800,128,0,122058:0:0:0:0:
64,192,122058,1,8,0:0:0:0:
448,192,122058,128,0,123093:0:0:0:0:
192,192,122188,1,0,0:0:0:0:
320,192,122317,1,0,1:0:0:0:
192,192,122446,1,0,0:0:0:0:
64,192,122576,1,0,0:0:0:0:
192,192,122705,1,0,0:0:0:0:
320,192,122834,1,0,1:0:0:0:
64,192,122964,1,0,0:0:0:0:
192,192,122964,1,8,0:0:0:0:
320,192,123093,128,0,124127:0:0:0:0:
64,192,123222,1,0,1:0:0:0:
192,192,123222,1,8,0:0:0:0:
448,192,123352,1,0,1:0:0:0:
192,192,123481,1,0,1:0:0:0:
64,192,123610,1,0,1:0:0:0:
64,192,123739,1,0,1:0:0:0:
192,192,123869,1,0,1:0:0:0:
448,192,123998,1,0,1:0:0:0:
192,192,124127,128,4,125162:0:2:0:0:
64,192,124257,1,0,0:0:0:0:
448,192,124386,1,0,0:0:0:0:
64,192,124515,1,0,0:0:0:0:
448,192,124645,1,0,0:0:0:0:
64,192,124774,1,0,0:0:0:0:
448,192,124903,1,0,0:0:0:0:
64,192,125033,1,0,0:0:0:0:
320,192,125162,128,4,126196:0:2:0:0:
448,192,125162,1,0,0:0:0:0:
64,192,125291,1,0,0:0:0:0:
192,192,125421,1,0,0:0:0:0:
64,192,125550,1,0,0:0:0:0:
448,192,125679,1,0,0:0:0:0:
192,192,125808,1,0,0:0:0:0:
64,192,125938,1,0,0:0:0:0:
192,192,126067,1,0,0:0:0:0:
64,192,126196,128,4,126714:0:2:0:0:
448,192,126196,1,0,0:0:0:0:
448,192,126326,1,0,0:0:0:0:
320,192,126455,1,0,0:0:0:0:
320,192,126584,1,0,0:0:0:0:
448,192,126714,128,4,127231:0:2:0:0:
192,192,126714,1,0,0:0:0:0:
192,192,126843,1,0,0:0:0:0:
64,192,126972,1,0,0:0:0:0:
64,192,127102,1,0,0:0:0:0:
192,192,127231,128,4,127489:0:2:0:0:
320,192,127231,1,0,0:0:0:0:
320,192,127489,128,4,127748:0:2:0:0:
64,192,127489,1,0,0:0:0:0:
192,192,127748,128,4,128007:2:0:0:0:
448,192,127748,1,0,0:0:0:0:
64,192,128007,1,0,0:0:0:0:
64,192,128136,1,0,0:0:0:0:
320,192,128265,128,0,139127:0:2:0:0:
448,192,128265,128,4,139127:0:2:0:0:
192,192,138438,1,0,0:0:0:0:
64,192,138524,128,0,139127:1:0:0:0:
192,192,138610,128,4,139127:0:2:0:0:
