osu file format v12

[General]
AudioFilename: Zomboy - Raptor (Music Video).mp3
AudioLeadIn: 0
PreviewTime: -1
Countdown: 1
SampleSet: None
StackLeniency: 0.7
Mode: 0
LetterboxInBreaks: 1
WidescreenStoryboard: 0

[Editor]
DistanceSpacing: 1.2
BeatDivisor: 4
GridSize: 4

[Metadata]
Title:Raptor
TitleUnicode:Raptor
Artist:Zomboy
ArtistUnicode:Zomboy
Creator:arkemaky
Version:Hard
Source:
Tags:
BeatmapID:367631
BeatmapSetID:148719

[Difficulty]
HPDrainRate:6
CircleSize:5
OverallDifficulty:7
ApproachRate:8
SliderMultiplier:1.6
SliderTickRate:1

[Events]
//Background and Video events
//Break Periods
//Storyboard Layer 0 (Background)
//Storyboard Layer 1 (Fail)
//Storyboard Layer 2 (Pass)
//Storyboard Layer 3 (Foreground)
//Storyboard Sound Samples
//Background Colour Transformations
3,100,163,162,255

[TimingPoints]
10946,234.375,4,1,0,100,1,0

[Colours]
Combo1 : 192,192,192
Combo2 : 131,209,252
Combo3 : 4,7,134
Combo4 : 0,0,0

[HitObjects]
52,48,10946,2,0,B|136:48|136:48|160:76,1,120
160,92,11180,2,0,L|160:172,1,80
104,252,11414,1,0,0:0:0:0:
104,252,11531,2,0,B|152:288|152:288|192:296|192:296|240:336,1,160
340,328,11883,2,0,B|376:280|376:280|384:240|384:240|424:192,3,160
296,48,12821,5,0,0:0:0:0:
296,48,12938,2,0,B|360:100|360:100|440:100,1,160
244,108,13289,1,0,0:0:0:0:
244,108,13406,2,0,B|180:52|180:52|104:52,1,160
52,132,13758,2,0,B|52:180|52:180|76:248|76:248|76:288,3,160
172,288,14577,1,0,0:0:0:0:
260,340,14696,5,0,0:0:0:0:
304,256,14813,2,0,L|384:256,2,80
208,268,15164,1,0,0:0:0:0:
208,268,15281,2,0,B|184:192|184:192|184:112,1,160
260,52,15633,2,0,B|344:52|344:52|368:80,1,120
368,108,15867,2,0,L|368:188,1,80
392,280,16102,2,0,P|412:312|456:320,2,80
368,188,16453,1,0,0:0:0:0:
280,152,16571,5,0,0:0:0:0:
196,196,16688,2,0,L|112:196,2,80
284,232,17039,1,0,0:0:0:0:
376,260,17156,2,0,L|456:260,2,80
312,332,17508,2,0,L|228:332,1,80
156,276,17742,2,0,L|72:276,1,80
40,188,17977,1,0,0:0:0:0:
216,352,18094,1,0,0:0:0:0:
196,64,18446,6,0,B|256:80|256:80|312:64,1,120
336,56,18680,2,0,L|416:56,1,80
444,148,18914,5,0,0:0:0:0:
424,240,19031,2,0,B|344:248|344:248|304:320,1,160
208,332,19383,2,0,L|48:332,3,160
32,236,20203,1,0,0:0:0:0:
56,140,20321,2,0,B|72:96|72:96|72:60,2,80
124,208,20672,1,0,0:0:0:0:
212,248,20789,2,0,L|296:256,1,80
380,216,21024,1,0,0:0:0:0:
300,164,21141,1,0,0:0:0:0:
212,128,21258,6,0,B|264:64|264:64|340:36,1,160
300,256,21727,2,0,B|248:320|248:320|172:348,1,160
108,276,22078,1,0,0:0:0:0:
40,204,22196,2,0,B|36:164|36:164|40:120,1,80
120,76,22430,2,0,B|124:116|124:116|120:156,1,80
196,272,22664,2,0,B|192:232|192:232|196:188,1,80
276,144,22898,2,0,B|280:184|280:184|276:224,1,80
280,320,23133,2,0,B|336:320|336:320|384:296|384:296|436:296,3,160
256,192,24071,12,0,25711,0:0:0:0:
440,48,25946,6,0,L|456:128,1,80
400,204,26180,2,0,L|424:280,1,80
356,348,26414,2,0,L|328:272,3,80
236,244,26883,2,0,L|208:168,3,80
124,124,27352,1,0,0:0:0:0:
40,76,27469,1,0,0:0:0:0:
44,172,27586,1,0,0:0:0:0:
88,256,27703,1,0,0:0:0:0:
168,312,27821,6,0,L|248:312,3,80
248,216,28289,2,0,L|328:216,3,80
320,120,28758,2,0,L|400:120,3,80,0|0|0|0,0:0|0:0|0:0|0:0,0:0:0:0:
444,208,29227,5,0,0:0:0:0:
408,296,29344,1,0,0:0:0:0:
324,344,29461,1,0,0:0:0:0:
228,344,29578,1,0,0:0:0:0:
144,300,29696,2,0,B|120:268|120:268|120:228,1,80
60,152,29930,2,0,L|60:72,1,80
152,48,30164,2,0,B|192:64|192:64|232:64,1,80
308,120,30399,2,0,L|388:120,1,80
412,212,30633,5,0,0:0:0:0:
356,288,30750,1,0,0:0:0:0:
264,320,30867,1,0,0:0:0:0:
172,288,30985,1,0,0:0:0:0:
120,208,31102,1,0,0:0:0:0:
216,216,31219,1,0,0:0:0:0:
280,144,31336,1,0,0:0:0:0:
260,52,31453,1,0,0:0:0:0:
