osu file format v14

[General]
AudioFilename: Zomboy - Nuclear (Album Version).mp3
AudioLeadIn: 0
PreviewTime: 101762
Countdown: 0
SampleSet: Soft
StackLeniency: 0.2
Mode: 0
LetterboxInBreaks: 0
EpilepsyWarning: 1
WidescreenStoryboard: 1

[Editor]
Bookmarks: 13844,57982,80051,102119,113154,124188,135223,146257,168326,171085,173844,179361,182119,184878,190395,201430,212464,222119,234533,256602,278671,289706,300740,311775,322809,331947,344878,355913
DistanceSpacing: 1
BeatDivisor: 4
GridSize: 16
TimelineZoom: 2

[Metadata]
Title:Nuclear (Album Version)
TitleUnicode:Nuclear (Album Version)
Artist:Zomboy
ArtistUnicode:Zomboy
Creator:- BiDulGi -
Version:Collab
Source:
Tags:Dub Dubstep Electronic Jobcho
BeatmapID:492909
BeatmapSetID:209409

[Difficulty]
HPDrainRate:7
CircleSize:4
OverallDifficulty:7.2
ApproachRate:8.5
SliderMultiplier:1.2
SliderTickRate:2

[Events]
//Background and Video events
0,0,"maxresdefault.jpg",0,0
//Break Periods
2,20940,24203
2,31975,34893
2,107491,112479
2,212664,220927
2,234733,255927
2,323009,331272
//Storyboard Layer 0 (Background)
//Storyboard Layer 1 (Fail)
//Storyboard Layer 2 (Pass)
//Storyboard Layer 3 (Foreground)
//Storyboard Sound Samples

[TimingPoints]
51,344.827586206897,4,2,0,100,1,0
57982,-100,4,3,0,100,0,0
66257,-100,4,1,0,100,0,0
66344,-100,4,3,0,100,0,0
69016,-100,4,1,0,100,0,0
69361,-100,4,3,0,100,0,0
69533,-100,4,1,0,100,0,0
69878,-100,4,3,0,100,0,0
70051,-100,4,1,0,100,0,0
70740,-100,4,3,0,100,0,0
70913,-100,4,1,0,100,0,0
71257,-100,4,3,0,100,0,0
71430,-100,4,1,0,100,0,0
72119,-100,4,3,0,100,0,0
72292,-100,4,1,0,100,0,0
72637,-100,4,3,0,100,0,0
72809,-100,4,1,0,100,0,0
73499,-100,4,3,0,100,0,0
73671,-100,4,1,0,100,0,0
74533,-83.3333333333333,4,1,0,100,0,0
77378,-100,4,3,0,100,0,0
77637,-100,4,2,0,100,0,0
77723,-100,4,3,0,100,0,0
77982,-100,4,1,0,100,0,0
78068,-100,4,3,0,100,0,0
78326,-100,4,2,0,100,0,0
78413,-100,4,3,0,100,0,0
79016,-83.3333333333333,4,2,0,100,0,0
79361,-71.4285714285714,4,2,0,100,0,0
79706,-62.5,4,2,0,100,0,0
79964,-62.5,4,2,1,100,0,0
80137,-62.5,4,2,0,100,0,0
90999,-62.5,4,1,1,100,0,0
91171,-62.5,4,2,0,100,0,0
91688,-62.5,4,1,1,100,0,0
91861,-62.5,4,2,0,100,0,0
92377,-62.5,4,1,1,100,0,0
92550,-62.5,4,2,0,100,0,0
93066,-62.5,4,1,1,100,0,0
93239,-62.5,4,2,0,100,0,0
93755,-62.5,4,1,1,100,0,0
93928,-62.5,4,2,0,100,0,0
94444,-62.5,4,1,1,100,0,0
94617,-62.5,4,2,0,100,0,0
95133,-62.5,4,1,1,100,0,0
95306,-62.5,4,2,0,100,0,0
95822,-62.5,4,1,1,100,0,0
95995,-62.5,4,2,0,100,0,0
96511,-62.5,4,1,1,100,0,0
96684,-62.5,4,2,0,100,0,0
96861,-62.5,4,1,1,100,0,0
97033,-62.5,4,2,0,100,0,0
97200,-62.5,4,1,1,100,0,0
97373,-62.5,4,2,0,100,0,0
97551,-62.5,4,1,1,100,0,0
97723,-62.5,4,2,0,100,0,0
97895,-62.5,4,1,1,100,0,0
98068,-62.5,4,2,0,100,0,0
98240,-62.5,4,1,1,100,0,0
98413,-62.5,4,2,0,100,0,0
98585,-62.5,4,1,1,100,0,0
98757,-62.5,4,2,0,100,0,0
98930,-62.5,4,1,1,100,0,0
99101,-62.5,4,2,0,100,0,0
99275,-62.5,4,1,1,100,0,0
100740,-50,4,1,1,100,0,0
101430,-50,4,1,1,100,0,0
102119,-58.8235294117647,4,1,1,100,0,0
102464,-58.8235294117647,4,2,1,100,0,0
102809,-117.647058823529,4,1,1,100,0,0
102982,-58.8235294117647,4,2,1,100,0,0
103499,-58.8235294117647,4,1,1,100,0,0
103499,-58.8235294117647,4,1,1,100,0,0
103671,-58.8235294117647,4,2,1,100,0,0
104188,-58.8235294117647,4,1,1,100,0,0
104275,-58.8235294117647,4,2,1,100,0,0
104361,-58.8235294117647,4,2,1,100,0,0
104878,-117.647058823529,4,1,1,100,0,0
105223,-50,4,2,1,100,0,0
105568,-58.8235294117647,4,1,1,100,0,0
105740,-58.8235294117647,4,2,0,100,0,0
106257,-58.8235294117647,4,1,1,100,0,0
106430,-58.8235294117647,4,2,1,100,0,0
106947,-58.8235294117647,4,1,1,100,0,0
107292,-58.8235294117647,4,2,1,100,0,0
107637,-50,4,1,1,100,0,0
107982,-50,4,2,1,100,0,0
108326,-58.8235294117647,4,1,1,100,0,0
108499,-58.8235294117647,4,2,1,100,0,0
109016,-58.8235294117647,4,1,1,100,0,0
109188,-58.8235294117647,4,2,1,100,0,0
109706,-58.8235294117647,4,1,1,100,0,0
109792,-58.8235294117647,4,2,1,100,0,0
110395,-50,4,1,1,100,0,0
110568,-50,4,2,1,100,0,0
111085,-66.6666666666667,4,1,1,100,0,0
111257,-66.6666666666667,4,2,1,100,0,0
111775,-58.8235294117647,4,1,1,100,0,0
111947,-58.8235294117647,4,2,1,100,0,0
112292,-58.8235294117647,4,1,1,100,0,0
112464,-58.8235294117647,4,1,1,100,0,0
113154,-50,4,1,1,100,0,0
113240,-50,4,2,0,100,0,0
113844,-58.8235294117647,4,1,1,100,0,0
113930,-58.8235294117647,4,2,0,100,0,0
114447,-58.8235294117647,4,1,1,100,0,0
114619,-58.8235294117647,4,2,0,100,0,0
115137,-58.8235294117647,4,1,1,100,0,0
115266,-58.8235294117647,4,2,0,100,0,0
115913,-133.333333333333,4,1,1,100,0,0
115999,-133.333333333333,4,2,0,100,0,0
116516,-133.333333333333,4,1,1,100,0,0
116688,-133.333333333333,4,2,0,100,0,0
116775,-58.8235294117647,4,2,0,100,0,0
117206,-58.8235294117647,4,1,1,100,0,0
117378,-58.8235294117647,4,2,0,100,0,0
117895,-58.8235294117647,4,1,1,100,0,0
118068,-58.8235294117647,4,2,0,100,0,0
118585,-58.8235294117647,4,1,1,100,0,0
118757,-58.8235294117647,4,2,0,100,0,0
119318,-58.8235294117647,4,1,1,100,0,0
119447,-58.8235294117647,4,2,0,100,0,0
119706,-50,4,2,0,100,0,0
120007,-58.8235294117647,4,1,1,100,0,0
120137,-58.8235294117647,4,2,0,100,0,0
120654,-58.8235294117647,4,1,1,100,0,0
120826,-58.8235294117647,4,2,0,100,0,0
121430,-133.333333333333,4,1,1,100,0,0
121516,-133.333333333333,4,2,0,100,0,0
122033,-133.333333333333,4,1,1,100,0,0
122206,-133.333333333333,4,2,0,100,0,0
122292,-58.8235294117647,4,2,0,100,0,0
122723,-58.8235294117647,4,3,0,100,0,0
122895,-58.8235294117647,4,2,0,100,0,0
123154,-58.8235294117647,4,3,0,100,0,0
123240,-58.8235294117647,4,2,0,100,0,0
123413,-58.8235294117647,4,3,0,100,0,0
124188,-50,4,1,1,100,0,0
124188,-50,4,1,1,100,0,0
124706,-50,4,2,1,100,0,0
124878,-200,4,1,1,100,0,0
125395,-200,4,2,1,100,0,0
125568,-58.8235294117647,4,3,1,100,0,0
125740,-58.8235294117647,4,2,1,100,0,0
126257,-58.8235294117647,4,1,1,100,0,0
126430,-58.8235294117647,4,2,1,100,0,0
126947,-58.8235294117647,4,3,1,100,0,0
127119,-58.8235294117647,4,2,1,100,0,0
127637,-58.8235294117647,4,1,1,100,0,0
127982,-50,4,2,0,5,0,0
128082,-58.8235294117647,4,2,0,100,0,0
128326,-58.8235294117647,4,1,1,100,0,0
128671,-58.8235294117647,4,2,1,100,0,0
129016,-58.8235294117647,4,1,1,100,0,0
129188,-58.8235294117647,4,2,1,100,0,0
129361,-90.9090909090909,4,2,0,100,0,0
129706,-58.8235294117647,4,1,1,100,0,0
129878,-58.8235294117647,4,2,0,80,0,0
130051,-58.8235294117647,4,2,0,40,0,0
130223,-58.8235294117647,4,2,0,20,0,0
130395,-133.333333333333,4,1,1,100,0,0
130913,-133.333333333333,4,2,1,100,0,0
131085,-58.8235294117647,4,1,1,100,0,0
131257,-58.8235294117647,4,2,1,100,0,0
131775,-58.8235294117647,4,1,1,100,0,0
131947,-58.8235294117647,4,2,1,100,0,0
132464,-58.8235294117647,4,1,1,100,0,0
132637,-58.8235294117647,4,2,1,100,0,0
133154,-58.8235294117647,4,1,1,100,0,0
133499,-50,4,2,0,100,0,0
133844,-58.8235294117647,4,1,1,100,0,0
135223,-133.333333333333,4,1,1,100,0,0
135913,-58.8235294117647,4,1,1,100,0,0
135999,-58.8235294117647,4,2,0,100,0,0
136516,-58.8235294117647,4,1,1,100,0,0
136688,-58.8235294117647,4,2,0,100,0,0
137206,-58.8235294117647,4,1,1,100,0,0
137378,-58.8235294117647,4,2,0,100,0,0
137895,-58.8235294117647,4,1,1,100,0,0
138068,-58.8235294117647,4,2,0,100,0,0
138585,-58.8235294117647,4,1,1,100,0,0
138757,-58.8235294117647,4,2,0,100,0,0
139275,-58.8235294117647,4,1,1,100,0,0
139447,-58.8235294117647,4,2,0,100,0,0
139964,-58.8235294117647,4,1,1,100,0,0
140137,-58.8235294117647,4,2,0,100,0,0
140740,-133.333333333333,4,1,1,100,0,0
140826,-133.333333333333,4,2,0,100,0,0
141430,-100,4,1,1,100,0,0
141516,-100,4,2,0,100,0,0
142119,-66.6666666666667,4,1,1,100,0,0
142206,-66.6666666666667,4,2,0,100,0,0
142723,-66.6666666666667,4,1,1,100,0,0
142895,-66.6666666666667,4,2,0,100,0,0
143413,-66.6666666666667,4,1,1,100,0,0
143585,-66.6666666666667,4,2,0,100,0,0
144102,-66.6666666666667,4,1,1,100,0,0
144275,-66.6666666666667,4,2,0,100,0,0
144878,-58.8235294117647,4,3,0,100,0,0
145137,-58.8235294117647,4,1,0,100,0,0
145654,-58.8235294117647,4,3,0,100,0,0
146257,-71.4285714285714,4,3,0,100,0,0
146430,-71.4285714285714,4,2,2,100,0,0
146947,-71.4285714285714,4,1,1,100,0,0
147119,-71.4285714285714,4,2,1,100,0,0
147637,-71.4285714285714,4,1,1,100,0,0
147809,-71.4285714285714,4,2,1,100,0,0
148326,-71.4285714285714,4,1,1,100,0,0
148499,-71.4285714285714,4,2,1,100,0,0
149016,-71.4285714285714,4,3,1,100,0,0
149188,-71.4285714285714,4,2,1,100,0,0
149706,-71.4285714285714,4,1,1,100,0,0
149878,-71.4285714285714,4,2,1,100,0,0
151085,-71.4285714285714,4,1,1,100,0,0
151257,-71.4285714285714,4,2,1,100,0,0
152464,-71.4285714285714,4,1,1,100,0,0
152637,-71.4285714285714,4,2,1,100,0,0
153844,-71.4285714285714,4,1,1,100,0,0
154016,-71.4285714285714,4,2,1,100,0,0
155223,-58.8235294117647,4,1,1,100,0,0
155395,-58.8235294117647,4,2,0,100,0,0
156602,-58.8235294117647,4,1,1,100,0,0
156775,-58.8235294117647,4,2,1,100,0,0
157982,-58.8235294117647,4,1,1,100,0,0
158154,-58.8235294117647,4,2,1,100,0,0
159361,-58.8235294117647,4,1,1,100,0,0
159533,-58.8235294117647,4,2,1,100,0,0
160740,-58.8235294117647,4,1,1,100,0,0
160913,-58.8235294117647,4,2,1,100,0,0
162119,-58.8235294117647,4,1,1,100,0,0
162292,-58.8235294117647,4,2,1,100,0,0
163499,-58.8235294117647,4,1,1,100,0,0
163671,-58.8235294117647,4,2,1,100,0,0
164878,-58.8235294117647,4,1,1,100,0,0
165051,-58.8235294117647,4,2,1,100,0,0
166257,-58.8235294117647,4,1,1,100,0,0
167982,-50,4,2,0,20,0,0
168326,-58.8235294117647,4,1,1,100,0,0
168413,-58.8235294117647,4,2,0,100,0,0
169016,-58.8235294117647,4,1,1,100,0,0
169102,-58.8235294117647,4,2,0,100,0,0
169706,-58.8235294117647,4,1,1,100,0,0
169792,-58.8235294117647,4,2,0,100,0,0
170395,-58.8235294117647,4,1,1,100,0,0
170482,-58.8235294117647,4,2,0,100,0,0
170740,-50,4,2,0,100,0,0
171085,-50,4,2,1,100,0,0
171085,-50,4,1,1,100,0,0
171257,-50,4,2,1,100,0,0
171430,-50,4,2,0,100,0,0
171775,-58.8235294117647,4,1,1,100,0,0
171947,-58.8235294117647,4,2,1,100,0,0
172464,-58.8235294117647,4,1,1,100,0,0
172637,-58.8235294117647,4,2,1,100,0,0
173154,-58.8235294117647,4,1,1,100,0,0
173326,-58.8235294117647,4,2,1,100,0,0
173844,-58.8235294117647,4,1,1,100,0,0
173944,-58.8235294117647,4,2,0,100,0,0
174533,-58.8235294117647,4,1,1,100,0,0
174619,-58.8235294117647,4,2,0,100,0,0
175223,-58.8235294117647,4,1,1,100,0,0
175309,-58.8235294117647,4,2,0,100,0,0
175913,-58.8235294117647,4,1,1,100,0,0
175999,-58.8235294117647,4,2,0,100,0,0
176257,-50,4,2,1,100,0,0
176602,-133.333333333333,4,1,1,100,0,0
176688,-58.8235294117647,4,2,0,100,0,0
177292,-133.333333333333,4,1,1,100,0,0
177378,-58.8235294117647,4,2,0,100,0,0
177982,-58.8235294117647,4,1,1,100,0,0
178068,-58.8235294117647,4,2,0,100,0,0
178671,-58.8235294117647,4,1,1,100,0,0
178757,-58.8235294117647,4,2,0,100,0,0
179361,-58.8235294117647,4,1,1,100,0,0
179619,-58.8235294117647,4,2,1,100,0,0
179706,-50,4,2,0,100,0,0
180051,-58.8235294117647,4,1,1,100,0,0
180223,-58.8235294117647,4,2,1,100,0,0
180740,-58.8235294117647,4,1,1,100,0,0
180913,-58.8235294117647,4,2,1,100,0,0
181430,-58.8235294117647,4,1,1,100,0,0
181602,-58.8235294117647,4,2,1,100,0,0
181775,-50,4,2,0,100,0,0
182119,-58.8235294117647,4,1,1,100,0,0
182206,-58.8235294117647,4,2,0,100,0,0
182809,-58.8235294117647,4,1,1,100,0,0
182895,-58.8235294117647,4,2,0,100,0,0
183499,-58.8235294117647,4,1,1,100,0,0
183585,-58.8235294117647,4,2,0,100,0,0
184188,-58.8235294117647,4,1,1,100,0,0
184275,-58.8235294117647,4,2,0,100,0,0
184878,-50,4,1,1,100,0,0
184878,-50,4,1,1,100,0,0
184964,-50,4,2,1,100,0,0
185568,-50,4,1,1,100,0,0
185654,-50,4,2,1,100,0,0
186257,-50,4,1,1,100,0,0
186344,-50,4,2,1,100,0,0
186947,-100,4,1,1,100,0,0
187033,-100,4,2,1,100,0,0
187292,-50,4,2,0,100,0,0
187637,-133.333333333333,4,1,1,100,0,0
187723,-133.333333333333,4,2,1,100,0,0
188240,-133.333333333333,4,2,1,5,0,0
188326,-57.1428571428571,4,1,1,100,0,0
188413,-57.1428571428571,4,2,1,100,0,0
189016,-57.1428571428571,4,3,1,100,0,0
189706,-50,4,2,1,100,0,0
190395,-133.333333333333,4,1,1,100,0,0
190482,-133.333333333333,4,2,0,100,0,0
191085,-100,4,1,1,100,0,0
191171,-100,4,2,0,100,0,0
191775,-66.6666666666667,4,1,1,100,0,0
191861,-66.6666666666667,4,2,0,100,0,0
192292,-58.8235294117647,4,2,0,100,0,0
192464,-58.8235294117647,4,1,1,100,0,0
192551,-58.8235294117647,4,2,0,100,0,0
193154,-58.8235294117647,4,1,1,100,0,0
193240,-58.8235294117647,4,2,0,100,0,0
193844,-58.8235294117647,4,1,1,100,0,0
193930,-58.8235294117647,4,2,0,100,0,0
194188,-50,4,2,0,100,0,0
194533,-58.8235294117647,4,1,1,100,0,0
194619,-58.8235294117647,4,2,0,100,0,0
195223,-58.8235294117647,4,1,1,100,0,0
195309,-58.8235294117647,4,2,0,100,0,0
195913,-133.333333333333,4,1,1,100,0,0
195999,-133.333333333333,4,2,0,100,0,0
196602,-100,4,1,1,100,0,0
196688,-100,4,2,0,100,0,0
197292,-66.6666666666667,4,1,1,100,0,0
197378,-66.6666666666667,4,2,0,100,0,0
197982,-66.6666666666667,4,1,1,100,0,0
198068,-66.6666666666667,4,2,0,100,0,0
198671,-58.8235294117647,4,1,1,100,0,0
198757,-58.8235294117647,4,2,0,100,0,0
199361,-58.8235294117647,4,1,1,100,0,0
199447,-58.8235294117647,4,2,0,100,0,0
200051,-58.8235294117647,4,1,1,100,0,0
200137,-58.8235294117647,4,2,0,100,0,0
200740,-58.8235294117647,4,1,1,100,0,0
200826,-58.8235294117647,4,2,0,100,0,0
201430,-133.333333333333,4,1,1,100,0,0
201602,-133.333333333333,4,2,1,100,0,0
202119,-58.8235294117647,4,1,1,100,0,0
202292,-58.8235294117647,4,2,0,5,0,0
202637,-58.8235294117647,4,2,0,100,0,0
202809,-58.8235294117647,4,1,1,100,0,0
202982,-58.8235294117647,4,2,1,100,0,0
203499,-58.8235294117647,4,1,1,100,0,0
203671,-58.8235294117647,4,2,1,100,0,0
204188,-58.8235294117647,4,1,1,100,0,0
204361,-58.8235294117647,4,2,1,100,0,0
204878,-58.8235294117647,4,1,1,100,0,0
205051,-58.8235294117647,4,2,1,100,0,0
205223,-50,4,2,0,100,0,0
205568,-58.8235294117647,4,1,1,100,0,0
205568,-58.8235294117647,4,1,1,100,0,0
205740,-58.8235294117647,4,2,1,100,0,0
206257,-58.8235294117647,4,1,1,100,0,0
206430,-58.8235294117647,4,2,1,100,0,0
206602,-50,4,2,0,100,0,0
206947,-58.8235294117647,4,1,1,100,0,0
207119,-58.8235294117647,4,2,0,80,0,0
207292,-58.8235294117647,4,2,0,60,0,0
207464,-58.8235294117647,4,2,0,40,0,0
207637,-200,4,1,1,100,0,0
207809,-200,4,2,1,100,0,0
208326,-50,4,1,1,100,0,0
208499,-50,4,2,1,100,0,0
208671,-66.6666666666667,4,2,0,100,0,0
209016,-58.8235294117647,4,1,1,100,0,0
209188,-58.8235294117647,4,2,1,100,0,0
209361,-50,4,2,0,100,0,0
209706,-58.8235294117647,4,1,1,100,0,0
209878,-58.8235294117647,4,2,1,100,0,0
210395,-117.647058823529,4,1,1,100,0,0
210568,-117.647058823529,4,2,1,100,0,0
211085,-58.8235294117647,4,3,0,100,0,0
212119,-58.8235294117647,4,1,1,30,0,0
212464,-58.8235294117647,4,2,0,100,0,0
222809,-58.8235294117647,4,1,1,100,0,0
222895,-58.8235294117647,4,2,0,100,0,0
224188,-58.8235294117647,4,1,1,100,0,0
224275,-58.8235294117647,4,2,0,100,0,0
225568,-58.8235294117647,4,1,1,100,0,0
225654,-58.8235294117647,4,2,0,100,0,0
226947,-58.8235294117647,4,1,1,100,0,0
227033,-58.8235294117647,4,2,0,100,0,0
228326,-58.8235294117647,4,1,1,100,0,0
228413,-58.8235294117647,4,2,0,100,0,0
229706,-58.8235294117647,4,1,1,100,0,0
229792,-58.8235294117647,4,2,0,100,0,0
231085,-58.8235294117647,4,1,1,100,0,0
231171,-58.8235294117647,4,2,0,100,0,0
232464,-58.8235294117647,4,1,1,100,0,0
232551,-58.8235294117647,4,2,0,100,0,0
234188,-58.8235294117647,4,1,1,100,0,0
234275,-58.8235294117647,4,1,0,50,0,0
267637,-58.8235294117647,4,1,0,100,0,0
278671,-50,4,1,1,100,0,0
278757,-50,4,2,0,100,0,0
279016,-50,4,1,1,100,0,0
279102,-50,4,2,0,100,0,0
279533,-58.8235294117647,4,1,1,100,0,0
279619,-58.8235294117647,4,2,0,100,0,0
279706,-58.8235294117647,4,1,1,100,0,0
279792,-58.8235294117647,4,2,0,100,0,0
280051,-58.8235294117647,4,1,1,100,0,0
280137,-58.8235294117647,4,2,0,100,0,0
280395,-58.8235294117647,4,1,1,100,0,0
280482,-58.8235294117647,4,2,0,100,0,0
280740,-50,4,2,0,100,0,0
280913,-58.8235294117647,4,1,1,100,0,0
281257,-58.8235294117647,4,2,0,100,0,0
281430,-50,4,1,1,100,0,0
281516,-50,4,2,0,100,0,0
281775,-50,4,1,1,100,0,0
281861,-50,4,2,0,100,0,0
282033,-50,4,1,1,100,0,0
282119,-58.8235294117647,4,2,0,100,0,0
282292,-58.8235294117647,4,1,1,100,0,0
282378,-58.8235294117647,4,2,0,100,0,0
282464,-58.8235294117647,4,1,1,100,0,0
282551,-58.8235294117647,4,2,0,100,0,0
282723,-58.8235294117647,4,1,1,100,0,0
283154,-58.8235294117647,4,1,1,100,0,0
283240,-58.8235294117647,4,2,0,100,0,0
283413,-58.8235294117647,4,1,1,100,0,0
283499,-58.8235294117647,4,2,0,100,0,0
283671,-58.8235294117647,4,1,1,100,0,0
283757,-58.8235294117647,4,2,0,100,0,0
283844,-50,4,1,1,100,0,0
283930,-50,4,2,0,100,0,0
284016,-50,4,1,1,100,0,0
284102,-50,4,2,0,100,0,0
284188,-50,4,1,1,100,0,0
284275,-50,4,2,0,100,0,0
284533,-50,4,1,1,100,0,0
284619,-50,4,2,0,100,0,0
285051,-50,4,1,1,100,0,0
285309,-50,4,2,0,100,0,0
285568,-58.8235294117647,4,1,1,100,0,0
285654,-58.8235294117647,4,2,0,100,0,0
285913,-58.8235294117647,4,1,1,100,0,0
285999,-58.8235294117647,4,2,0,100,0,0
286257,-66.6666666666667,4,2,0,100,0,0
286430,-58.8235294117647,4,1,1,100,0,0
286516,-58.8235294117647,4,2,0,100,0,0
286602,-50,4,1,1,100,0,0
286688,-50,4,2,0,100,0,0
286947,-133.333333333333,4,1,1,100,0,0
287637,-58.8235294117647,4,2,0,100,0,0
287809,-58.8235294117647,4,1,1,100,0,0
288068,-58.8235294117647,4,2,0,100,0,0
288326,-58.8235294117647,4,1,1,100,0,0
288413,-58.8235294117647,4,2,0,100,0,0
288671,-58.8235294117647,4,1,1,100,0,0
288757,-58.8235294117647,4,2,0,100,0,0
289016,-58.8235294117647,4,1,1,100,0,0
289102,-58.8235294117647,4,2,0,100,0,0
289188,-58.8235294117647,4,3,0,100,0,0
289361,-58.8235294117647,4,3,1,100,0,0
289447,-58.8235294117647,4,2,0,100,0,0
289706,-58.8235294117647,4,1,1,100,0,0
289878,-58.8235294117647,4,2,0,100,0,0
290051,-58.8235294117647,4,1,1,100,0,0
290223,-58.8235294117647,4,2,1,100,0,0
290395,-50,4,2,0,100,0,0
290568,-50,4,1,1,100,0,0
290913,-50,4,2,1,100,0,0
291085,-66.6666666666667,4,1,1,100,0,0
291257,-66.6666666666667,4,2,1,100,0,0
291430,-50,4,1,1,100,0,0
291602,-50,4,2,1,100,0,0
291775,-133.333333333333,4,1,1,50,0,0
291861,-133.333333333333,4,2,1,50,0,0
291947,-133.333333333333,4,1,1,50,0,0
292119,-133.333333333333,4,1,1,50,0,0
292464,-57.1428571428571,4,1,1,100,0,0
292637,-57.1428571428571,4,2,1,100,0,0
292809,-57.1428571428571,4,1,1,100,0,0
292982,-57.1428571428571,4,2,1,100,0,0
293068,-57.1428571428571,4,1,1,100,0,0
293154,-50,4,2,0,100,0,0
293326,-50,4,1,1,100,0,0
293499,-66.6666666666667,4,1,1,100,0,0
293757,-66.6666666666667,4,1,1,100,0,0
293844,-50,4,2,0,100,0,0
294016,-50,4,1,1,100,0,0
294188,-50,4,1,1,100,0,0
294361,-50,4,2,1,100,0,0
294533,-66.6666666666667,4,1,1,100,0,0
295223,-66.6666666666667,4,1,1,100,0,0
295482,-66.6666666666667,4,2,1,100,0,0
295568,-66.6666666666667,4,1,1,100,0,0
295740,-66.6666666666667,4,2,1,100,0,0
295913,-66.6666666666667,4,1,1,100,0,0
296085,-66.6666666666667,4,2,1,100,0,0
296257,-50,4,1,1,100,0,0
296602,-57.1428571428571,4,1,1,100,0,0
296688,-57.1428571428571,4,2,1,100,0,0
296947,-57.1428571428571,4,1,1,100,0,0
297206,-57.1428571428571,4,1,1,100,0,0
297464,-57.1428571428571,4,1,1,100,0,0
297551,-57.1428571428571,4,1,1,100,0,0
297637,-50,4,1,1,100,0,0
297809,-50,4,2,1,100,0,0
297982,-57.1428571428571,4,1,1,100,0,0
299361,-57.1428571428571,4,3,0,100,0,0
299447,-57.1428571428571,4,2,0,100,0,0
299706,-57.1428571428571,4,3,0,100,0,0
299792,-57.1428571428571,4,2,0,100,0,0
300051,-57.1428571428571,4,3,0,100,0,0
300740,-133.333333333333,4,1,1,100,0,0
300826,-133.333333333333,4,2,0,100,0,0
301430,-100,4,1,1,100,0,0
301516,-100,4,2,0,100,0,0
302119,-66.6666666666667,4,1,1,100,0,0
302206,-66.6666666666667,4,2,0,100,0,0
302809,-66.6666666666667,4,1,1,100,0,0
302895,-66.6666666666667,4,2,0,100,0,0
303499,-66.6666666666667,4,1,1,100,0,0
303585,-66.6666666666667,4,2,0,100,0,0
304188,-66.6666666666667,4,1,1,100,0,0
304275,-66.6666666666667,4,2,0,100,0,0
304533,-50,4,2,0,100,0,0
304878,-50,4,1,1,100,0,0
304964,-50,4,2,0,100,0,0
305568,-66.6666666666667,4,1,1,100,0,0
305654,-66.6666666666667,4,2,0,100,0,0
305913,-50,4,2,0,100,0,0
306257,-133.333333333333,4,1,1,100,0,0
306344,-133.333333333333,4,2,0,100,0,0
306947,-100,4,1,1,100,0,0
307033,-100,4,2,0,100,0,0
307637,-66.6666666666667,4,1,1,100,0,0
307723,-66.6666666666667,4,2,0,100,0,0
307982,-57.1428571428571,4,2,0,100,0,0
308326,-57.1428571428571,4,1,1,100,0,0
308413,-57.1428571428571,4,2,0,100,0,0
309016,-57.1428571428571,4,1,1,100,0,0
309102,-57.1428571428571,4,2,0,100,0,0
309706,-57.1428571428571,4,1,1,100,0,0
309792,-57.1428571428571,4,2,0,100,0,0
310051,-50,4,2,0,100,0,0
310395,-58.8235294117647,4,1,1,100,0,0
310482,-58.8235294117647,4,2,0,100,0,0
311085,-58.8235294117647,4,1,1,100,0,0
311171,-58.8235294117647,4,2,0,100,0,0
311775,-133.333333333333,4,1,1,100,0,0
312292,-133.333333333333,4,2,1,100,0,0
312464,-76.9230769230769,4,1,1,100,0,0
312982,-50,4,2,1,100,0,0
313154,-58.8235294117647,4,1,1,100,0,0
313326,-58.8235294117647,4,2,1,100,0,0
313844,-58.8235294117647,4,1,1,100,0,0
314016,-58.8235294117647,4,2,1,100,0,0
314533,-58.8235294117647,4,1,1,100,0,0
314706,-58.8235294117647,4,2,1,100,0,0
315223,-58.8235294117647,4,1,1,100,0,0
315395,-58.8235294117647,4,2,1,100,0,0
315568,-50,4,2,1,100,0,0
315913,-66.6666666666667,4,1,1,100,0,0
316085,-66.6666666666667,4,2,1,100,0,0
316602,-66.6666666666667,4,1,1,100,0,0
316775,-66.6666666666667,4,2,1,100,0,0
317292,-83.3333333333333,4,1,1,100,0,0
317464,-83.3333333333333,4,2,1,100,0,0
317982,-76.9230769230769,4,1,1,100,0,0
318154,-76.9230769230769,4,2,1,100,0,0
318671,-66.6666666666667,4,1,1,100,0,0
318844,-66.6666666666667,4,2,1,100,0,0
319361,-66.6666666666667,4,1,1,100,0,0
319533,-66.6666666666667,4,2,1,100,0,0
320051,-66.6666666666667,4,1,1,100,0,0
320223,-66.6666666666667,4,2,1,100,0,0
320740,-66.6666666666667,4,1,1,100,0,0
320913,-66.6666666666667,4,2,1,100,0,0
321085,-50,4,2,1,100,0,0
321430,-66.6666666666667,4,3,1,100,0,0
331947,-66.6666666666667,4,2,0,100,0,0
333154,-58.8235294117647,4,1,1,100,0,0
333240,-58.8235294117647,4,2,0,100,0,0
334533,-58.8235294117647,4,1,1,100,0,0
334619,-58.8235294117647,4,2,0,100,0,0
335913,-58.8235294117647,4,1,1,100,0,0
335999,-58.8235294117647,4,2,0,100,0,0
337292,-58.8235294117647,4,1,1,100,0,0
337378,-58.8235294117647,4,2,0,100,0,0
338671,-58.8235294117647,4,1,1,100,0,0
338757,-58.8235294117647,4,2,0,100,0,0
340051,-58.8235294117647,4,1,1,100,0,0
340137,-58.8235294117647,4,2,0,100,0,0
341430,-58.8235294117647,4,1,1,100,0,0
341516,-58.8235294117647,4,2,0,100,0,0
342809,-58.8235294117647,4,1,1,100,0,0
342895,-58.8235294117647,4,2,0,100,0,0
344188,-58.8235294117647,4,1,1,100,0,0
344275,-58.8235294117647,4,2,0,100,0,0
345568,-58.8235294117647,4,1,1,100,0,0
345740,-58.8235294117647,4,2,1,100,0,0
346947,-58.8235294117647,4,1,1,100,0,0
347119,-58.8235294117647,4,2,1,100,0,0
348326,-58.8235294117647,4,1,1,100,0,0
348499,-58.8235294117647,4,2,1,100,0,0
349706,-58.8235294117647,4,1,1,100,0,0
349878,-58.8235294117647,4,2,1,100,0,0
351085,-58.8235294117647,4,1,1,100,0,0
351257,-58.8235294117647,4,2,1,100,0,0
352464,-58.8235294117647,4,1,1,100,0,0
352637,-58.8235294117647,4,2,1,100,0,0
353844,-58.8235294117647,4,1,1,100,0,0
355913,-133.333333333333,4,1,0,100,0,0
355999,-133.333333333333,4,2,0,100,0,0
364188,-100,4,2,0,100,0,0
364878,-80,4,2,0,100,0,0
365568,-66.6666666666667,4,2,0,100,0,0
366257,-50,4,2,0,100,0,0
367637,-50,4,2,0,95,0,0
368326,-50,4,2,0,85,0,0
369016,-50,4,2,0,75,0,0
369706,-50,4,2,0,65,0,0
370395,-50,4,2,0,55,0,0
371085,-50,4,2,0,45,0,0
371775,-50,4,2,0,35,0,0
372464,-50,4,2,0,25,0,0
373154,-50,4,2,0,15,0,0
373844,-50,4,2,0,5,0,0

[Colours]
Combo1 : 17,254,176
Combo2 : 173,255,95
Combo3 : 255,88,100
Combo4 : 255,94,55

[HitObjects]
256,192,13844,5,4,1:0:0:0:
256,192,14016,12,0,20740,0:0:0:0:
256,192,24878,5,4,1:0:0:0:
256,192,25051,12,0,31775,0:0:0:0:
76,64,35568,5,4,1:0:0:0:
220,44,35913,2,0,B|252:94|349:127|288:19|421:19|511:94|547:206|421:343|320:343|259:282|256:192|253:102|192:41|91:41|-35:178|1:290|91:365|224:365|163:257|260:290|292:340,3,960,0|0|0|0,3:0|0:0|0:0|0:0,0:0:0:0:
328,324,44533,5,0,0:0:0:0:
360,312,44878,1,2,0:0:0:0:
392,300,45223,1,0,0:0:0:0:
424,288,45568,1,0,0:0:0:0:
456,274,45913,2,0,P|499:312|507:371,2,120,0|2|4,0:0|0:0|1:0,0:0:0:0:
438,156,46947,2,0,B|336:240|208:204|132:172|120:32|204:0|256:0|256:0|308:0|392:32|380:172|304:204|176:240|74:156,2,960,0|0|0,3:0|0:0|0:0,0:0:0:0:
380,8,52809,5,0,0:0:0:0:
476,112,53154,2,0,P|464:224|356:257,2,240,0|2|2,0:0|0:0|0:0,0:0:0:0:
380,8,54878,1,0,0:0:0:0:
234,7,55223,2,0,P|139:67|163:177,1,240
278,377,56602,2,0,P|373:317|349:207,1,240,2|2,0:0|0:0,0:0:0:0:
155,64,57982,6,0,P|122:112|128:170,1,120
184,248,58499,2,0,P|217:199|211:141,1,120
272,76,59016,2,0,L|332:84,2,60,0|0|0,0:0|0:0|0:0,0:0:0:0:
380,220,59706,2,0,L|320:232,2,60,0|0|0,0:0|0:0|0:0,0:0:0:0:
468,204,60223,1,0,0:0:0:0:
420,128,60395,2,0,L|300:152,1,120
132,208,61085,6,0,L|116:148,2,60,0|0|0,0:0|0:0|0:0,0:0:0:0:
84,304,61602,1,0,0:0:0:0:
84,304,61775,2,0,B|144:320|144:288|204:304,1,120
284,340,62292,1,0,0:0:0:0:
284,340,62464,2,0,B|328:348|328:348|341:355,1,60
320,268,62809,2,0,L|380:268,1,60
280,196,63154,2,0,B|324:188|324:188|337:180,1,60
376,160,63413,1,0,0:0:0:0:
416,140,63499,5,0,0:0:0:0:
248,72,63844,2,0,L|190:87,1,60
162,170,64188,2,0,P|114:136|99:80,2,120,0|0|0,0:0|0:0|0:0,0:0:0:0:
144,260,65051,1,0,0:0:0:0:
228,240,65223,2,0,P|249:220|256:191,1,60
228,143,65568,2,0,P|234:172|256:193,1,60
311,192,65913,2,0,P|283:183|254:191,1,60
254,191,66171,1,0,0:0:0:0:
254,191,66257,5,0,0:0:0:0:
428,244,66602,2,0,L|448:188,2,60,0|0|0,0:0|0:0|0:0,0:0:0:0:
376,316,67119,1,0,0:0:0:0:
288,300,67292,1,0,0:0:0:0:
344,228,67464,1,0,0:0:0:0:
288,300,67637,2,0,L|228:316,1,60
176,244,67982,2,0,L|116:244,1,60
76,164,68326,2,0,L|136:164,1,60
226,164,68671,2,0,L|286:164,1,60
332,164,68930,1,0,0:0:0:0:
376,164,69016,5,0,0:0:0:0:
376,164,69361,1,0,0:0:0:0:
290,136,69533,1,0,0:0:0:0:
290,46,69706,1,0,0:0:0:0:
376,18,69878,1,0,0:0:0:0:
428,91,70051,1,0,0:0:0:0:
256,192,70395,5,0,0:0:0:0:
136,220,70740,1,0,0:0:0:0:
222,248,70912,1,0,0:0:0:0:
222,338,71085,1,0,0:0:0:0:
136,366,71257,1,0,0:0:0:0:
84,293,71430,1,0,0:0:0:0:
159,292,71602,1,0,0:0:0:0:
159,292,71688,1,0,0:0:0:0:
159,292,71775,5,0,0:0:0:0:
336,272,72119,6,0,L|396:260,2,60,0|0|0,0:0|0:0|0:0,0:0:0:0:
256,316,72637,1,0,0:0:0:0:
176,272,72809,2,0,L|116:260,2,60,0|0|0,0:0|0:0|0:0,0:0:0:0:
176,112,73499,6,0,L|116:124,2,60,0|0|0,0:0|0:0|0:0,0:0:0:0:
256,68,74017,1,0,0:0:0:0:
336,112,74189,2,0,L|396:124,1,60,0|0,0:0|0:0,0:0:0:0:
440,132,74447,1,0,0:0:0:0:
475,136,74533,2,0,P|458:204|492:265,1,143.999995605469
368,357,75223,2,0,P|386:289|352:228,2,143.999995605469,0|0|0,0:0|0:0|0:0,0:0:0:0:
143,357,76257,2,0,P|125:289|160:228,2,143.999995605469,0|0|0,0:0|0:0|0:0,0:0:0:0:
144,72,77292,5,0,0:0:0:0:
171,84,77378,1,0,0:0:0:0:
199,94,77464,1,0,0:0:0:0:
228,101,77550,1,0,0:0:0:0:
258,105,77636,1,0,0:0:0:0:
288,106,77723,1,0,0:0:0:0:
318,104,77809,1,0,0:0:0:0:
347,97,77895,1,0,0:0:0:0:
375,87,77981,5,0,0:0:0:0:
401,71,78067,1,0,0:0:0:0:
423,52,78154,1,0,0:0:0:0:
441,35,78240,1,0,0:0:0:0:
455,62,78326,1,0,0:0:0:0:
465,90,78412,1,0,0:0:0:0:
471,119,78498,1,0,0:0:0:0:
469,149,78585,1,0,0:0:0:0:
456,176,78671,6,0,L|396:176,1,60
324,292,79016,2,0,L|252:292,1,71.9999978027344
104,220,79361,2,0,L|192:220,1,83.9999974365235
52,40,79706,2,0,P|110:79|181:76,1,144
236,84,80051,6,0,P|316:128|399:86,1,192,4|2,1:0|0:0,0:0:0:0:
320,28,80568,1,0,0:0:0:0:
304,124,80740,2,0,L|316:219,1,96
416,355,81085,2,0,L|404:260,1,96,2|0,0:0|0:0,0:0:0:0:
395,163,81430,2,0,P|438:82|529:78,1,192,0|2,0:0|0:0,0:0:0:0:
488,160,81947,1,0,0:0:0:0:
438,82,82119,2,0,L|386:1,1,96
319,72,82464,2,0,P|290:108|245:124,1,96,2|0,0:0|0:0,0:0:0:0:
235,32,82809,6,0,P|161:84|168:176,1,192,0|2,0:0|0:0,0:0:0:0:
245,124,83326,1,0,0:0:0:0:
245,124,83499,2,0,L|255:220,1,96
272,315,83844,2,0,P|319:312|360:334,1,96,2|0,0:0|0:0,0:0:0:0:
444,380,84188,2,0,L|486:192,1,192,0|2,0:0|0:0,0:0:0:0:
504,96,84706,1,0,0:0:0:0:
503,96,84878,2,0,P|457:88|419:58,1,96
496,0,85223,2,0,L|296:72,1,192,2|0,0:0|0:0,0:0:0:0:
240,124,85740,5,0,0:0:0:0:
240,124,85913,2,0,L|154:81,1,96,2|0,0:0|0:0,0:0:0:0:
67,36,86257,2,0,P|57:82|69:128,1,96
140,196,86602,2,0,P|152:241|141:288,1,96,2|0,0:0|0:0,0:0:0:0:
48,308,86947,2,0,L|230:367,1,192
272,280,87464,1,0,0:0:0:0:
272,280,87637,2,0,P|306:247|352:237,1,96
400,320,87982,1,2,0:0:0:0:
400,320,88154,1,0,0:0:0:0:
496,320,88326,6,0,L|446:134,1,192,0|2,0:0|0:0,0:0:0:0:
472,40,88844,1,0,0:0:0:0:
380,64,89016,2,0,B|310:90|310:37|241:64,2,144,0|0|2,0:0|0:0|0:0,0:0:0:0:
460,240,89878,1,0,0:0:0:0:
368,272,90051,1,2,0:0:0:0:
280,304,90223,1,0,0:0:0:0:
236,320,90309,1,0,0:0:0:0:
192,340,90395,2,0,B|176:291|201:252|201:252|158:221,1,144,0|2,0:0|0:0,0:0:0:0:
36,143,90913,1,0,0:0:0:0:
35,142,91085,6,0,P|42:50|119:0,1,192,4|2,0:0|0:0,0:0:0:0:
132,103,91602,1,0,0:0:0:0:
132,103,91775,2,0,P|177:115|224:103,1,96,4|0,0:0|0:0,0:0:0:0:
300,47,92119,2,0,P|346:35|392:47,1,96,2|0,0:0|0:0,0:0:0:0:
488,47,92464,2,0,L|422:227,1,192,4|2,0:0|0:0,0:0:0:0:
420,323,92982,1,0,0:0:0:0:
419,322,93154,2,0,P|379:297|332:292,1,96,4|0,0:0|0:0,0:0:0:0:
164,255,93499,2,0,P|204:229|251:224,1,96,2|0,0:0|0:0,0:0:0:0:
356,200,93844,6,0,P|379:110|322:37,1,192,4|2,0:0|0:0,0:0:0:0:
271,132,94361,1,0,0:0:0:0:
270,132,94533,2,0,P|225:144|182:126,1,96,4|0,0:0|0:0,0:0:0:0:
104,68,94878,1,2,0:0:0:0:
104,68,95051,2,0,L|80:160,1,96,0|4,0:0|0:0,0:0:0:0:
60,256,95395,2,0,P|105:269|138:304,1,96,0|2,0:0|0:0,0:0:0:0:
224,352,95740,1,0,0:0:0:0:
224,352,95913,2,0,L|319:348,1,96,4|0,0:0|0:0,0:0:0:0:
512,292,96257,2,0,L|416:288,1,96,2|0,0:0|0:0,0:0:0:0:
371,199,96602,6,0,P|356:154|359:107,1,96,4|0,0:0|0:0,0:0:0:0:
263,76,96947,2,0,P|218:91|171:88,1,96,4|0,0:0|0:0,0:0:0:0:
140,184,97292,2,0,P|155:229|152:276,1,96,4|0,0:0|0:0,0:0:0:0:
248,307,97637,2,0,P|293:292|340:295,1,96,4|0,0:0|0:0,0:0:0:0:
379,103,97982,6,0,P|337:82|299:52,1,96,4|0,0:0|0:0,0:0:0:0:
167,68,98326,2,0,P|146:110|116:148,1,96,4|0,0:0|0:0,0:0:0:0:
132,280,98671,2,0,P|174:301|212:331,1,96,4|0,0:0|0:0,0:0:0:0:
344,315,99016,2,0,P|365:273|395:235,1,96,4|0,0:0|0:0,0:0:0:0:
256,56,99361,5,4,0:0:0:0:
120,192,99533,1,4,0:0:0:0:
256,328,99706,1,4,0:0:0:0:
392,192,99878,1,4,0:0:0:0:
256,56,100051,1,4,0:0:0:0:
256,76,100137,1,4,0:0:0:0:
256,96,100223,2,4,L|256:144,6,48,4|4|4|4|4|4|4,0:0|0:0|0:0|0:0|0:0|0:0|0:0,0:0:0:0:
256,96,101257,6,0,L|256:136,3,40,0|0|0|2,0:0|0:0|0:0|0:0,0:0:0:0:
68,236,102119,6,0,B|116:256|116:256|156:236|180:252|204:236|204:236|232:264|268:236,1,204.000003890991
344,316,102637,1,0,0:0:0:0:
344,140,102809,2,0,L|236:132,1,102.000001945496
344,316,103326,1,0,0:0:0:0:
344,140,103499,2,0,L|236:132,1,102.000001945496
46,64,103844,2,0,L|148:72,1,102.000001945496
108,176,104188,1,0,0:0:0:0:
116,208,104275,1,0,0:0:0:0:
108,236,104361,1,0,0:0:0:0:
108,336,104533,1,0,0:0:0:0:
408,268,104878,6,0,P|382:240|384:203,1,76.5000014591217
400,172,105223,2,0,P|372:76|252:116,1,240
256,260,105740,1,0,0:0:0:0:
256,280,105826,1,0,0:0:0:0:
256,300,105913,1,0,0:0:0:0:
256,180,106085,1,0,0:0:0:0:
104,144,106257,1,0,0:0:0:0:
152,296,106430,1,0,0:0:0:0:
256,180,106602,2,0,B|272:168|300:168|300:168|324:184|354:173,1,102.000001945496
256,180,106947,2,0,B|288:156|344:156|344:156|392:188|452:166,1,204.000003890991
8,231,113154,6,0,P|91:253|122:334,1,180,4|0,0:0|0:0,0:0:0:0:
72,364,113499,2,0,B|144:352|144:352|168:328|168:328|240:316,1,180,2|0,0:0|0:0,0:0:0:0:
280,347,113844,6,0,P|320:284|391:263,1,153.000002918243,2|0,0:0|0:0,0:0:0:0:
436,288,114188,2,0,L|493:203,1,102.000001945496,2|0,0:0|0:0,0:0:0:0:
456,108,114533,1,4,0:0:0:0:
404,20,114706,1,0,0:0:0:0:
340,99,114878,2,0,P|289:93|245:68,1,102.000001945496,2|0,0:0|0:0,0:0:0:0:
156,23,115223,2,0,L|140:72,2,51.0000009727478,2|0|0,0:0|0:0|0:0,0:0:0:0:
228,96,115568,2,0,P|211:168|147:207,1,153.000002918243,2|0,0:0|0:0,0:0:0:0:
124,200,115913,6,0,P|46:238|26:323,1,180.000006866455,4|2,0:0|0:0,0:0:0:0:
128,304,116775,1,0,0:0:0:0:
128,304,116861,1,0,0:0:0:0:
127,303,116947,2,0,P|173:325|224:325,1,102.000001945496,2|0,0:0|0:0,0:0:0:0:
324,348,117292,2,0,L|352:249,1,102.000001945496,4|0,0:0|0:0,0:0:0:0:
288,168,117637,2,0,P|290:117|320:77,1,102.000001945496,2|0,0:0|0:0,0:0:0:0:
420,96,117982,2,0,L|240:0,1,204.000003890991,2|2,0:0|0:0,0:0:0:0:
48,68,118671,6,0,B|60:120|52:168|52:168|72:184|85:208,1,153.000002918243,4|0,0:0|0:0,0:0:0:0:
55,250,119016,2,0,P|105:196|178:206,1,153.000002918243,2|0,0:0|0:0,0:0:0:0:
208,164,119361,2,0,B|226:192|258:195|258:195|261:222|261:222|294:225|312:253,1,153.000002918243,2|0,0:0|0:0,0:0:0:0:
332,312,119706,2,2,B|353:298|353:298|344:290|344:290|369:281|369:281|361:273|361:273|386:264|386:264|377:255|377:255|403:246|403:246|394:238|394:238|415:225,1,180,2|0,0:0|0:0,0:0:0:0:
456,180,120051,6,0,P|417:147|410:98,1,102.000001945496,4|0,0:0|0:0,0:0:0:0:
460,32,120395,2,0,L|260:-8,1,204.000003890991,2|2,0:0|0:0,0:0:0:0:
92,108,121085,2,2,B|70:136|35:144|35:144|39:136|47:134|47:134|33:166|1:183,1,153.000002918243,2|0,0:0|0:0,0:0:0:0:
0,131,121430,6,0,P|61:192|48:278,1,180.000006866455,4|2,0:0|0:0,0:0:0:0:
148,304,122292,1,0,0:0:0:0:
243,269,122464,1,2,0:0:0:0:
165,202,122637,1,0,0:0:0:0:
114,110,122809,6,0,P|163:98|202:66,1,102.000001945496,8|0,0:0|0:0,0:0:0:0:
248,44,123068,1,0,0:0:0:0:
248,44,123154,2,0,B|286:78|286:78|302:125,1,102.000001945496,2|0,0:0|0:0,0:0:0:0:
348,216,123499,1,0,0:0:0:0:
448,228,123671,2,0,L|448:279,2,51.0000009727478,0|8|10,0:0|0:0|0:0,0:0:0:0:
460,128,124016,1,8,0:0:0:0:
362,44,124188,6,0,B|339:55|339:55|345:44|345:44|323:55|323:55|328:44|328:44|306:55|306:55|312:44|312:44|290:55|290:55|295:44|295:44|273:55|273:55|279:44|279:44|257:55|257:55|262:44|262:44|240:55|240:55|245:44|245:44|223:55|223:55|229:44|229:44|207:55|207:55|212:44|212:44|190:55|190:55|196:44|196:44|174:55|174:55|179:44|179:44,1,360,4|0,0:0|0:0,0:0:0:0:
160,128,124878,2,0,L|256:128,1,90,2|0,0:0|0:0,0:0:0:0:
152,228,125568,2,0,P|176:272|224:292,1,102.000001945496
360,228,125913,2,0,P|336:272|288:292,1,102.000001945496,2|0,0:0|0:0,0:0:0:0:
256,196,126257,1,2,0:0:0:0:
256,196,126430,1,0,0:0:0:0:
256,196,126602,2,0,L|256:92,1,102.000001945496,2|0,0:0|0:0,0:0:0:0:
176,32,126947,5,0,0:0:0:0:
92,88,127119,1,0,0:0:0:0:
100,192,127292,1,2,0:0:0:0:
196,232,127464,1,0,0:0:0:0:
192,132,127637,1,2,0:0:0:0:
192,132,127982,2,0,P|176:188|128:224,1,120
192,132,128326,6,0,B|232:72|312:48|312:48|300:104,1,204.000003890991,4|2,0:0|0:0,0:0:0:0:
284,180,128844,1,0,0:0:0:0:
284,180,129016,2,0,L|436:164,1,153.000002918243,2|0,0:0|0:0,0:0:0:0:
428,272,129361,2,0,L|312:268,1,99.0000030212403,2|0,0:0|0:0,0:0:0:0:
300,284,129706,5,4,0:0:0:0:
208,328,129878,1,0,0:0:0:0:
112,300,130051,1,2,0:0:0:0:
60,212,130223,1,0,0:0:0:0:
108,124,130395,2,0,B|140:108|140:108|172:112|172:112|172:112|200:100|228:108|228:108|237:104,1,135.000005149841,2|0,0:0|0:0,0:0:0:0:
320,48,131085,6,0,P|336:96|328:148,1,102.000001945496,4|0,0:0|0:0,0:0:0:0:
248,208,131430,1,2,0:0:0:0:
236,104,131602,1,0,0:0:0:0:
248,208,131775,2,0,L|352:216,1,102.000001945496,2|0,0:0|0:0,0:0:0:0:
408,300,132119,1,2,0:0:0:0:
476,224,132292,1,0,0:0:0:0:
362,267,132464,5,4,0:0:0:0:
180,298,132637,1,0,0:0:0:0:
149,116,132809,1,2,0:0:0:0:
331,85,132982,1,0,0:0:0:0:
256,192,133154,1,2,0:0:0:0:
104,84,133499,6,0,P|60:156|100:236,1,180
72,248,133844,6,0,B|148:232|148:232|204:280|268:272,1,204.000003890991,4|0,0:0|0:0,0:0:0:0:
308,180,134361,1,4,0:0:0:0:
264,272,134533,2,0,L|364:296,1,102.000001945496,2|0,0:0|0:0,0:0:0:0:
308,180,134878,2,0,L|208:156,1,102.000001945496,2|0,0:0|0:0,0:0:0:0:
88,164,135223,6,0,B|88:152|88:152|96:144|96:144|87:142|87:142|108:112|104:84|104:84|140:76|153:48,1,157.500006008148,4|0,0:0|0:0,0:0:0:0:
180,4,135913,6,2,P|247:125|374:67,1,306.000005836487,2|2,0:0|0:0,0:0:0:0:
280,28,136602,2,0,L|311:229,1,204.000003890991,4|2,0:0|0:0,0:0:0:0:
344,328,137119,1,0,0:0:0:0:
244,304,137292,2,0,P|193:301|146:319,1,102.000001945496,2|0,0:0|0:0,0:0:0:0:
56,268,137637,2,0,P|83:225|91:175,1,102.000001945496,2|0,0:0|0:0,0:0:0:0:
180,123,137982,6,0,P|202:168|242:199,2,102.000001945496,4|0|2,0:0|0:0|0:0,0:0:0:0:
132,32,138499,1,0,0:0:0:0:
228,68,138671,2,0,L|93:221,1,204.000003890991,2|2,0:0|0:0,0:0:0:0:
128,316,139188,1,0,0:0:0:0:
228,339,139361,2,0,P|294:305|314:234,1,153.000002918243,4|0,0:0|0:0,0:0:0:0:
288,192,139706,2,0,L|364:124,1,102.000001945496,2|0,0:0|0:0,0:0:0:0:
444,188,140051,2,0,B|421:124|368:139|346:75,1,153.000002918243,2|0,0:0|0:0,0:0:0:0:
376,32,140395,2,0,B|336:20|336:20|306:27|276:20,1,102.000001945496,2|0,0:0|0:0,0:0:0:0:
176,12,140740,6,0,B|164:56|124:60|124:60|120:64|120:64|120:56|120:56|116:60|116:60|69:101,1,157.500006008148,4|0,0:0|0:0,0:0:0:0:
44,120,141430,6,0,B|87:155|142:142|142:142|130:197|168:240,1,210,2|0,0:0|0:0,0:0:0:0:
128,259,142119,6,0,P|208:291|229:376,1,180.000006866455,4|2,0:0|0:0,0:0:0:0:
140,352,142637,1,0,0:0:0:0:
53,328,142809,2,0,L|44:238,1,90.0000034332277,2|0,0:0|0:0,0:0:0:0:
108,176,143154,2,0,P|136:142|139:98,1,90.0000034332277,2|0,0:0|0:0,0:0:0:0:
80,32,143499,2,0,L|-4:0,2,90.0000034332277,4|0|2,0:0|0:0|0:0,0:0:0:0:
168,12,144016,1,0,0:0:0:0:
231,75,144188,2,0,P|278:121|274:187,1,135.000005149841,2|0,0:0|0:0,0:0:0:0:
236,208,144533,2,0,L|342:291,1,135.000005149841,2|0,0:0|0:0,0:0:0:0:
367,327,144878,6,0,P|417:320|466:331,2,102.000001945496,0|2|0,0:0|0:0|0:0,0:0:0:0:
280,348,145395,2,0,L|274:323,4,25.5000004863739,0|0|0|0|0,0:0|0:0|0:0|0:0|0:0,0:0:0:0:
192,328,145740,1,2,0:0:0:0:
92,348,145913,1,0,0:0:0:0:
102,304,145999,1,0,0:0:0:0:
90,260,146085,1,0,0:0:0:0:
58,230,146171,1,0,0:0:0:0:
14,218,146257,1,0,0:0:0:0:
88,124,146430,5,0,0:0:0:0:
24,80,146602,2,0,P|4:40|8:-4,1,83.9999974365235
88,124,146947,2,0,P|128:136|172:128,1,83.9999974365235,2|0,0:0|0:0,0:0:0:0:
424,124,147292,2,0,P|384:136|340:128,1,83.9999974365235
256,216,147637,6,0,B|228:132|284:132|256:48,2,167.999994873047,0|0|2,0:0|0:0|0:0,0:0:0:0:
260,296,148499,1,0,0:0:0:0:
328,348,148671,1,0,0:0:0:0:
344,264,148844,1,0,0:0:0:0:
260,296,149016,6,0,P|216:304|176:300,1,83.9999974365235,0|0,0:0|0:0,0:0:0:0:
136,228,149361,2,0,P|180:220|220:224,1,83.9999974365235
124,236,149706,2,0,P|116:192|120:152,1,83.9999974365235,2|0,0:0|0:0,0:0:0:0:
204,136,150051,2,0,P|212:180|208:220,1,83.9999974365235
308,136,150395,6,0,P|300:180|304:220,1,83.9999974365235,0|0,0:0|0:0,0:0:0:0:
192,52,150740,2,0,P|148:60|108:48,1,83.9999974365235
208,56,151085,1,2,0:0:0:0:
320,52,151257,2,0,P|360:60|401:49,1,83.9999974365235
304,56,151602,1,0,0:0:0:0:
312,140,151775,6,0,P|360:208|316:272,1,167.999994873047
264,208,152292,1,0,0:0:0:0:
312,140,152464,2,0,L|228:128,1,83.9999974365235,2|0,0:0|0:0,0:0:0:0:
264,208,152809,2,0,L|180:196,1,83.9999974365235
208,276,153154,6,0,P|268:320|356:308,1,167.999994873047
264,208,153671,1,0,0:0:0:0:
264,208,153844,2,0,L|228:128,1,83.9999974365235,2|0,0:0|0:0,0:0:0:0:
312,120,154188,2,0,L|320:36,1,83.9999974365235
392,88,154533,6,0,B|412:128|392:168|392:168|412:212|392:252,1,167.999994873047
312,268,155051,1,0,0:0:0:0:
224,320,155223,2,0,B|211:295|224:270|224:270|211:242|224:217,1,102.000001945496,2|0,0:0|0:0,0:0:0:0:
128,184,155568,1,0,0:0:0:0:
60,108,155740,1,0,0:0:0:0:
140,172,155913,6,0,P|172:128|172:80,1,102.000001945496
256,20,156257,1,0,0:0:0:0:
339,82,156430,2,0,P|341:132|372:172,1,102.000001945496,0|2,0:0|0:0,0:0:0:0:
300,244,156775,1,0,0:0:0:0:
256,340,156947,1,0,0:0:0:0:
212,244,157119,1,0,0:0:0:0:
168,340,157292,6,0,P|120:360|72:356,2,102.000001945496,0|0|0,0:0|0:0|0:0,0:0:0:0:
136,244,157809,1,0,0:0:0:0:
48,296,157982,2,0,P|44:192|96:108,1,204.000003890991,2|0,0:0|0:0,0:0:0:0:
180,52,158499,1,0,0:0:0:0:
276,88,158671,6,0,L|376:72,2,102.000001945496,0|0|0,0:0|0:0|0:0,0:0:0:0:
376,72,159188,1,0,0:0:0:0:
474,104,159361,1,2,0:0:0:0:
474,206,159533,1,0,0:0:0:0:
376,238,159706,1,0,0:0:0:0:
317,155,159878,1,0,0:0:0:0:
256,236,160051,6,0,L|256:340,2,102.000001945496,0|0|0,0:0|0:0|0:0,0:0:0:0:
256,133,160568,1,0,0:0:0:0:
172,76,160740,2,0,L|172:280,1,204.000003890991,2|0,0:0|0:0,0:0:0:0:
68,280,161257,1,0,0:0:0:0:
172,280,161430,6,0,B|224:280|224:280|312:328|312:328|364:328,1,204.000003890991
460,356,161947,1,0,0:0:0:0:
444,256,162119,1,2,0:0:0:0:
344,236,162292,1,0,0:0:0:0:
252,196,162464,1,0,0:0:0:0:
332,136,162637,1,0,0:0:0:0:
344,236,162809,6,0,P|344:184|332:136,1,102.000001945496
252,196,163154,2,0,P|252:248|264:296,1,102.000001945496
228,200,163499,2,0,P|192:164|144:152,1,102.000001945496,2|0,0:0|0:0,0:0:0:0:
48,132,163844,1,0,0:0:0:0:
124,64,164016,1,0,0:0:0:0:
60,144,164188,6,0,B|32:216|68:276|68:276|44:340,1,204.000003890991
144,320,164706,1,0,0:0:0:0:
204,236,164878,1,2,0:0:0:0:
256,324,165051,1,0,0:0:0:0:
308,236,165223,1,0,0:0:0:0:
368,320,165395,1,0,0:0:0:0:
396,220,165568,6,0,P|360:180|312:172,1,102.000001945496
284,52,165913,2,0,P|244:88|236:136,1,102.000001945496
116,164,166257,1,2,0:0:0:0:
116,164,166430,2,0,P|152:204|200:212,1,102.000001945496
180,312,166775,1,0,0:0:0:0:
256,244,166947,5,0,0:0:0:0:
332,312,167119,1,0,0:0:0:0:
376,284,167206,1,0,0:0:0:0:
392,236,167292,1,0,0:0:0:0:
320,164,167464,1,0,0:0:0:0:
392,91,167637,1,0,0:0:0:0:
463,162,167809,1,0,0:0:0:0:
320,164,167982,2,0,L|288:176,4,30,0|0|0|0|0,0:0|0:0|0:0|0:0|0:0,0:0:0:0:
300,68,168326,6,0,B|271:20|215:1|158:20|130:68|130:68|128:76|128:76|124:76|124:76|120:80|120:80|116:80|116:80|112:84|112:84|108:84|108:84|104:88|104:88|100:88|100:88|96:92|96:92|92:92|92:92|88:96|88:96|84:96|84:96|80:100|80:100|76:100|76:100|72:104|72:104|68:104|68:104|64:108|64:108|60:108|60:108|56:112|56:112|52:112|52:112|50:113,1,306.000005836487,4|0,0:0|0:0,0:0:0:0:
44,216,169016,2,0,B|108:188|108:188|137:199,1,102.000001945496,2|0,0:0|0:0,0:0:0:0:
210,47,169361,2,0,B|202:116|202:116|176:136,1,102.000001945496,2|0,0:0|0:0,0:0:0:0:
273,276,169706,2,0,B|216:234|216:234|212:202,2,102.000001945496,4|0|2,0:0|0:0|0:0,0:0:0:0:
340,352,170223,1,0,0:0:0:0:
420,292,170395,2,0,L|470:203,1,102.000001945496,2|0,0:0|0:0,0:0:0:0:
456,84,170740,2,0,B|433:61|433:61|416:67|394:44|400:28|400:28|377:5,1,120,2|0,0:0|0:0,0:0:0:0:
196,68,171085,6,0,B|144:96|144:96|148:116|148:116|128:160|180:216,1,180,4|0,0:0|0:0,0:0:0:0:
316,316,171430,2,0,B|368:288|368:288|364:268|364:268|384:224|332:168,1,180
196,68,171775,2,0,P|148:84|100:72,1,102.000001945496,2|0,0:0|0:0,0:0:0:0:
60,168,172119,1,0,0:0:0:0:
88,68,172292,1,0,0:0:0:0:
152,148,172464,2,0,P|176:192|176:248,1,102.000001945496,4|0,0:0|0:0,0:0:0:0:
100,312,172809,2,0,P|144:336|194:337,1,102.000001945496
256,256,173154,1,2,0:0:0:0:
317,337,173326,2,0,P|367:336|412:312,2,102.000001945496,0|0|0,0:0|0:0|0:0,0:0:0:0:
255,255,173844,6,0,P|279:187|351:175,1,153.000002918243,4|0,0:0|0:0,0:0:0:0:
388,210,174188,2,0,B|428:164|428:164|397:124|420:78,1,153.000002918243,2|0,0:0|0:0,0:0:0:0:
468,60,174533,2,0,B|348:36|348:36|360:63,1,153.000002918243,2|0,0:0|0:0,0:0:0:0:
371,116,174878,6,2,P|298:122|246:69,1,153.000002918243,2|0,0:0|0:0,0:0:0:0:
228,24,175223,2,0,L|178:34,2,51.0000009727478,4|0|0,0:0|0:0|0:0,0:0:0:0:
328,44,175568,2,0,L|328:197,1,153.000002918243,2|0,0:0|0:0,0:0:0:0:
367,227,175913,2,0,P|297:248|270:317,1,153.000002918243,2|0,0:0|0:0,0:0:0:0:
328,328,176257,6,2,B|278:278|278:278|239:278|239:278|189:229,1,180,2|0,0:0|0:0,0:0:0:0:
188,251,176602,6,0,P|100:247|48:178,1,180.000006866455,4|2,0:0|0:0,0:0:0:0:
76,80,177464,1,0,0:0:0:0:
148,156,177637,1,2,0:0:0:0:
96,244,177809,1,0,0:0:0:0:
148,332,177982,6,0,L|250:332,1,102.000001945496,4|0,0:0|0:0,0:0:0:0:
347,356,178326,2,0,P|379:316|426:300,1,102.000001945496,2|0,0:0|0:0,0:0:0:0:
508,360,178671,2,0,L|407:182,1,204.000003890991,2|2,0:0|0:0,0:0:0:0:
212,120,179361,6,0,B|172:108|172:108|128:144|64:136,1,153.000002918243,4|0,0:0|0:0,0:0:0:0:
84,208,179706,2,0,B|136:240|136:240|168:236|196:244,1,120,2|0,0:0|0:0,0:0:0:0:
344,324,180051,1,2,0:0:0:0:
494,237,180223,1,0,0:0:0:0:
494,237,180309,1,0,0:0:0:0:
494,237,180395,1,2,0:0:0:0:
344,150,180568,1,0,0:0:0:0:
375,296,180740,5,4,0:0:0:0:
497,173,180913,1,0,0:0:0:0:
330,128,181085,1,2,0:0:0:0:
398,262,181257,1,0,0:0:0:0:
484,111,181430,1,2,0:0:0:0:
311,111,181602,1,0,0:0:0:0:
240,272,181775,2,0,P|180:267|130:235,1,120,2|0,0:0|0:0,0:0:0:0:
60,160,182119,6,0,B|63:201|63:201|83:161|127:152|158:165,1,153.000002918243,4|0,0:0|0:0,0:0:0:0:
204,188,182464,2,0,P|276:177|303:109,1,153.000002918243,2|0,0:0|0:0,0:0:0:0:
276,68,182809,5,2,0:0:0:0:
413,135,182982,1,0,0:0:0:0:
346,271,183154,1,2,0:0:0:0:
209,204,183326,1,0,0:0:0:0:
76,64,183499,6,0,B|88:112|88:112|64:124|52:149,1,102.000001945496,4|0,0:0|0:0,0:0:0:0:
4,240,183844,2,0,L|63:323,1,102.000001945496,2|0,0:0|0:0,0:0:0:0:
160,360,184188,1,2,0:0:0:0:
205,268,184361,1,0,0:0:0:0:
115,222,184533,1,2,0:0:0:0:
161,130,184706,1,0,0:0:0:0:
252,179,184878,6,0,P|294:104|380:97,1,180,4|0,0:0|0:0,0:0:0:0:
424,140,185223,2,0,B|380:96|380:96|360:40|360:40|300:28,1,180
243,31,185568,2,0,P|158:21|104:88,1,180,2|0,0:0|0:0,0:0:0:0:
104,148,185913,2,0,B|136:168|136:200|136:200|120:232|136:253,1,120
256,272,186257,2,0,L|316:256,2,60,4|0|0,0:0|0:0|0:0,0:0:0:0:
136,252,186602,2,0,P|70:195|79:109,1,180
52,56,186947,6,0,L|144:40,1,90,2|0,0:0|0:0,0:0:0:0:
228,148,187292,6,0,L|108:164,1,120
228,148,187637,6,0,P|229:75|288:64,1,135.000005149841,4|0,0:0|0:0,0:0:0:0:
400,108,188326,5,0,0:0:0:0:
466,184,188498,1,0,0:0:0:0:
441,282,188670,1,0,0:0:0:0:
347,317,188843,1,0,0:0:0:0:
288,228,189016,6,0,B|212:212|132:228,1,157.500001502037
84,296,189361,2,0,P|136:304|192:296,1,105.000001001358
204,180,189706,2,0,P|256:188|312:180,1,105.000001001358,2|2,0:0|0:0,0:0:0:0:
324,297,189964,1,0,0:0:0:0:
324,297,190051,2,2,P|376:303|428:296,1,105.000001001358
400,164,190395,6,0,P|381:91|436:41,1,157.500006008148,4|0,0:0|0:0,0:0:0:0:
460,60,191085,2,2,B|407:23|407:23|334:51|342:-13|268:15,1,210,2|0,0:0|0:0,0:0:0:0:
280,44,191775,6,2,B|264:104|264:104|216:72|151:83,1,180.000006866455,4|2,0:0|0:0,0:0:0:0:
60,32,192292,1,0,0:0:0:0:
40,132,192464,2,0,L|88:221,1,102.000001945496,2|0,0:0|0:0,0:0:0:0:
116,320,192809,2,0,P|154:288|205:285,1,102.000001945496,2|0,0:0|0:0,0:0:0:0:
409,289,193154,6,0,P|370:321|320:324,2,102.000001945496,4|0|2,0:0|0:0|0:0,0:0:0:0:
332,224,193671,1,0,0:0:0:0:
332,224,193844,2,0,B|339:156|339:156|355:156|355:156|363:88,1,153.000002918243,2|0,0:0|0:0,0:0:0:0:
304,84,194188,6,0,B|272:36|208:56|208:56|142:28,1,180,2|0,0:0|0:0,0:0:0:0:
144,88,194533,6,0,P|126:157|55:165,1,153.000002918243,4|0,0:0|0:0,0:0:0:0:
4,172,194878,2,0,B|20:220|20:220|4:268,1,102.000001945496,2|0,0:0|0:0,0:0:0:0:
96,316,195223,2,0,L|243:356,1,153.000002918243,2|0,0:0|0:0,0:0:0:0:
256,307,195568,2,0,P|314:262|385:280,1,153.000002918243,2|0,0:0|0:0,0:0:0:0:
427,311,195913,6,0,P|491:274|476:202,1,157.500006008148,4|0,0:0|0:0,0:0:0:0:
448,216,196602,6,0,B|396:168|396:168|428:104|428:104|416:76|419:37,1,210,2|0,0:0|0:0,0:0:0:0:
387,36,197292,6,0,P|315:81|243:35,1,180.000006866455,4|2,0:0|0:0,0:0:0:0:
316,0,197809,1,0,0:0:0:0:
216,128,197982,2,0,L|185:212,1,90.0000034332277,2|0,0:0|0:0,0:0:0:0:
368,264,198326,2,0,L|338:179,1,90.0000034332277,2|0,0:0|0:0,0:0:0:0:
185,213,198671,6,0,P|138:231|89:221,2,102.000001945496,4|0|2,0:0|0:0|0:0,0:0:0:0:
276,164,199188,1,0,0:0:0:0:
276,164,199361,2,0,L|333:305,1,153.000002918243,2|0,0:0|0:0,0:0:0:0:
364,348,199706,2,0,P|405:287|479:287,1,153.000002918243,2|0,0:0|0:0,0:0:0:0:
504,332,200051,6,0,L|510:179,1,153.000002918243,4|0,0:0|0:0,0:0:0:0:
492,132,200395,2,0,B|476:92|476:92|496:72|504:40,1,102.000001945496,2|0,0:0|0:0,0:0:0:0:
400,20,200740,1,2,0:0:0:0:
418,122,200913,1,0,0:0:0:0:
254,101,201085,1,2,0:0:0:0:
299,9,201257,1,0,0:0:0:0:
327,167,201430,6,0,P|348:229|312:283,1,135.000005149841,4|0,0:0|0:0,0:0:0:0:
232,344,202119,2,0,P|208:300|164:276,2,102.000001945496,2|0|0,0:0|0:0|0:0,0:0:0:0:
312,284,202637,1,0,0:0:0:0:
311,283,202809,6,0,P|334:213|402:183,1,153.000002918243,4|0,0:0|0:0,0:0:0:0:
448,208,203154,2,0,P|456:156|436:112,1,102.000001945496
360,80,203499,2,0,P|312:96|264:80,1,102.000001945496,2|0,0:0|0:0,0:0:0:0:
184,20,203844,2,0,P|136:4|88:20,1,102.000001945496
48,112,204188,6,0,P|95:127|143:111,2,102.000001945496,4|0|0,0:0|0:0|0:0,0:0:0:0:
88,20,204706,1,0,0:0:0:0:
48,111,204878,2,0,P|21:181|50:250,1,153.000002918243,2|0,0:0|0:0,0:0:0:0:
56,299,205223,2,0,B|64:280|64:280|112:252|112:252|136:200|136:200|184:192,1,180
255,343,205568,6,0,P|326:325|342:254,1,153.000002918243,4|0,0:0|0:0,0:0:0:0:
384,284,205913,2,0,P|401:237|447:219,1,102.000001945496
380,140,206257,2,0,B|362:69|362:69|324:44|284:48,1,153.000002918243,2|0,0:0|0:0,0:0:0:0:
236,80,206602,2,0,P|149:68|88:129,1,180
72,188,206947,5,4,0:0:0:0:
118,277,207119,1,0,0:0:0:0:
202,333,207291,1,0,0:0:0:0:
303,341,207464,1,0,0:0:0:0:
395,299,207637,2,0,B|392:284|392:284|396:268|396:268|392:256|392:256|400:240|400:240|392:228|392:228|396:212,1,90,2|0,0:0|0:0,0:0:0:0:
444,108,208326,6,0,P|384:128|328:128,1,120,4|0,0:0|0:0,0:0:0:0:
160,164,208671,2,0,P|188:128|228:112,1,90.0000034332277
356,216,209016,2,0,P|315:246|266:259,1,102.000001945496,2|0,0:0|0:0,0:0:0:0:
155,303,209361,2,0,P|136:248|89:212,1,120
143,92,209706,2,0,P|192:78|229:43,1,102.000001945496,4|0,0:0|0:0,0:0:0:0:
355,79,210051,2,0,P|370:128|406:163,1,102.000001945496
368,292,210395,2,0,P|319:306|287:344,1,102.000001945496,2|0,0:0|0:0,0:0:0:0:
84,307,211085,6,0,P|145:268|138:195,1,153.000002918243
116,148,211430,1,0,0:0:0:0:
172,64,211602,1,0,0:0:0:0:
208,68,211660,1,0,0:0:0:0:
240,72,211717,1,0,0:0:0:0:
276,76,211775,1,0,0:0:0:0:
372,40,211947,1,0,0:0:0:0:
423,128,212119,2,4,P|415:152|418:177,1,51.0000009727478
448,220,212292,2,4,P|450:245|442:269,1,51.0000009727478
444,320,212464,5,4,0:0:0:0:
228,104,221602,6,0,P|184:79|158:36,1,102.000001945496,0|0,3:0|0:0,0:0:0:0:
256,7,221947,1,2,3:0:0:0:
184,192,222119,2,0,L|201:292,1,102.000001945496,0|0,3:0|0:0,0:0:0:0:
132,368,222464,1,2,3:0:0:0:
320,380,222637,2,0,L|302:279,1,102.000001945496,0|2,3:0|0:0,0:0:0:0:
372,204,222982,1,0,3:0:0:0:
331,173,223068,1,8,3:0:0:0:
310,128,223154,1,8,3:0:0:0:
313,77,223240,1,8,3:0:0:0:
340,35,223326,1,8,3:0:0:0:
412,108,223499,6,0,L|507:144,1,102.000001945496,0|0,3:0|0:0,0:0:0:0:
372,204,223844,2,0,L|277:166,1,102.000001945496,2|0,0:0|0:0,0:0:0:0:
215,90,224188,2,0,P|179:180|238:258,2,204.000003890991,2|2|0,0:0|0:0|3:0,0:0:0:0:
277,167,225051,5,0,0:0:0:0:
332,298,225223,2,0,L|266:376,1,102.000001945496,2|0,0:0|0:0,0:0:0:0:
180,318,225568,2,0,P|82:300|0:357,2,204.000003890991,2|2|0,0:0|0:0|0:0,0:0:0:0:
216,222,226430,5,0,0:0:0:0:
312,258,226602,2,0,L|411:279,1,102.000001945496,2|0,0:0|0:0,0:0:0:0:
456,186,226947,2,0,P|419:95|479:18,2,204.000003890991,2|2|0,0:0|0:0|0:0,0:0:0:0:
411,279,227809,5,0,0:0:0:0:
411,279,227982,2,0,L|312:258,1,102.000001945496,2|0,0:0|0:0,0:0:0:0:
236,326,228326,2,0,P|185:329|142:356,1,102.000001945496,2|0,0:0|0:0,0:0:0:0:
216,218,228671,2,0,L|196:14,1,204.000003890991,2|0,0:0|0:0,0:0:0:0:
100,50,229188,5,0,0:0:0:0:
179,113,229361,2,0,P|230:110|271:82,1,102.000001945496,2|0,0:0|0:0,0:0:0:0:
376,22,229706,2,0,B|340:118|412:126|376:222,2,204.000003890991,2|2|0,0:0|0:0|0:0,0:0:0:0:
464,74,230568,5,0,0:0:0:0:
288,170,230740,2,0,L|198:218,1,102.000001945496,2|0,0:0|0:0,0:0:0:0:
155,311,231085,2,0,P|96:234|131:142,2,204.000003890991,2|2|0,0:0|0:0|0:0,0:0:0:0:
198,218,231947,5,0,0:0:0:0:
268,292,232119,2,0,L|243:390,2,102.000001945496,2|0|2,0:0|0:0|0:0,0:0:0:0:
198,218,232637,1,0,3:0:0:0:
295,195,232809,2,0,P|345:204|394:189,1,102.000001945496,2|2,3:2|3:0,0:0:0:0:
492,216,233154,5,0,3:0:0:0:
428,76,233326,2,0,L|447:28,2,51.0000009727478,0|0|2,3:0|3:0|3:0,0:0:0:0:
392,172,233671,1,0,3:0:0:0:
320,96,233844,2,0,P|295:52|252:28,1,102.000001945496,0|0,3:0|3:0,0:0:0:0:
138,141,234188,2,0,P|162:184|205:208,1,102.000001945496,2|0,3:2|3:0,0:0:0:0:
229,118,234533,5,0,0:0:0:0:
92,80,256602,6,0,P|144:72|192:80,1,102.000001945496
252,163,256947,2,0,P|201:172|151:163,1,102.000001945496,2|0,0:0|0:0,0:0:0:0:
324,91,257292,2,0,P|414:71|444:159,1,204.000003890991,0|2,0:0|0:0,0:0:0:0:
380,132,257809,1,0,0:0:0:0:
252,164,257982,6,0,L|340:216,2,102.000001945496,0|0|2,0:0|0:0|0:0,0:0:0:0:
164,116,258499,1,0,0:0:0:0:
256,28,258671,2,0,B|256:88|256:88|280:172|280:172|280:228,1,204.000003890991,0|2,0:0|0:0,0:0:0:0:
272,332,259188,1,0,0:0:0:0:
168,328,259361,6,0,P|119:340|71:323,1,102.000001945496
376,300,259706,2,0,P|424:287|472:304,1,102.000001945496,2|0,0:0|0:0,0:0:0:0:
272,331,260051,2,0,P|292:235|381:195,1,204.000003890991,0|2,0:0|0:0,0:0:0:0:
376,300,260568,1,0,0:0:0:0:
168,328,260740,2,0,L|64:340,1,102.000001945496
92,240,261085,2,0,L|196:228,1,102.000001945496,2|0,0:0|0:0,0:0:0:0:
296,216,261430,1,0,0:0:0:0:
168,328,261602,1,0,0:0:0:0:
120,168,261775,1,2,0:0:0:0:
120,168,262119,6,0,L|220:148,1,102.000001945496
392,168,262464,2,0,L|292:148,1,102.000001945496,2|0,0:0|0:0,0:0:0:0:
212,276,262809,1,0,0:0:0:0:
148,356,262982,1,0,0:0:0:0:
364,356,263154,1,2,0:0:0:0:
300,276,263327,1,0,0:0:0:0:
364,356,263499,2,0,B|416:356|416:356|464:340,2,102.000001945496,0|0|2,0:0|0:0|0:0,0:0:0:0:
256,332,264016,1,0,0:0:0:0:
148,356,264188,2,0,B|96:356|96:356|48:340,2,102.000001945496,0|0|2,0:0|0:0|0:0,0:0:0:0:
112,260,264706,1,0,0:0:0:0:
111,259,264878,6,0,P|96:170|187:159,1,204.000003890991,0|2,0:0|0:0,0:0:0:0:
216,60,265395,1,0,0:0:0:0:
240,248,265568,2,0,B|208:228|208:228|188:228|188:228|148:208,2,102.000001945496,0|0|0,0:0|0:0|0:0,0:0:0:0:
216,60,266085,1,0,0:0:0:0:
316,80,266257,2,0,P|406:104|443:19,1,204.000003890991
376,40,266775,1,0,0:0:0:0:
376,40,266832,1,0,0:0:0:0:
376,40,266890,1,0,0:0:0:0:
376,40,266947,5,0,0:0:0:0:
376,40,267177,1,0,0:0:0:0:
376,40,267464,1,0,0:0:0:0:
376,39,267637,6,0,P|359:87|378:133,1,102.000001945496
464,188,267982,2,0,P|480:235|461:281,1,102.000001945496,2|0,0:0|0:0,0:0:0:0:
376,336,268326,1,0,0:0:0:0:
276,308,268499,1,0,0:0:0:0:
464,188,268671,1,2,0:0:0:0:
376,40,268844,1,0,0:0:0:0:
376,40,269016,2,0,B|368:64|344:80|344:80|352:108|344:129,1,102.000001945496
167,129,269361,2,0,B|160:108|168:80|168:80|144:64|136:40,1,102.000001945496,2|0,0:0|0:0,0:0:0:0:
256,80,269706,2,0,L|256:184,2,102.000001945496,0|0|2,0:0|0:0|0:0,0:0:0:0:
167,129,270223,1,0,0:0:0:0:
76,172,270395,6,0,L|160:229,1,102.000001945496
148,325,270740,2,0,L|64:268,1,102.000001945496,2|0,0:0|0:0,0:0:0:0:
236,276,271085,2,0,P|328:257|333:162,1,204.000003890991,0|2,0:0|0:0,0:0:0:0:
416,320,271602,1,0,0:0:0:0:
272,208,271775,1,0,0:0:0:0:
64,268,271947,1,0,0:0:0:0:
272,208,272119,2,0,L|200:136,2,102.000001945496,2|0|0,0:0|0:0|0:0,0:0:0:0:
64,268,272637,1,0,0:0:0:0:
56,168,272809,1,2,0:0:0:0:
104,179,272895,1,0,0:0:0:0:
150,157,272981,1,0,0:0:0:0:
173,113,273067,1,0,0:0:0:0:
164,64,273153,5,0,0:0:0:0:
256,16,273326,1,0,0:0:0:0:
348,64,273499,2,0,P|349:113|384:148,1,102.000001945496,2|0,0:0|0:0,0:0:0:0:
460,328,273844,2,0,P|459:279|424:244,1,102.000001945496,2|0,0:0|0:0,0:0:0:0:
364,324,274188,1,0,0:0:0:0:
364,324,274361,1,0,0:0:0:0:
424,244,274533,2,0,L|480:156,2,102.000001945496,0|0|2,0:0|0:0|0:0,0:0:0:0:
324,227,275051,2,0,B|316:236|300:240|284:236|276:228,2,51.0000009727478,0|0|0,0:0|0:0|0:0,0:0:0:0:
175,228,275395,1,0,0:0:0:0:
247,155,275568,1,0,0:0:0:0:
145,155,275740,1,0,0:0:0:0:
217,82,275913,5,0,0:0:0:0:
366,153,276085,1,0,0:0:0:0:
295,302,276257,1,2,0:0:0:0:
146,231,276430,1,0,0:0:0:0:
256,75,276602,5,0,0:0:0:0:
372,192,276774,1,0,0:0:0:0:
255,308,276946,1,2,0:0:0:0:
139,191,277119,1,0,0:0:0:0:
92,173,277205,1,0,0:0:0:0:
67,129,277291,5,0,0:0:0:0:
75,80,277377,1,0,0:0:0:0:
113,47,277463,1,0,0:0:0:0:
163,45,277550,1,0,0:0:0:0:
203,74,277636,1,2,0:0:0:0:
244,104,277723,1,0,0:0:0:0:
290,125,277809,1,0,0:0:0:0:
337,136,277895,1,0,0:0:0:0:
387,124,277981,5,2,0:0:0:0:
428,96,278068,1,0,0:0:0:0:
448,48,278154,1,0,0:0:0:0:
468,96,278240,1,0,0:0:0:0:
482,144,278326,1,4,0:0:0:0:
388,360,278671,6,0,B|364:340|364:340|364:348|364:348|348:336|348:336|332:316|305:311|305:311|291:277|256:264,1,180,4|0,0:0|0:0,0:0:0:0:
232,340,279016,2,2,P|177:274|212:196,1,180,2|0,0:0|0:0,0:0:0:0:
301,196,279361,5,2,0:0:0:0:
256,48,279533,1,4,0:0:0:0:
164,120,279706,2,2,L|62:106,1,102.000001945496,2|0,0:0|0:0,0:0:0:0:
212,196,280051,5,4,0:0:0:0:
363,172,280223,1,0,0:0:0:0:
332,285,280396,2,2,L|383:373,1,102.000001945496,2|0,0:0|0:0,0:0:0:0:
252,252,280740,6,0,B|274:204|328:199|328:199|345:185,1,120,0|4,0:0|0:0,0:0:0:0:
452,256,281085,1,2,0:0:0:0:
416,80,281257,1,0,0:0:0:0:
345,185,281430,6,0,B|343:162|343:162|332:168|332:168|283:163|250:109|268:60,1,180,4|0,0:0|0:0,0:0:0:0:
347,88,281775,2,2,B|316:140|268:140|268:140|276:148|276:148|272:144|272:144|228:188,1,180,2|4,0:0|0:0,0:0:0:0:
216,264,282119,5,0,0:0:0:0:
192,116,282292,1,4,0:0:0:0:
76,168,282464,2,2,B|60:120|60:120|76:72,1,102.000001945496,2|0,0:0|0:0,0:0:0:0:
76,168,282723,2,0,P|124:225|125:300,1,153.000002918243,4|4,0:0|0:0,0:0:0:0:
264,364,283154,6,2,B|218:341|218:341|196:296,1,102.000001945496,2|0,0:0|0:0,0:0:0:0:
272,288,283413,1,4,0:0:0:0:
272,288,283499,1,0,0:0:0:0:
420,324,283671,1,4,0:0:0:0:
348,188,283844,2,2,B|356:120|356:120|384:116|403:100,1,120,2|4,0:0|0:0,0:0:0:0:
412,52,284102,1,0,0:0:0:0:
376,20,284188,6,0,B|385:52|408:68|408:68|475:170,1,180,4|0,0:0|0:0,0:0:0:0:
416,188,284533,2,2,B|402:218|409:245|409:245|392:312|392:312|359:271,1,180,2|0,0:0|0:0,0:0:0:0:
356,144,284878,2,0,B|366:130|366:130|357:127|357:127|311:117|271:90,1,120,0|4,0:0|0:0,0:0:0:0:
160,92,285223,6,2,B|164:32|104:20|104:20|92:60|59:83,1,180,2|0,0:0|0:0,0:0:0:0:
24,48,285568,1,4,0:0:0:0:
60,196,285740,1,0,0:0:0:0:
160,92,285913,2,2,L|261:101,1,102.000001945496,2|0,0:0|0:0,0:0:0:0:
409,201,286257,2,0,L|319:193,1,90.0000034332277,0|4,0:0|0:0,0:0:0:0:
200,212,286602,6,2,B|224:268|224:268|192:382,1,180,2|0,0:0|0:0,0:0:0:0:
239,364,286947,6,0,P|280:345|322:359,1,90.0000034332277,4|2,0:0|0:0,0:0:0:0:
476,288,287637,1,0,0:0:0:0:
428,128,287809,1,4,0:0:0:0:
348,248,287982,2,2,L|262:192,1,102.000001945496,2|0,0:0|0:0,0:0:0:0:
176,40,288326,5,4,0:0:0:0:
67,177,288499,1,0,0:0:0:0:
236,128,288671,1,2,0:0:0:0:
71,69,288844,1,0,0:0:0:0:
168,213,289016,2,0,P|191:258|178:306,1,102.000001945496,4|8,0:0|0:0,0:0:0:0:
136,336,289275,1,8,0:0:0:0:
136,336,289361,2,0,B|179:327|179:327|231:352,1,102.000001945496,10|0,0:0|0:0,0:0:0:0:
236,128,289706,6,0,P|305:151|366:109,1,153.000002918243,4|0,0:0|0:0,0:0:0:0:
360,60,290051,2,0,B|368:112|368:112|396:152|396:152|404:208,1,153.000002918243,2|0,0:0|0:0,0:0:0:0:
168,212,290395,2,0,P|205:256|263:266,1,120,2|4,0:0|0:0,0:0:0:0:
384,288,290740,1,2,0:0:0:0:
136,336,290913,1,0,0:0:0:0:
168,212,291085,6,0,L|156:120,1,90.0000034332277,4|0,0:0|0:0,0:0:0:0:
292,264,291430,1,2,0:0:0:0:
136,336,291602,1,0,0:0:0:0:
76,148,291775,2,0,L|76:120,2,22.5000008583069,4|0|4,0:0|0:0|0:0,0:0:0:0:
160,48,292119,2,0,L|160:96,1,45.0000017166138,2|2,0:0|0:0,0:0:0:0:
75,148,292464,6,0,P|145:178|163:251,1,157.500001502037,4|0,0:0|0:0,0:0:0:0:
348,251,292809,2,0,P|366:178|436:148,1,157.500001502037,2|4,0:0|0:0,0:0:0:0:
460,156,293154,2,0,B|464:128|440:104|408:108|408:108|372:100,1,120,2|4,0:0|0:0,0:0:0:0:
256,32,293499,1,2,0:0:0:0:
212,160,293671,2,0,L|200:204,2,45.0000017166138,0|4|0,0:0|0:0|0:0,0:0:0:0:
256,32,294016,5,4,0:0:0:0:
347,252,294188,2,0,B|312:299|312:299|256:324,1,120,2|0,0:0|0:0,0:0:0:0:
228,332,294447,1,0,0:0:0:0:
196,335,294533,2,0,B|152:340|152:340|136:320|104:300|70:313,1,135.000005149841,4|0,0:0|0:0,0:0:0:0:
104,228,294878,2,0,B|137:214|169:234|185:254|185:254|229:250,1,135.000005149841,2|0,0:0|0:0,0:0:0:0:
346,252,295223,6,0,P|405:222|420:158,1,135.000005149841,4|0,0:0|0:0,0:0:0:0:
468,80,295568,1,2,0:0:0:0:
288,100,295740,1,0,0:0:0:0:
172,240,295913,2,0,L|188:152,1,90.0000034332277,4|0,0:0|0:0,0:0:0:0:
288,100,296257,2,0,L|268:220,1,120,6|0,0:0|0:0,0:0:0:0:
328,308,296602,6,0,P|351:319|377:320,2,52.500000500679,4|0|0,0:0|0:0|0:0,0:0:0:0:
223,295,296947,2,0,P|148:286|92:338,1,157.500001502037,6|0,0:0|0:0,0:0:0:0:
48,364,297292,2,0,L|72:256,1,105.000001001358,4|0,0:0|0:0,0:0:0:0:
208,40,297637,2,0,L|180:196,1,157.500001502037,6|0,0:0|0:0,0:0:0:0:
164,264,297982,1,4,0:0:0:0:
164,264,298154,1,4,0:0:0:0:
368,304,298326,1,6,0:0:0:0:
308,100,298499,1,4,0:0:0:0:
164,314,298671,1,4,0:0:0:0:
164,314,298843,1,4,0:0:0:0:
416,284,299015,1,6,0:0:0:0:
269,70,299188,1,4,0:0:0:0:
168,123,299361,2,0,P|94:141|44:85,1,157.500001502037,8|0,0:0|0:0,0:0:0:0:
60,56,299706,2,0,L|12:152,1,105.000001001358,2|0,0:0|0:0,0:0:0:0:
116,224,300051,1,0,0:0:0:0:
256,276,300223,2,0,L|256:332,2,52.500000500679,0|8|10,0:0|0:0|0:0,0:0:0:0:
396,224,300568,1,8,0:0:0:0:
328,128,300740,6,0,B|312:96|312:96|304:104|304:104|283:67|300:28|336:14,1,157.500006008148,4|0,0:0|0:0,0:0:0:0:
360,76,301430,6,0,B|390:114|390:114|396:166|359:197|310:189|310:189|281:203,1,210,2|0,0:0|0:0,0:0:0:0:
236,180,302119,6,0,B|219:204|237:259|291:254|291:254|277:318,1,180.000006866455,4|2,0:0|0:0,0:0:0:0:
188,380,302637,1,0,0:0:0:0:
112,304,302809,2,0,P|67:299|24:311,1,90.0000034332277,2|0,0:0|0:0,0:0:0:0:
76,172,303154,2,0,P|102:135|113:92,1,90.0000034332277,2|0,0:0|0:0,0:0:0:0:
207,207,303499,6,0,P|225:247|257:279,2,90.0000034332277,4|0|2,0:0|0:0|0:0,0:0:0:0:
260,112,304016,1,0,0:0:0:0:
259,113,304188,2,0,P|304:65|304:0,1,135.000005149841,2|0,0:0|0:0,0:0:0:0:
368,32,304533,6,0,B|356:76|288:94|246:49|246:49|229:46|220:32,1,180,2|0,0:0|0:0,0:0:0:0:
148,16,304878,6,0,B|145:42|152:59|152:59|136:80|136:80|144:88|144:88|100:115|111:173,1,180,4|0,0:0|0:0,0:0:0:0:
56,224,305223,1,2,0:0:0:0:
192,344,305395,1,0,0:0:0:0:
344,160,305568,2,0,L|216:204,1,135.000005149841,2|0,0:0|0:0,0:0:0:0:
199,151,305913,2,0,P|134:113|132:188,1,180,2|0,0:0|0:0,0:0:0:0:
124,248,306257,6,0,B|180:280|180:280|196:304|196:304|252:336,1,157.500006008148,4|0,0:0|0:0,0:0:0:0:
283,351,306947,6,0,P|325:263|420:283,1,210,2|0,0:0|0:0,0:0:0:0:
448,332,307637,6,0,B|424:204|424:204|440:157,1,180,4|2,0:0|0:0,0:0:0:0:
444,48,308154,1,0,0:0:0:0:
347,96,308326,2,0,P|298:112|248:100,2,105.000001001358,2|0|2,0:0|0:0|0:0,0:0:0:0:
444,48,308844,1,0,0:0:0:0:
368,200,309016,6,0,L|361:304,1,105.000001001358,4|0,0:0|0:0,0:0:0:0:
236,312,309361,2,0,P|190:336|168:383,1,105.000001001358,2|0,0:0|0:0,0:0:0:0:
252,192,309706,2,0,B|220:124|220:124|209:42,1,157.500001502037,2|0,0:0|0:0,0:0:0:0:
152,16,310051,6,0,B|108:112|60:16|16:112,1,180,2|0,0:0|0:0,0:0:0:0:
48,152,310395,6,0,B|86:177|132:152|132:152|147:214,1,153.000002918243,4|0,0:0|0:0,0:0:0:0:
124,272,310740,2,0,L|224:292,1,102.000001945496,2|0,0:0|0:0,0:0:0:0:
327,367,311085,1,2,0:0:0:0:
416,284,311258,1,0,0:0:0:0:
220,304,311429,1,2,0:0:0:0:
367,172,311602,1,0,0:0:0:0:
249,173,311775,6,0,L|220:304,1,135.000005149841,4|0,0:0|0:0,0:0:0:0:
159,223,312464,2,0,P|166:113|270:75,1,233.999989288331
343,128,313154,2,0,P|362:81|349:32,1,102.000001945496,4|0,0:0|0:0,0:0:0:0:
232,92,313499,2,0,P|213:138|226:187,1,102.000001945496
356,240,313844,2,0,L|464:252,2,102.000001945496,2|0|0,0:0|0:0|0:0,0:0:0:0:
256,328,314361,1,0,0:0:0:0:
152,248,314533,5,4,0:0:0:0:
57,217,314706,1,0,0:0:0:0:
210,167,314878,1,0,0:0:0:0:
57,117,315051,1,0,0:0:0:0:
152,87,315223,1,2,0:0:0:0:
396,160,315568,2,0,P|395:77|313:66,1,180
292,136,315913,6,0,P|243:93|251:29,1,135.000005149841,4|0,0:0|0:0,0:0:0:0:
152,87,316257,2,0,L|132:174,1,90.0000034332277
188,316,316602,2,0,B|196:284|196:284|184:252|220:264|208:222|208:222|216:187,1,135.000005149841,2|0,0:0|0:0,0:0:0:0:
108,240,316947,2,0,P|70:217|60:174,1,90.0000034332277
151,148,317292,6,0,P|233:120|152:87,1,225.000008583069,4|0,0:0|0:0,0:0:0:0:
184,120,317982,2,0,B|236:120|236:120|272:108|272:108|312:108|312:108|344:136|376:140|424:128,1,225.000008583069,2|0,0:0|0:0,0:0:0:0:
368,240,318671,5,4,0:0:0:0:
368,340,318844,1,0,0:0:0:0:
283,290,319016,1,0,0:0:0:0:
99,170,319188,1,0,0:0:0:0:
99,70,319361,1,2,0:0:0:0:
184,120,319533,1,0,0:0:0:0:
368,340,319706,1,0,0:0:0:0:
273,309,319878,1,0,0:0:0:0:
368,179,320051,5,4,0:0:0:0:
273,210,320223,1,0,0:0:0:0:
426,259,320395,1,0,0:0:0:0:
192,264,320568,1,0,0:0:0:0:
292,112,320740,1,2,0:0:0:0:
292,112,321085,6,0,B|240:152|192:120|192:120|200:72|156:44,1,180
132,24,321430,6,0,B|124:48|124:72|124:72|120:92|104:108|104:108|104:136|96:156,1,135.000005149841
92,204,321775,1,0,0:0:0:0:
192,264,321947,1,0,0:0:0:0:
84,316,322119,5,0,0:0:0:0:
192,264,322292,1,0,0:0:0:0:
236,270,322378,1,0,0:0:0:0:
279,258,322464,1,0,0:0:0:0:
309,226,322550,1,0,0:0:0:0:
349,205,322636,1,0,0:0:0:0:
393,205,322723,1,0,0:0:0:0:
435,221,322809,5,0,0:0:0:0:
232,284,331947,6,0,P|260:336|320:364,1,90.0000034332277,0|0,3:0|0:0,0:0:0:0:
336,260,332292,1,2,3:0:0:0:
408,116,332464,2,0,L|312:140,1,90.0000034332277,0|0,3:0|0:0,0:0:0:0:
244,216,332809,1,2,3:0:0:0:
136,116,332982,2,0,P|128:72|64:32,1,90.0000034332277,0|2,3:0|0:0,0:0:0:0:
76,180,333326,1,0,3:0:0:0:
115,201,333412,1,8,3:0:0:0:
159,201,333498,1,8,3:0:0:0:
198,179,333584,1,8,3:0:0:0:
220,228,333671,1,8,3:0:0:0:
236,360,333844,6,0,P|284:340|332:348,1,102.000001945496,0|0,3:0|0:0,0:0:0:0:
512,308,334188,2,0,L|404:288,1,102.000001945496,2|0,0:0|0:0,0:0:0:0:
412,180,334533,2,0,P|360:120|404:4,2,204.000003890991,2|2|0,0:0|0:0|3:0,0:0:0:0:
332,272,335395,5,0,0:0:0:0:
252,180,335568,2,0,L|108:204,1,102.000001945496,2|0,0:0|0:0,0:0:0:0:
96,88,335913,2,0,P|148:136|104:292,2,204.000003890991,2|2|0,0:0|0:0|3:0,0:0:0:0:
36,196,336775,5,0,0:0:0:0:
129,316,336947,1,2,0:0:0:0:
187,174,337119,1,0,0:0:0:0:
280,294,337292,2,0,L|88:216,2,204.000003890991,2|2|0,0:0|0:0|3:0,0:0:0:0:
376,216,338154,5,0,0:0:0:0:
376,216,338326,2,0,L|468:168,1,102.000001945496,2|0,0:0|0:0,0:0:0:0:
448,292,338671,1,2,0:0:0:0:
324,284,338844,1,0,0:0:0:0:
276,172,339016,2,0,B|200:184|200:184|124:212|68:160,1,204.000003890991,2|0,0:0|3:0,0:0:0:0:
152,76,339533,5,0,0:0:0:0:
40,124,339706,2,0,L|52:272,1,102.000001945496,2|0,0:0|0:0,0:0:0:0:
64,348,340051,2,0,B|123:342|156:288|156:288|272:296,2,204.000003890991,2|2|0,0:0|0:0|3:0,0:0:0:0:
104,232,340913,5,0,0:0:0:0:
228,236,341085,2,0,L|264:356,1,102.000001945496,2|0,0:0|0:0,0:0:0:0:
372,376,341430,2,0,P|416:332|396:184,2,204.000003890991,2|2|0,0:0|0:0|3:0,0:0:0:0:
308,270,342292,5,0,0:0:0:0:
296,148,342464,2,0,L|384:84,1,102.000001945496,2|0,0:0|0:0,0:0:0:0:
272,28,342809,1,2,0:0:0:0:
184,168,342982,1,0,3:0:0:0:
104,116,343154,1,2,3:2:0:0:
196,264,343326,1,2,3:0:0:0:
328,308,343499,6,0,L|428:352,1,102.000001945496,0|0,3:0|0:0,0:0:0:0:
512,176,343844,2,0,L|412:220,1,102.000001945496,2|0,3:0|0:0,0:0:0:0:
284,102,344188,1,2,0:0:0:0:
329,194,344361,1,2,3:0:0:0:
165,215,344533,1,2,3:0:0:0:
183,113,344706,1,2,3:0:0:0:
256,260,344878,6,0,L|300:356,2,102.000001945496,0|0|2,0:0|0:0|0:0,0:0:0:0:
136,280,345395,1,0,0:0:0:0:
216,188,345568,2,0,P|252:128|232:88,1,102.000001945496,2|0,0:0|0:0,0:0:0:0:
140,32,345913,2,0,L|248:24,1,102.000001945496,2|0,0:0|0:0,0:0:0:0:
343,88,346257,6,0,P|384:173|476:150,1,204.000003890991,0|2,0:0|0:0,0:0:0:0:
416,108,346775,1,0,0:0:0:0:
416,108,346947,2,0,L|368:200,1,102.000001945496,2|0,0:0|0:0,0:0:0:0:
408,320,347292,2,0,L|456:230,1,102.000001945496,2|0,0:0|0:0,0:0:0:0:
332,244,347637,5,0,0:0:0:0:
232,312,347809,1,0,0:0:0:0:
148,220,347982,2,0,P|92:204|40:216,1,102.000001945496,2|0,0:0|0:0,0:0:0:0:
232,311,348326,2,0,P|277:253|232:128,1,204.000003890991,2|2,0:0|0:0,0:0:0:0:
148,220,348844,1,0,0:0:0:0:
232,312,349016,2,0,B|280:312|280:312|308:284|352:284|380:312|380:312|428:312,1,204.000003890991,0|2,0:0|0:0,0:0:0:0:
331,362,349533,1,0,0:0:0:0:
331,362,349706,2,0,B|328:344|328:344|336:320|336:320|316:292|340:300|324:268|324:268|336:240|336:240|328:208|328:208|336:192|336:192|332:160,2,204.000003890991,2|2|0,0:0|0:0|0:0,0:0:0:0:
248,300,350568,5,0,0:0:0:0:
152,336,350740,2,0,L|40:312,1,102.000001945496,2|0,0:0|0:0,0:0:0:0:
84,216,351085,2,0,P|76:160|96:116,1,102.000001945496,2|0,0:0|0:0,0:0:0:0:
188,76,351430,2,0,P|196:132|176:176,1,102.000001945496,2|0,0:0|0:0,0:0:0:0:
236,256,351775,2,0,B|308:240|356:308|356:308|364:268|404:252,1,204.000003890991,0|2,0:0|0:0,0:0:0:0:
272,328,352292,1,0,0:0:0:0:
272,328,352464,2,0,B|312:232|312:232|296:188|336:136,1,204.000003890991,2|2,0:0|0:0,0:0:0:0:
232,140,352982,1,0,0:0:0:0:
212,240,353154,6,0,P|132:176|152:80,1,204.000003890991,0|2,0:0|0:0,0:0:0:0:
232,140,353671,1,0,0:0:0:0:
212,260,353844,1,2,0:0:0:0:
312,216,354016,1,4,0:0:0:0:
296,320,354188,1,8,0:0:0:0:
364,292,354361,6,0,L|408:308,1,25.5000004863739,8|8,0:0|0:0,0:0:0:0:
384,276,354447,2,0,L|428:292,2,25.5000004863739,8|0|2,0:0|0:0|0:0,0:0:0:0:
287,309,354706,1,0,0:0:0:0:
288,42,354878,1,0,0:0:0:0:
154,175,355051,1,8,0:0:0:0:
382,81,355223,1,8,0:0:0:0:
193,270,355395,1,0,0:0:0:0:
193,81,355568,1,0,0:0:0:0:
421,176,355741,1,8,0:0:0:0:
288,176,355913,6,0,P|244:136|120:160,1,180.000006866455,4|2,0:0|0:0,0:0:0:0:
48,120,356947,2,0,L|60:220,1,90.0000034332277
288,352,358326,5,2,0:0:0:0:
304,336,358499,1,0,0:0:0:0:
320,320,358671,2,0,P|352:288|448:312,1,135.000005149841
456,336,359361,2,0,B|444:270|444:270|464:192,1,135.000005149841,2|0,0:0|0:0,0:0:0:0:
496,176,360051,1,0,0:0:0:0:
392,92,360568,2,0,L|400:56,2,22.5000008583069,0|0|2,0:0|0:0|0:0,0:0:0:0:
328,152,361085,1,0,0:0:0:0:
328,152,361430,6,0,P|284:120|236:120,1,90.0000034332277
208,136,361947,1,0,0:0:0:0:
208,136,362119,2,0,P|184:96|188:45,1,90.0000034332277,2|0,0:0|0:0,0:0:0:0:
276,72,362809,2,0,P|272:204|140:200,1,270.000010299683,0|2,0:0|0:0,0:0:0:0:
125,246,364016,1,0,0:0:0:0:
82,288,364188,6,0,L|199:261,1,120
338,320,364706,1,2,0:0:0:0:
66,272,364878,6,0,L|211:238,1,150
370,304,365396,1,2,0:0:0:0:
50,256,365568,6,0,L|225:215,1,180.000006866455
402,288,366086,1,2,0:0:0:0:
34,240,366257,6,0,L|268:185,1,240,0|2,0:0|0:0,0:0:0:0:
256,192,366947,12,0,379274,0:0:0:0:
