osu file format v14

[General]
AudioFilename: tokyo.mp3
AudioLeadIn: 0
PreviewTime: 56150
Countdown: 0
SampleSet: Soft
StackLeniency: 0.3
Mode: 0
LetterboxInBreaks: 0
WidescreenStoryboard: 1

[Editor]
Bookmarks: 4661,36359,56736,74849,83906,92962
DistanceSpacing: 1
BeatDivisor: 4
GridSize: 32
TimelineZoom: 1

[Metadata]
Title:HALF
TitleUnicode:HALF
Artist:Ziyoou-vachi
ArtistUnicode:女王蜂
Creator:zhu
Version:Peter's Advanced
Source:東京喰種トーキョーグール:re
Tags:コシュニエ sui ishida tokyo ghoul re ending size theme haise sasaki kaneki ken -_frontier_- shockolatte peter hailie ayyri eiri-
BeatmapID:1613338
BeatmapSetID:767347

[Difficulty]
HPDrainRate:4
CircleSize:3.3
OverallDifficulty:5.5
ApproachRate:5.5
SliderMultiplier:1.7
SliderTickRate:1

[Events]
//Background and Video events
0,0,"bg.jpg",0,0
Video,3600,"video.avi"
//Break Periods
//Storyboard Layer 0 (Background)
//Storyboard Layer 1 (Fail)
//Storyboard Layer 2 (Pass)
//Storyboard Layer 3 (Foreground)
//Storyboard Sound Samples

[TimingPoints]
4641,566.037735849057,4,2,0,40,1,0
6339,-100,4,2,0,5,0,0
6905,-100,4,2,0,60,0,0
18225,-100,4,2,0,60,0,0
56716,-90.9090909090909,4,2,0,70,0,1
64641,-90.9090909090909,4,2,0,50,0,1
65773,-90.9090909090909,4,2,0,70,0,1
74829,-100,4,2,0,60,0,0
83886,-100,4,2,0,60,0,0
92801,-100,4,2,0,5,0,0

[Colours]
Combo1 : 192,192,192
Combo2 : 128,64,64
SliderBorder : 255,255,255
SliderTrackOverride : 0,0,0

[HitObjects]
256,192,4641,12,0,6339,0:0:0:0:
53,47,6905,6,0,L|65:237,1,170,2|4,0:0|0:3,0:0:0:0:
209,290,8037,2,0,L|222:101,1,170,2|4,0:0|0:3,0:0:0:0:
369,49,9169,6,0,L|375:143,1,85,4|2,0:0|0:0,0:0:0:0:
324,204,9735,1,4,0:3:0:0:
324,204,10018,2,0,L|310:386,1,170,2|2,0:0|0:0,0:0:0:0:
235,341,10867,2,0,P|194:353|150:345,1,85,4|2,0:3|0:0,0:0:0:0:
77,314,11433,5,0,0:0:0:0:
126,248,11716,1,2,0:0:0:0:
82,178,11999,1,4,0:3:0:0:
126,109,12282,1,2,0:0:0:0:
126,109,12848,5,2,0:0:0:0:
203,135,13131,2,0,L|307:128,1,85,4|0,0:3|0:0,0:0:0:0:
357,86,13697,6,0,P|367:136|354:182,1,85,2|0,0:0|0:0,0:0:0:0:
290,218,14263,1,4,0:3:0:0:
290,218,14546,2,0,B|209:190|209:250|106:219,1,170,2|2,0:0|0:0,0:0:0:0:
164,149,15395,2,0,P|225:132|265:130,1,85,4|0,0:3|0:0,0:0:0:0:
330,141,15961,5,2,0:0:0:0:
389,85,16244,1,2,0:0:0:0:
409,163,16527,1,4,0:3:0:0:
429,242,16810,1,2,0:0:0:0:
429,242,17376,5,2,0:0:0:0:
374,302,17659,2,0,L|261:298,1,85,4|4,0:3|0:3,0:0:0:0:
161,186,18508,6,0,P|165:122|150:73,1,85,2|4,0:0|0:3,0:0:0:0:
190,22,19074,1,0,0:0:0:0:
261,67,19357,2,0,L|375:63,1,85,0|2,0:0|0:0,0:0:0:0:
394,133,19924,2,0,L|508:137,1,85,4|2,0:3|0:0,0:0:0:0:
507,215,20490,5,0,0:0:0:0:
466,289,20773,2,0,P|476:324|471:382,2,85,2|4|2,0:0|0:3|0:0,0:0:0:0:
304,234,21905,2,0,P|294:199|299:141,2,85,2|4|2,0:0|0:3|0:0,0:0:0:0:
390,87,23037,5,2,0:0:0:0:
310,57,23320,2,0,P|264:48|204:63,1,85,4|0,0:3|0:0,0:0:0:0:
162,109,23886,1,0,0:0:0:0:
214,175,24169,1,2,0:0:0:0:
160,241,24452,2,0,L|158:353,1,85,4|0,0:3|0:0,0:0:0:0:
320,378,25301,5,2,0:0:0:0:
388,328,25584,2,0,P|417:319|482:329,1,85,4|0,0:3|0:0,0:0:0:0:
508,248,26150,2,0,P|499:219|509:154,1,85,0|2,0:0|0:0,0:0:0:0:
471,86,26716,1,4,0:3:0:0:
414,153,26999,1,2,0:0:0:0:
414,153,27565,5,2,0:0:0:0:
346,107,27848,2,0,L|250:113,1,85,4|0,0:3|0:0,0:0:0:0:
192,157,28414,2,0,L|96:151,1,85,0|2,0:0|0:0,0:0:0:0:
43,202,28980,1,4,0:3:0:0:
98,262,29263,1,0,0:0:0:0:
61,340,29546,6,0,B|120:341|120:341|167:315|167:315|231:316,1,170,0|4,0:0|0:3,0:0:0:0:
305,318,30395,1,2,0:0:0:0:
305,318,30961,5,2,0:0:0:0:
369,268,31244,2,0,L|359:157,1,85,4|2,0:3|0:0,0:0:0:0:
270,47,32093,5,2,0:0:0:0:
206,97,32376,2,0,P|168:84|105:93,1,85,4|0,0:3|0:0,0:0:0:0:
54,129,32942,2,0,L|72:241,1,85,2|2,0:0|0:0,0:0:0:0:
126,268,33508,2,0,L|108:380,1,85,4|0,0:3|0:0,0:0:0:0:
112,351,34357,5,2,0:0:0:0:
193,340,34641,2,0,P|236:333|286:341,1,85,4|0,0:3|0:0,0:0:0:0:
355,358,35207,2,0,P|398:365|448:357,1,85,0|2,0:0|0:0,0:0:0:0:
399,288,35773,1,4,0:3:0:0:
456,229,36056,1,2,0:0:0:0:
394,175,36339,6,0,L|410:-1,1,170,0|4,0:0|0:3,0:0:0:0:
327,26,37188,1,0,0:0:0:0:
327,26,37754,5,2,0:0:0:0:
250,0,38037,1,4,0:3:0:0:
194,56,38320,1,2,0:0:0:0:
194,56,38886,5,2,0:0:0:0:
235,126,39169,2,0,L|222:243,1,85,4|0,0:3|0:0,0:0:0:0:
289,261,39735,2,0,L|301:368,1,85,0|2,0:0|0:0,0:0:0:0:
379,319,40301,1,4,0:3:0:0:
430,171,40867,6,0,P|363:160|331:169,1,85,2|0,0:0|0:0,0:0:0:0:
263,180,41433,2,0,P|196:191|164:182,1,85,4|0,0:3|0:0,0:0:0:0:
180,187,42282,5,2,0:0:0:0:
129,122,42565,2,0,L|137:21,1,85,4|2,0:3|0:0,0:0:0:0:
220,27,43131,6,0,P|279:55|397:32,1,170,0|4,0:0|0:3,0:0:0:0:
461,23,43980,2,0,L|454:210,1,170,0|2,0:0|0:0,0:0:0:0:
449,274,44829,1,4,0:3:0:0:
380,223,45112,1,2,0:0:0:0:
380,223,45678,5,2,0:0:0:0:
327,285,45961,2,0,L|223:276,1,85,4|2,0:3|0:0,0:0:0:0:
192,342,46527,2,0,L|88:351,1,85,0|2,0:0|0:0,0:0:0:0:
44,297,47093,1,4,0:3:0:0:
96,234,47376,1,2,0:0:0:0:
96,234,47942,5,2,0:0:0:0:
46,169,48225,2,0,P|38:105|56:60,1,85,4|2,0:3|0:0,0:0:0:0:
95,23,48791,2,0,P|159:15|204:33,1,85,0|2,0:0|0:0,0:0:0:0:
245,65,49357,1,4,0:3:0:0:
322,37,49641,1,2,0:0:0:0:
381,92,49924,6,0,L|375:202,1,85,0|2,0:0|0:0,0:0:0:0:
343,251,50490,1,4,0:3:0:0:
275,205,50773,1,2,0:0:0:0:
275,205,51339,5,2,0:0:0:0:
212,257,51622,2,0,P|164:265|111:251,1,85,4|0,0:3|0:0,0:0:0:0:
128,258,52471,5,2,0:0:0:0:
169,187,52754,2,0,L|159:87,1,85,4|0,0:3|0:0,0:0:0:0:
160,102,53603,5,2,0:0:0:0:
240,115,53886,1,4,0:3:0:0:
394,61,54452,6,0,L|406:135,3,42.5,4|4|4|4,0:3|0:3|0:3|0:3,0:0:0:0:
427,133,55018,2,0,L|415:207,3,42.5,4|4|4|4,0:3|0:3|0:3|0:3,0:0:0:0:
405,213,55584,6,0,L|417:287,3,42.5,4|4|4|4,0:3|0:3|0:3|0:3,0:0:0:0:
441,282,56150,2,0,L|429:356,3,42.5,4|4|4|4,0:3|0:3|0:3|0:3,0:0:0:0:
400,353,56716,6,0,P|332:341|274:355,1,93.5000028533936,4|2,0:0|0:0,0:0:0:0:
221,321,57282,2,0,P|153:333|95:319,1,93.5000028533936,4|2,0:3|0:0,0:0:0:0:
43,304,57848,1,0,0:0:0:0:
92,229,58131,1,2,0:0:0:0:
41,154,58414,2,0,L|48:43,1,93.5000028533936,4|0,0:3|0:0,0:0:0:0:
130,26,58980,6,0,B|224:2|221:73|330:28,1,187.000005706787,2|4,0:0|0:3,0:0:0:0:
398,8,59829,2,0,P|453:4|499:19,1,93.5000028533936,2|0,0:0|0:0,0:0:0:0:
439,89,60395,1,2,0:0:0:0:
477,170,60678,2,0,L|473:297,1,93.5000028533936,4|2,0:3|0:0,0:0:0:0:
416,332,61244,6,0,P|356:314|292:328,1,93.5000028533936,2|2,0:0|0:0,0:0:0:0:
243,352,61810,1,4,0:3:0:0:
168,302,62093,1,2,0:0:0:0:
90,347,62376,2,0,P|49:267|83:182,1,187.000005706787,2|4,0:0|0:3,0:0:0:0:
151,123,63225,1,2,0:0:0:0:
205,194,63508,6,0,L|322:187,1,93.5000028533936,2|0,0:0|0:0,0:0:0:0:
373,139,64074,2,0,L|490:146,1,93.5000028533936,4|0,0:3|0:0,0:0:0:0:
240,341,65773,6,0,L|116:335,1,93.5000028533936,4|0,0:0|0:0,0:0:0:0:
125,248,66339,2,0,L|249:242,1,93.5000028533936,4|0,0:3|0:0,0:0:0:0:
291,191,66905,1,2,0:0:0:0:
233,122,67188,1,2,0:0:0:0:
304,68,67471,2,0,P|257:37|188:43,1,93.5000028533936,4|0,0:3|0:0,0:0:0:0:
142,76,68037,6,0,L|158:270,1,187.000005706787,2|4,0:0|0:3,0:0:0:0:
242,235,68886,2,0,P|296:249|352:230,1,93.5000028533936,2|0,0:0|0:0,0:0:0:0:
410,198,69452,1,2,0:0:0:0:
482,250,69735,2,0,L|471:365,1,93.5000028533936,4|2,0:3|0:0,0:0:0:0:
384,326,70301,6,0,P|325:340|285:328,1,93.5000028533936,2|0,0:0|0:0,0:0:0:0:
211,298,70867,1,4,0:3:0:0:
140,353,71150,1,2,0:0:0:0:
65,303,71433,2,0,B|97:212|36:212|82:93,1,187.000005706787,2|4,0:0|0:3,0:0:0:0:
140,59,72282,1,2,0:0:0:0:
210,114,72565,6,0,L|319:106,1,93.5000028533936,2|2,0:0|0:0,0:0:0:0:
372,50,73131,2,0,L|481:58,1,93.5000028533936,4|2,0:3|0:0,0:0:0:0:
509,135,73697,2,0,P|471:170|490:306,1,187.000005706787,2|4,0:0|0:3,0:0:0:0:
479,295,74829,5,4,0:0:0:0:
411,341,75112,2,0,L|308:329,1,85,2|4,0:0|0:3,0:0:0:0:
266,275,75678,1,2,0:0:0:0:
199,322,75961,2,0,P|185:264|216:209,1,85,2|2,0:0|0:0,0:0:0:0:
256,191,76527,2,0,P|270:133|239:78,1,85,4|2,0:3|0:0,0:0:0:0:
191,70,77093,6,0,P|243:30|344:94,1,170,2|4,0:0|0:3,0:0:0:0:
377,133,77942,2,0,L|369:252,1,85,2|0,0:0|0:0,0:0:0:0:
308,269,78508,1,2,0:0:0:0:
235,232,78791,2,0,P|194:223|124:241,1,85,4|2,0:3|0:0,0:0:0:0:
74,254,79357,5,2,0:0:0:0:
21,191,79641,2,0,L|36:74,1,85,2|4,0:0|0:3,0:0:0:0:
85,45,80207,1,2,0:0:0:0:
151,91,80490,2,0,P|235:116|323:73,1,170,2|4,0:0|0:3,0:0:0:0:
371,35,81339,1,2,0:0:0:0:
424,96,81622,6,0,L|417:203,1,85,0|2,0:0|0:0,0:0:0:0:
369,245,82188,2,0,L|376:352,1,85,4|0,0:3|0:0,0:0:0:0:
374,329,83886,6,0,P|325:317|259:323,1,85,4|0,0:0|0:0,0:0:0:0:
212,341,84452,1,4,0:3:0:0:
143,296,84735,2,0,B|144:236|144:236|117:185|117:185|120:96,1,170,2|2,0:0|0:0,0:0:0:0:
181,81,85584,2,0,P|220:95|273:88,1,85,4|0,0:3|0:0,0:0:0:0:
339,64,86150,5,2,0:0:0:0:
414,94,86433,1,2,0:0:0:0:
430,173,86716,1,4,0:3:0:0:
389,243,86999,1,2,0:0:0:0:
389,243,87565,5,2,0:0:0:0:
313,212,87848,2,0,L|203:219,1,85,4|4,0:3|0:3,0:0:0:0:
256,192,88414,12,0,93084,0:0:0:0:
