osu file format v14

[General]
AudioFilename: tokyo.mp3
AudioLeadIn: 0
PreviewTime: 56150
Countdown: 0
SampleSet: Soft
StackLeniency: 0.7
Mode: 0
LetterboxInBreaks: 0
WidescreenStoryboard: 0

[Editor]
DistanceSpacing: 1
BeatDivisor: 4
GridSize: 32
TimelineZoom: 1

[Metadata]
Title:HALF
TitleUnicode:HALF
Artist:Ziyoou-vachi
ArtistUnicode:女王蜂
Creator:zhu
Version:Hard
Source:東京喰種トーキョーグール:re
Tags:コシュニエ sui ishida tokyo ghoul re ending size theme haise sasaki kaneki ken -_frontier_- shockolatte peter hailie ayyri eiri-
BeatmapID:1612948
BeatmapSetID:767347

[Difficulty]
HPDrainRate:5
CircleSize:4
OverallDifficulty:6
ApproachRate:6
SliderMultiplier:1.8
SliderTickRate:1

[Events]
//Background and Video events
0,0,"bg.jpg",0,0
Video,3600,"video.avi"
//Break Periods
//Storyboard Layer 0 (Background)
//Storyboard Layer 1 (Fail)
//Storyboard Layer 2 (Pass)
//Storyboard Layer 3 (Foreground)
//Storyboard Sound Samples

[TimingPoints]
4641,566.037735849057,4,2,0,40,1,0
6480,-100,4,2,0,5,0,0
6905,-100,4,2,0,60,0,0
18225,-90.9090909090909,4,2,0,60,0,0
56716,-80,4,2,0,70,0,1
64641,-80,4,2,0,50,0,0
65773,-80,4,2,0,70,0,1
74829,-90.9090909090909,4,2,0,60,0,0
83886,-100,4,2,0,60,0,0
92801,-100,4,2,0,5,0,0

[Colours]
Combo1 : 192,192,192
Combo2 : 128,64,64
SliderBorder : 255,255,255
SliderTrackOverride : 0,0,0

[HitObjects]
256,192,4641,12,0,6622,0:0:0:0:
40,148,6905,5,2,0:0:0:0:
53,159,7471,1,4,0:3:0:0:
66,170,8037,1,2,0:0:0:0:
79,181,8603,1,4,0:3:0:0:
91,194,9169,6,0,P|99:232|79:278,1,90,4|2,0:0|0:0,0:0:0:0:
16,341,9735,1,4,0:3:0:0:
103,360,10018,2,0,B|175:351|175:351|236:312,1,135,2|0,0:0|0:0,0:0:0:0:
260,286,10584,1,2,0:0:0:0:
344,316,10867,1,4,0:3:0:0:
335,226,11150,2,0,P|379:232|414:259,1,90,2|0,0:0|0:0,0:0:0:0:
504,251,11716,5,2,0:0:0:0:
473,166,11999,1,4,0:3:0:0:
421,92,12282,2,0,B|373:77|373:77|332:85|332:85|290:74,1,135,2|0,0:0|0:0,0:0:0:0:
247,61,12848,2,0,L|161:34,1,90,2|4,0:0|0:3,0:0:0:0:
95,201,13697,6,0,P|139:200|175:175,1,90,2|0,0:0|0:0,0:0:0:0:
110,112,14263,1,4,0:3:0:0:
26,144,14546,2,0,B|-5:183|7:223|7:223|26:276,1,135,2|0,0:0|0:0,0:0:0:0:
41,310,15112,1,2,0:0:0:0:
113,363,15395,1,4,0:3:0:0:
200,344,15678,2,0,P|245:320|287:323,1,90,0|2,0:0|0:0,0:0:0:0:
369,346,16244,5,2,0:0:0:0:
456,326,16527,1,4,0:3:0:0:
506,249,16810,2,0,P|496:205|474:166,1,90,2|0,0:0|0:0,0:0:0:0:
410,102,17376,2,0,L|474:27,2,90,2|4|4,0:0|0:3|0:3,0:0:0:0:
410,102,18084,1,4,0:3:0:0:
410,102,18225,1,4,0:3:0:0:
315,148,18508,5,2,0:0:0:0:
326,53,18791,1,4,0:3:0:0:
315,148,19074,1,0,0:0:0:0:
235,91,19357,2,0,P|189:73|140:80,1,99.0000030212403,0|2,0:0|0:0,0:0:0:0:
103,113,19782,1,0,0:0:0:0:
98,162,19924,2,0,P|105:210|84:254,1,99.0000030212403,4|2,0:3|0:0,0:0:0:0:
4,195,20490,5,0,0:0:0:0:
83,254,20773,2,0,B|141:248|179:271|179:271|211:293|280:281,1,198.000006042481,2|2,0:0|0:0,0:0:0:0:
472,281,21905,1,2,0:0:0:0:
422,194,22188,1,4,0:3:0:0:
376,282,22471,1,2,0:0:0:0:
188,344,23037,5,2,0:0:0:0:
188,344,23178,1,0,0:0:0:0:
188,344,23320,1,4,0:3:0:0:
89,341,23603,1,0,0:0:0:0:
145,260,23886,2,0,L|169:162,1,99.0000030212403,0|2,0:0|0:0,0:0:0:0:
69,155,24452,2,0,L|45:251,1,99.0000030212403,4|0,0:3|0:0,0:0:0:0:
132,73,25301,5,2,0:0:0:0:
69,155,25584,2,0,P|139:174|205:143,1,148.50000453186,4|0,0:3|0:0,0:0:0:0:
242,111,26150,2,0,P|232:158|245:206,1,99.0000030212403,0|2,0:0|0:0,0:0:0:0:
329,257,26716,2,0,P|339:209|326:161,1,99.0000030212403,4|2,0:3|0:0,0:0:0:0:
269,351,27565,6,0,L|316:368,1,49.5000015106202,2|0,0:0|0:0,0:0:0:0:
360,346,27848,2,0,L|407:363,1,49.5000015106202,4|0,0:3|0:0,0:0:0:0:
451,341,28131,1,0,0:0:0:0:
429,244,28414,2,0,P|430:195|448:146,1,99.0000030212403,0|2,0:0|0:0,0:0:0:0:
475,108,28839,1,0,0:0:0:0:
504,68,28981,2,0,L|403:68,1,99.0000030212403,4|0,0:3|0:0,0:0:0:0:
312,35,29546,5,0,0:0:0:0:
217,63,29829,2,0,B|161:42|161:42|11:59,1,198.000006042481,0|2,0:0|0:0,0:0:0:0:
46,254,30961,1,2,0:0:0:0:
112,327,31244,1,4,0:3:0:0:
142,232,31527,1,2,0:0:0:0:
308,339,32093,6,0,B|341:351|341:351|428:338,1,99.0000030212403,2|4,0:0|0:3,0:0:0:0:
404,341,32518,1,0,0:0:0:0:
404,341,32659,1,0,0:0:0:0:
468,266,32942,2,0,B|480:228|480:228|464:165,1,99.0000030212403,0|2,0:0|0:0,0:0:0:0:
382,117,33508,2,0,B|370:155|370:155|386:218,1,99.0000030212403,4|0,0:3|0:0,0:0:0:0:
407,14,34357,6,0,P|358:11|309:18,1,99.0000030212403,2|4,0:0|0:3,0:0:0:0:
309,18,34782,1,0,0:0:0:0:
309,18,34924,1,0,0:0:0:0:
214,47,35207,2,0,P|188:88|192:137,1,99.0000030212403,0|2,0:0|0:0,0:0:0:0:
264,205,35773,2,0,P|289:163|285:114,1,99.0000030212403,4|2,0:3|0:0,0:0:0:0:
191,136,36339,5,2,0:0:0:0:
116,201,36622,1,2,0:0:0:0:
191,136,36905,1,6,0:3:0:0:
96,109,37188,2,0,P|37:151|27:223,1,148.50000453186,2|0,0:0|0:0,0:0:0:0:
42,270,37754,1,2,0:0:0:0:
92,354,38037,1,4,0:3:0:0:
42,270,38320,2,0,P|103:259|176:307,1,148.50000453186,2|0,0:0|0:0,0:0:0:0:
204,341,38886,5,2,0:0:0:0:
302,337,39169,1,6,0:3:0:0:
347,249,39452,1,2,0:0:0:0:
248,253,39735,1,2,0:0:0:0:
204,341,40018,1,2,0:0:0:0:
146,258,40301,2,0,P|156:210|185:171,1,99.0000030212403,4|0,0:3|0:0,0:0:0:0:
284,163,40867,5,2,0:0:0:0:
312,68,41150,1,2,0:0:0:0:
214,87,41433,1,6,0:3:0:0:
284,163,41716,2,0,P|360:183|427:152,1,148.50000453186,0|0,0:0|0:0,0:0:0:0:
457,122,42282,1,2,0:0:0:0:
488,215,42565,2,0,L|488:264,1,49.5000015106202,4|0,0:3|0:0,0:0:0:0:
487,314,42848,1,2,0:0:0:0:
388,314,43131,6,0,B|336:299|334:332|291:322,1,99.0000030212403
193,313,43697,1,4,0:3:0:0:
94,323,43980,2,0,B|114:249|66:246|82:178,1,148.50000453186
86,128,44546,2,0,L|151:43,1,99.0000030212403,2|4,0:0|0:3,0:0:0:0:
192,137,45112,2,0,L|282:79,1,99.0000030212403,2|0,0:0|0:0,0:0:0:0:
370,56,45678,5,2,0:0:0:0:
370,56,45820,1,0,0:0:0:0:
370,56,45961,1,4,0:3:0:0:
450,113,46244,1,2,0:0:0:0:
475,208,46527,2,0,B|473:259|473:259|449:308,1,99.0000030212403,0|2,0:0|0:0,0:0:0:0:
355,277,47093,2,0,B|376:233|376:233|378:182,1,99.0000030212403,4|2,0:3|0:0,0:0:0:0:
276,352,47942,5,2,0:0:0:0:
276,352,48084,1,0,0:0:0:0:
276,352,48225,1,4,0:3:0:0:
177,354,48508,1,2,0:0:0:0:
80,330,48791,1,0,0:0:0:0:
152,262,49074,1,2,0:0:0:0:
80,330,49357,1,4,0:3:0:0:
57,233,49641,2,0,L|51:179,1,49.5000015106202,2|0,0:0|0:0,0:0:0:0:
44,134,49924,5,0,0:0:0:0:
115,65,50207,1,2,0:0:0:0:
18,41,50490,1,4,0:3:0:0:
44,134,50773,2,0,P|110:162|179:137,1,148.50000453186,2|0,0:0|0:0,0:0:0:0:
215,103,51339,1,2,0:0:0:0:
284,32,51622,1,4,0:3:0:0:
310,126,51905,2,0,P|350:154|398:154,1,99.0000030212403,0|0,0:0|0:0,0:0:0:0:
382,57,52471,5,2,0:0:0:0:
284,32,52754,1,4,0:3:0:0:
215,103,53037,2,0,B|187:153|187:153|194:248,1,148.50000453186,0|0,0:0|0:0,0:0:0:0:
199,293,53603,1,2,0:0:0:0:
280,348,53886,1,4,0:3:0:0:
295,250,54169,1,0,0:0:0:0:
370,314,54452,5,4,0:3:0:0:
390,300,54593,1,4,0:3:0:0:
407,282,54735,1,4,0:3:0:0:
421,262,54876,1,4,0:3:0:0:
432,240,55018,2,0,L|393:209,3,49.5000015106202,4|4|4|4,0:3|0:3|0:3|0:3,0:0:0:0:
355,177,55584,6,0,L|316:146,3,49.5000015106202,4|4|4|4,0:3|0:3|0:3|0:3,0:0:0:0:
328,124,56150,1,4,0:3:0:0:
342,104,56291,1,4,0:3:0:0:
359,86,56433,1,4,0:3:0:0:
379,72,56574,1,4,0:3:0:0:
397,59,56716,6,0,L|281:4,1,112.5,4|2,0:0|0:0,0:0:0:0:
150,40,57282,1,4,0:3:0:0:
250,146,57565,1,2,0:0:0:0:
109,185,57848,2,0,L|218:155,1,112.5,0|2,0:0|0:0,0:0:0:0:
354,205,58414,2,0,L|245:235,1,112.5,4|0,0:3|0:0,0:0:0:0:
124,316,58980,6,0,B|221:354|231:279|344:337,1,225,2|4,0:0|0:3,0:0:0:0:
487,352,59829,2,0,P|506:300|497:246,1,112.5,2|0,0:0|0:0,0:0:0:0:
445,108,60395,5,2,0:0:0:0:
320,30,60678,1,4,0:3:0:0:
193,103,60961,1,2,0:0:0:0:
318,181,61244,1,2,0:0:0:0:
445,108,61527,5,2,0:0:0:0:
320,30,61810,1,4,0:3:0:0:
193,103,62093,1,2,0:0:0:0:
318,181,62376,1,2,0:0:0:0:
445,108,62659,2,0,B|443:175|443:175|479:216|479:216|483:268,1,168.75,2|0,0:0|0:0,0:0:0:0:
483,319,63225,1,2,0:0:0:0:
337,330,63508,6,0,L|220:347,1,112.5,2|0,0:0|0:0,0:0:0:0:
74,352,64074,2,0,P|92:299|84:244,1,112.5,4|0,0:3|0:0,0:0:0:0:
145,267,65773,6,0,L|205:276,1,56.25,4|0,0:0|0:0,0:0:0:0:
256,282,66056,1,0,0:0:0:0:
379,359,66339,1,4,0:3:0:0:
380,212,66622,1,0,0:0:0:0:
475,101,66905,2,0,P|436:53|385:31,1,112.5,2|2,0:0|0:0,0:0:0:0:
246,9,67471,2,0,P|283:56|333:78,1,112.5,4|0,0:3|0:0,0:0:0:0:
380,212,68037,6,0,B|332:251|332:251|158:245,1,225,2|4,0:0|0:3,0:0:0:0:
98,117,68886,2,0,P|51:154|30:202,1,112.5,2|0,0:0|0:0,0:0:0:0:
60,344,69452,5,2,0:0:0:0:
168,245,69735,1,4,0:3:0:0:
30,201,70018,1,2,0:0:0:0:
60,344,70301,1,2,0:0:0:0:
168,245,70584,5,0,0:0:0:0:
276,146,70867,1,4,0:3:0:0:
138,102,71150,1,2,0:0:0:0:
168,245,71433,1,2,0:0:0:0:
296,315,71716,2,0,B|341:317|378:289|378:289|401:322|440:340,1,168.75,2|0,0:0|0:0,0:0:0:0:
494,353,72282,1,2,0:0:0:0:
497,206,72565,6,0,B|504:149|504:149|477:94,1,112.5,2|2,0:0|0:0,0:0:0:0:
365,8,73131,2,0,P|312:25|257:14,1,112.5,4|2,0:3|0:0,0:0:0:0:
145,19,73697,2,0,P|144:101|191:170,1,168.75,2|0,0:0|0:0,0:0:0:0:
234,208,74263,2,0,P|256:258|247:313,1,112.5,4|0,0:3|0:0,0:0:0:0:
157,270,74829,6,0,P|106:278|55:267,1,99.0000030212403,4|2,0:0|0:0,0:0:0:0:
100,178,75395,2,0,P|51:171|6:140,1,99.0000030212403,4|2,0:3|0:0,0:0:0:0:
85,79,75961,2,0,P|44:61|8:11,1,99.0000030212403,2|2,0:0|0:0,0:0:0:0:
108,3,76527,1,4,0:3:0:0:
193,53,76810,1,2,0:0:0:0:
289,29,77093,6,0,P|367:39|306:102,1,198.000006042481,2|4,0:0|0:3,0:0:0:0:
218,131,77942,1,2,0:0:0:0:
67,259,78508,5,2,0:0:0:0:
110,347,78791,1,4,0:3:0:0:
167,267,79074,1,2,0:0:0:0:
67,259,79357,1,2,0:0:0:0:
124,179,79641,5,2,0:0:0:0:
167,267,79924,1,4,0:3:0:0:
224,187,80207,1,2,0:0:0:0:
124,179,80490,1,2,0:0:0:0:
167,267,80773,2,0,P|240:277|296:332,1,148.50000453186,2|0,0:0|0:0,0:0:0:0:
299,375,81339,2,0,L|198:381,2,99.0000030212403,2|0|2,0:0|0:3|0:0,0:0:0:0:
256,192,82188,12,0,83603,0:0:0:0:
120,194,83886,6,0,P|125:236|98:287,1,90,4|0,0:0|0:0,0:0:0:0:
39,226,84452,1,4,0:3:0:0:
47,136,84735,2,0,B|80:99|80:99|180:88,1,135,2|0,0:0|0:0,0:0:0:0:
209,87,85301,1,2,0:0:0:0:
286,41,85584,1,4,0:3:0:0:
356,97,85867,2,0,P|349:141|322:176,1,90,0|2,0:0|0:0,0:0:0:0:
232,178,86433,5,2,0:0:0:0:
275,256,86716,1,4,0:3:0:0:
316,335,86999,2,0,B|364:320|364:320|405:328|405:328|447:317,1,135,2|0,0:0|0:0,0:0:0:0:
489,302,87565,2,0,P|476:254|482:210,1,90,2|4,0:0|0:3,0:0:0:0:
464,125,88131,1,4,0:3:0:0:
464,125,88273,1,4,0:3:0:0:
464,125,88414,5,4,0:3:0:0:
256,192,88556,12,0,93084,0:0:0:0:
